  0
SECTION
  2
HEADER
  9
$ACADVER
  1
AC1024
  9
$ACADMAINTVER
 70
     6
  9
$DWGCODEPAGE
  3
ANSI_932
  9
$LASTSAVEDBY
  1
Schuyler
  9
$INSBASE
 10
0.0
 20
0.0
 30
0.0
  9
$EXTMIN
 10
215.1171132055122
 20
-4.19425378203411
 30
0.0
  9
$EXTMAX
 10
222.8671132055122
 20
0.6807462179658899
 30
0.0
  9
$LIMMIN
 10
0.0
 20
0.0
  9
$LIMMAX
 10
17.0
 20
11.0
  9
$ORTHOMODE
 70
     0
  9
$REGENMODE
 70
     1
  9
$FILLMODE
 70
     1
  9
$QTEXTMODE
 70
     0
  9
$MIRRTEXT
 70
     0
  9
$LTSCALE
 40
3.2
  9
$ATTMODE
 70
     1
  9
$TEXTSIZE
 40
0.1
  9
$TRACEWID
 40
0.05
  9
$TEXTSTYLE
  7
STANDARD
  9
$CLAYER
  8
D
  9
$CELTYPE
  6
BYLAYER
  9
$CECOLOR
 62
   256
  9
$CELTSCALE
 40
1.0
  9
$DISPSILH
 70
     0
  9
$DIMSCALE
 40
0.4
  9
$DIMASZ
 40
0.12
  9
$DIMEXO
 40
0.1
  9
$DIMDLI
 40
0.22
  9
$DIMRND
 40
0.0
  9
$DIMDLE
 40
0.0
  9
$DIMEXE
 40
0.12
  9
$DIMTP
 40
0.0
  9
$DIMTM
 40
0.0
  9
$DIMTXT
 40
0.1
  9
$DIMCEN
 40
0.0
  9
$DIMTSZ
 40
0.0
  9
$DIMTOL
 70
     0
  9
$DIMLIM
 70
     0
  9
$DIMTIH
 70
     0
  9
$DIMTOH
 70
     0
  9
$DIMSE1
 70
     0
  9
$DIMSE2
 70
     0
  9
$DIMTAD
 70
     0
  9
$DIMZIN
 70
     3
  9
$DIMBLK
  1

  9
$DIMASO
 70
     1
  9
$DIMSHO
 70
     0
  9
$DIMPOST
  1

  9
$DIMAPOST
  1

  9
$DIMALT
 70
     0
  9
$DIMALTD
 70
     2
  9
$DIMALTF
 40
25.4
  9
$DIMLFAC
 40
1.0
  9
$DIMTOFL
 70
     0
  9
$DIMTVP
 40
0.0
  9
$DIMTIX
 70
     0
  9
$DIMSOXD
 70
     0
  9
$DIMSAH
 70
     0
  9
$DIMBLK1
  1

  9
$DIMBLK2
  1

  9
$DIMSTYLE
  2
TPS3
  9
$DIMCLRD
 70
     0
  9
$DIMCLRE
 70
     0
  9
$DIMCLRT
 70
     0
  9
$DIMTFAC
 40
1.0
  9
$DIMGAP
 40
0.09
  9
$DIMJUST
 70
     0
  9
$DIMSD1
 70
     0
  9
$DIMSD2
 70
     0
  9
$DIMTOLJ
 70
     1
  9
$DIMTZIN
 70
     3
  9
$DIMALTZ
 70
     0
  9
$DIMALTTZ
 70
     0
  9
$DIMUPT
 70
     0
  9
$DIMDEC
 70
     3
  9
$DIMTDEC
 70
     3
  9
$DIMALTU
 70
     2
  9
$DIMALTTD
 70
     2
  9
$DIMTXSTY
  7
STANDARD
  9
$DIMAUNIT
 70
     0
  9
$DIMADEC
 70
     0
  9
$DIMALTRND
 40
0.0
  9
$DIMAZIN
 70
     0
  9
$DIMDSEP
 70
    46
  9
$DIMATFIT
 70
     3
  9
$DIMFRAC
 70
     0
  9
$DIMLDRBLK
  1

  9
$DIMLUNIT
 70
     2
  9
$DIMLWD
 70
    -2
  9
$DIMLWE
 70
    -2
  9
$DIMTMOVE
 70
     0
  9
$DIMFXL
 40
1.0
  9
$DIMFXLON
 70
     0
  9
$DIMJOGANG
 40
0.7853981633974483
  9
$DIMTFILL
 70
     0
  9
$DIMTFILLCLR
 70
     0
  9
$DIMARCSYM
 70
     0
  9
$DIMLTYPE
  6

  9
$DIMLTEX1
  6

  9
$DIMLTEX2
  6

  9
$DIMTXTDIRECTION
 70
     0
  9
$LUNITS
 70
     2
  9
$LUPREC
 70
     3
  9
$SKETCHINC
 40
0.1
  9
$FILLETRAD
 40
0.0
  9
$AUNITS
 70
     0
  9
$AUPREC
 70
     1
  9
$MENU
  1
ACAD
  9
$ELEVATION
 40
0.0
  9
$PELEVATION
 40
0.0
  9
$THICKNESS
 40
0.0
  9
$LIMCHECK
 70
     0
  9
$CHAMFERA
 40
0.0
  9
$CHAMFERB
 40
0.0
  9
$CHAMFERC
 40
0.0
  9
$CHAMFERD
 40
0.0
  9
$SKPOLY
 70
     0
  9
$TDCREATE
 40
2455057.585952812
  9
$TDUCREATE
 40
2455057.752619480
  9
$TDUPDATE
 40
2455849.026828727
  9
$TDUUPDATE
 40
2455849.193495394
  9
$TDINDWG
 40
9.9982258681
  9
$TDUSRTIMER
 40
9.9982258681
  9
$USRTIMER
 70
     1
  9
$ANGBASE
 50
0.0
  9
$ANGDIR
 70
     0
  9
$PDMODE
 70
     3
  9
$PDSIZE
 40
0.02
  9
$PLINEWID
 40
0.0
  9
$SPLFRAME
 70
     0
  9
$SPLINETYPE
 70
     6
  9
$SPLINESEGS
 70
     8
  9
$HANDSEED
  5
1774
  9
$SURFTAB1
 70
     6
  9
$SURFTAB2
 70
     6
  9
$SURFTYPE
 70
     6
  9
$SURFU
 70
     6
  9
$SURFV
 70
     6
  9
$UCSBASE
  2

  9
$UCSNAME
  2

  9
$UCSORG
 10
217.0637956006614
 20
-1.390165411011395
 30
0.0
  9
$UCSXDIR
 10
1.0
 20
0.0
 30
0.0
  9
$UCSYDIR
 10
0.0
 20
1.0
 30
0.0
  9
$UCSORTHOREF
  2

  9
$UCSORTHOVIEW
 70
     0
  9
$UCSORGTOP
 10
0.0
 20
0.0
 30
0.0
  9
$UCSORGBOTTOM
 10
0.0
 20
0.0
 30
0.0
  9
$UCSORGLEFT
 10
0.0
 20
0.0
 30
0.0
  9
$UCSORGRIGHT
 10
0.0
 20
0.0
 30
0.0
  9
$UCSORGFRONT
 10
0.0
 20
0.0
 30
0.0
  9
$UCSORGBACK
 10
0.0
 20
0.0
 30
0.0
  9
$PUCSBASE
  2

  9
$PUCSNAME
  2

  9
$PUCSORG
 10
0.0
 20
0.0
 30
0.0
  9
$PUCSXDIR
 10
1.0
 20
0.0
 30
0.0
  9
$PUCSYDIR
 10
0.0
 20
1.0
 30
0.0
  9
$PUCSORTHOREF
  2

  9
$PUCSORTHOVIEW
 70
     0
  9
$PUCSORGTOP
 10
0.0
 20
0.0
 30
0.0
  9
$PUCSORGBOTTOM
 10
0.0
 20
0.0
 30
0.0
  9
$PUCSORGLEFT
 10
0.0
 20
0.0
 30
0.0
  9
$PUCSORGRIGHT
 10
0.0
 20
0.0
 30
0.0
  9
$PUCSORGFRONT
 10
0.0
 20
0.0
 30
0.0
  9
$PUCSORGBACK
 10
0.0
 20
0.0
 30
0.0
  9
$USERI1
 70
     0
  9
$USERI2
 70
     0
  9
$USERI3
 70
     0
  9
$USERI4
 70
     0
  9
$USERI5
 70
     0
  9
$USERR1
 40
0.0
  9
$USERR2
 40
0.0
  9
$USERR3
 40
0.0
  9
$USERR4
 40
0.0
  9
$USERR5
 40
0.0
  9
$WORLDVIEW
 70
     1
  9
$SHADEDGE
 70
     3
  9
$SHADEDIF
 70
    70
  9
$TILEMODE
 70
     1
  9
$MAXACTVP
 70
    16
  9
$PINSBASE
 10
0.0
 20
0.0
 30
0.0
  9
$PLIMCHECK
 70
     0
  9
$PEXTMIN
 10
1.000000000000000E+20
 20
1.000000000000000E+20
 30
1.000000000000000E+20
  9
$PEXTMAX
 10
-1.000000000000000E+20
 20
-1.000000000000000E+20
 30
-1.000000000000000E+20
  9
$PLIMMIN
 10
0.0
 20
0.0
  9
$PLIMMAX
 10
12.0
 20
9.0
  9
$UNITMODE
 70
     0
  9
$VISRETAIN
 70
     0
  9
$PLINEGEN
 70
     0
  9
$PSLTSCALE
 70
     0
  9
$TREEDEPTH
 70
  3020
  9
$CMLSTYLE
  2
STANDARD
  9
$CMLJUST
 70
     0
  9
$CMLSCALE
 40
1.0
  9
$PROXYGRAPHICS
 70
     1
  9
$MEASUREMENT
 70
     0
  9
$CELWEIGHT
370
    -1
  9
$ENDCAPS
280
     0
  9
$JOINSTYLE
280
     0
  9
$LWDISPLAY
290
     0
  9
$INSUNITS
 70
     0
  9
$HYPERLINKBASE
  1

  9
$STYLESHEET
  1
tps-s1_BLACK.ctb
  9
$XEDIT
290
     1
  9
$CEPSNTYPE
380
     0
  9
$PSTYLEMODE
290
     1
  9
$FINGERPRINTGUID
  2
{AF1BFB27-CCE5-11D3-9728-005004AD2079}
  9
$VERSIONGUID
  2
{0C290EA5-3CAC-4869-871A-EE3436228F4D}
  9
$EXTNAMES
290
     1
  9
$PSVPSCALE
 40
0.0
  9
$OLESTARTUP
290
     0
  9
$SORTENTS
280
   127
  9
$INDEXCTL
280
     0
  9
$HIDETEXT
280
     0
  9
$XCLIPFRAME
280
     2
  9
$HALOGAP
280
     0
  9
$OBSCOLOR
 70
   257
  9
$OBSLTYPE
280
     0
  9
$INTERSECTIONDISPLAY
280
     0
  9
$INTERSECTIONCOLOR
 70
   257
  9
$DIMASSOC
280
     1
  9
$PROJECTNAME
  1

  9
$CAMERADISPLAY
290
     0
  9
$LENSLENGTH
 40
50.0
  9
$CAMERAHEIGHT
 40
0.0
  9
$STEPSPERSEC
 40
2.0
  9
$STEPSIZE
 40
6.0
  9
$3DDWFPREC
 40
2.0
  9
$PSOLWIDTH
 40
0.25
  9
$PSOLHEIGHT
 40
4.0
  9
$LOFTANG1
 40
1.570796326794896
  9
$LOFTANG2
 40
1.570796326794896
  9
$LOFTMAG1
 40
0.0
  9
$LOFTMAG2
 40
0.0
  9
$LOFTPARAM
 70
     7
  9
$LOFTNORMALS
280
     1
  9
$LATITUDE
 40
37.795
  9
$LONGITUDE
 40
-122.394
  9
$NORTHDIRECTION
 40
0.0
  9
$TIMEZONE
 70
 -8000
  9
$LIGHTGLYPHDISPLAY
280
     1
  9
$TILEMODELIGHTSYNCH
280
     1
  9
$CMATERIAL
347
16F1
  9
$SOLIDHIST
280
     1
  9
$SHOWHIST
280
     1
  9
$DWFFRAME
280
     2
  9
$DGNFRAME
280
     0
  9
$REALWORLDSCALE
290
     1
  9
$INTERFERECOLOR
 62
     1
  9
$INTERFEREOBJVS
345
1713
  9
$INTERFEREVPVS
346
1710
  9
$CSHADOW
280
     0
  9
$SHADOWPLANELOCATION
 40
0.0
  0
ENDSEC
  0
SECTION
  2
CLASSES
  0
CLASS
  1
ACDBDICTIONARYWDFLT
  2
AcDbDictionaryWithDefault
  3
ObjectDBX Classes
 90
        0
 91
        1
280
     0
281
     0
  0
CLASS
  1
PLOTSETTINGS
  2
AcDbPlotSettings
  3
ObjectDBX Classes
 90
        0
 91
        2
280
     0
281
     0
  0
CLASS
  1
SORTENTSTABLE
  2
AcDbSortentsTable
  3
ObjectDBX Classes
 90
        0
 91
        0
280
     0
281
     0
  0
CLASS
  1
MATERIAL
  2
AcDbMaterial
  3
ObjectDBX Classes
 90
     1153
 91
        3
280
     0
281
     0
  0
CLASS
  1
VISUALSTYLE
  2
AcDbVisualStyle
  3
ObjectDBX Classes
 90
     4095
 91
       19
280
     0
281
     0
  0
CLASS
  1
TABLESTYLE
  2
AcDbTableStyle
  3
ObjectDBX Classes
 90
     4095
 91
        1
280
     0
281
     0
  0
CLASS
  1
SCALE
  2
AcDbScale
  3
ObjectDBX Classes
 90
     1153
 91
       33
280
     0
281
     0
  0
CLASS
  1
MLEADERSTYLE
  2
AcDbMLeaderStyle
  3
ACDB_MLEADERSTYLE_CLASS
 90
     4095
 91
        1
280
     0
281
     0
  0
CLASS
  1
DICTIONARYVAR
  2
AcDbDictionaryVar
  3
ObjectDBX Classes
 90
        0
 91
        7
280
     0
281
     0
  0
CLASS
  1
CELLSTYLEMAP
  2
AcDbCellStyleMap
  3
ObjectDBX Classes
 90
     1152
 91
        1
280
     0
281
     0
  0
ENDSEC
  0
SECTION
  2
TABLES
  0
TABLE
  2
VPORT
  5
8
330
0
100
AcDbSymbolTable
 70
     1
  0
VPORT
  5
16EE
330
8
100
AcDbSymbolTableRecord
100
AcDbViewportTableRecord
  2
*Active
 70
     0
 10
0.0
 20
0.0
 11
1.0
 21
1.0
 12
218.9921132055122
 22
-1.377342420474561
 13
0.0
 23
0.0
 14
1.0
 24
1.0
 15
0.0
 25
0.0
 16
0.0
 26
0.0
 36
1.0
 17
0.0
 27
0.0
 37
0.0
 40
5.634559761378395
 41
1.85287610619469
 42
0.0
 43
0.0
 44
0.0
 50
0.0
 51
0.0
 71
     0
 72
   100
 73
     1
 74
     0
 75
     0
 76
     0
 77
     0
 78
     2
281
     0
 65
     1
110
217.0637956006614
120
-1.390165411011395
130
0.0
111
1.0
121
0.0
131
0.0
112
0.0
122
1.0
132
0.0
 79
     0
146
0.0
348
170F
 60
     3
 61
     5
292
     1
282
     1
141
0.0
142
0.0
 63
   250
421
  3355443
  0
ENDTAB
  0
TABLE
  2
LTYPE
  5
5
330
0
100
AcDbSymbolTable
 70
     4
  0
LTYPE
  5
12
330
5
100
AcDbSymbolTableRecord
100
AcDbLinetypeTableRecord
  2
BYBLOCK
 70
     0
  3

 72
    65
 73
     0
 40
0.0
  0
LTYPE
  5
13
330
5
100
AcDbSymbolTableRecord
100
AcDbLinetypeTableRecord
  2
BYLAYER
 70
     0
  3

 72
    65
 73
     0
 40
0.0
  0
LTYPE
  5
14
330
5
100
AcDbSymbolTableRecord
100
AcDbLinetypeTableRecord
  2
CONTINUOUS
 70
     0
  3
Solid line
 72
    65
 73
     0
 40
0.0
  0
LTYPE
  5
1D
330
5
100
AcDbSymbolTableRecord
100
AcDbLinetypeTableRecord
  2
H
 70
     0
  3
_ _ _ _ _ _ _ _ _ _ _ _ _ _ _ _ _ _ _ _ _ _ _
 72
    65
 73
     2
 40
0.375
 49
0.25
 74
     0
 49
-0.125
 74
     0
  0
LTYPE
  5
1E
330
5
100
AcDbSymbolTableRecord
100
AcDbLinetypeTableRecord
  2
C
 70
     0
  3
____ _ ____ _ ____ _ ____ _ ____ _ ____ _ ____
 72
    65
 73
     4
 40
2.0
 49
1.25
 74
     0
 49
-0.25
 74
     0
 49
0.25
 74
     0
 49
-0.25
 74
     0
  0
LTYPE
  5
726
330
5
100
AcDbSymbolTableRecord
100
AcDbLinetypeTableRecord
  2
ACAD_ISO08W100
 70
     0
  3
ISO long-dash short-dash ____ __ ____ __ ____ _
 72
    65
 73
     4
 40
36.0
 49
24.0
 74
     0
 49
-3.0
 74
     0
 49
6.0
 74
     0
 49
-3.0
 74
     0
  0
ENDTAB
  0
TABLE
  2
LAYER
  5
2
330
0
100
AcDbSymbolTable
 70
    17
  0
LAYER
  5
F
102
{ACAD_XDICTIONARY
360
174A
102
}
330
2
100
AcDbSymbolTableRecord
100
AcDbLayerTableRecord
  2
0
 70
     0
 62
     7
  6
CONTINUOUS
370
    -3
390
106
347
1701
  0
LAYER
  5
24
102
{ACAD_XDICTIONARY
360
174C
102
}
330
2
100
AcDbSymbolTableRecord
100
AcDbLayerTableRecord
  2
H
 70
     0
 62
     1
  6
H
370
    -3
390
106
347
1701
  0
LAYER
  5
25
102
{ACAD_XDICTIONARY
360
174E
102
}
330
2
100
AcDbSymbolTableRecord
100
AcDbLayerTableRecord
  2
C
 70
     0
 62
     1
  6
C
370
    -3
390
106
347
1701
  0
LAYER
  5
26
102
{ACAD_XDICTIONARY
360
1750
102
}
330
2
100
AcDbSymbolTableRecord
100
AcDbLayerTableRecord
  2
BORDER
 70
     0
 62
     3
  6
CONTINUOUS
370
    -3
390
106
347
1701
  0
LAYER
  5
27
102
{ACAD_XDICTIONARY
360
1752
102
}
330
2
100
AcDbSymbolTableRecord
100
AcDbLayerTableRecord
  2
X
 70
     0
 62
     1
  6
CONTINUOUS
370
    -3
390
106
347
1701
  0
LAYER
  5
28
102
{ACAD_XDICTIONARY
360
1754
102
}
330
2
100
AcDbSymbolTableRecord
100
AcDbLayerTableRecord
  2
T
 70
     0
 62
    50
  6
CONTINUOUS
370
    -3
390
106
347
1701
  0
LAYER
  5
2A
102
{ACAD_XDICTIONARY
360
1756
102
}
330
2
100
AcDbSymbolTableRecord
100
AcDbLayerTableRecord
  2
D
 70
     0
 62
     7
  6
CONTINUOUS
370
    -3
390
106
347
1701
  0
LAYER
  5
371
102
{ACAD_XDICTIONARY
360
1758
102
}
330
2
100
AcDbSymbolTableRecord
100
AcDbLayerTableRecord
  2
FRAME 070
 70
     0
 62
     5
  6
CONTINUOUS
370
    -3
390
106
347
1701
  0
LAYER
  5
372
102
{ACAD_XDICTIONARY
360
175A
102
}
330
2
100
AcDbSymbolTableRecord
100
AcDbLayerTableRecord
  2
SECTION
 70
     0
 62
     6
  6
ACAD_ISO08W100
370
    -3
390
106
347
1701
  0
LAYER
  5
373
102
{ACAD_XDICTIONARY
360
175C
102
}
330
2
100
AcDbSymbolTableRecord
100
AcDbLayerTableRecord
  2
FRAME 025
 70
     0
 62
     7
  6
CONTINUOUS
370
    -3
390
106
347
1701
  0
LAYER
  5
374
102
{ACAD_XDICTIONARY
360
175E
102
}
330
2
100
AcDbSymbolTableRecord
100
AcDbLayerTableRecord
  2
Title Block
 70
     0
 62
    30
  6
CONTINUOUS
370
    -3
390
106
347
1701
  0
LAYER
  5
496
102
{ACAD_XDICTIONARY
360
1760
102
}
330
2
100
AcDbSymbolTableRecord
100
AcDbLayerTableRecord
  2
TITLE BLOCK TEXT
 70
     0
 62
   253
  6
CONTINUOUS
370
    -3
390
106
347
1701
  0
LAYER
  5
4CC
330
2
100
AcDbSymbolTableRecord
100
AcDbLayerTableRecord
  2
Defpoints
 70
     0
 62
     7
  6
CONTINUOUS
290
     0
370
    -3
390
106
347
1701
  0
LAYER
  5
4F0
102
{ACAD_XDICTIONARY
360
1762
102
}
330
2
100
AcDbSymbolTableRecord
100
AcDbLayerTableRecord
  2
ti tubing 075
 70
     0
 62
    41
  6
CONTINUOUS
370
    -3
390
106
347
1701
  0
LAYER
  5
504
102
{ACAD_XDICTIONARY
360
1764
102
}
330
2
100
AcDbSymbolTableRecord
100
AcDbLayerTableRecord
  2
ti tubing 2.0
 70
     0
 62
   101
  6
CONTINUOUS
370
    -3
390
106
347
1701
  0
LAYER
  5
AF7
102
{ACAD_XDICTIONARY
360
AF8
102
}
330
2
100
AcDbSymbolTableRecord
100
AcDbLayerTableRecord
  2
Layer 1
 70
     0
 62
     7
  6
CONTINUOUS
370
    -3
390
106
347
1701
  0
LAYER
  5
1197
102
{ACAD_XDICTIONARY
360
1767
102
}
330
2
100
AcDbSymbolTableRecord
100
AcDbLayerTableRecord
  2
PICK
 70
     0
 62
   211
  6
CONTINUOUS
370
    -3
390
106
347
1701
  0
ENDTAB
  0
TABLE
  2
STYLE
  5
3
330
0
100
AcDbSymbolTable
 70
     6
  0
STYLE
  5
10
330
3
100
AcDbSymbolTableRecord
100
AcDbTextStyleTableRecord
  2
STANDARD
 70
     0
 40
0.0
 41
1.0
 50
0.0
 71
     0
 42
0.1
  3
txt
  4

  0
STYLE
  5
376
330
3
100
AcDbSymbolTableRecord
100
AcDbTextStyleTableRecord
  2
ISO Proportional
 70
     0
 40
0.0
 41
1.0
 50
0.0
 71
     0
 42
2.5
  3
isocp.shx
  4

  0
STYLE
  5
3D0
330
3
100
AcDbSymbolTableRecord
100
AcDbTextStyleTableRecord
  2
Roman
 70
     0
 40
0.0
 41
1.0
 50
0.0
 71
     0
 42
0.065
  3
romans
  4

  0
STYLE
  5
725
330
3
100
AcDbSymbolTableRecord
100
AcDbTextStyleTableRecord
  2

 70
     1
 40
0.0
 41
1.0
 50
0.0
 71
     0
 42
0.1
  3
ltypeshp.shx
  4

  0
STYLE
  5
A85
330
3
100
AcDbSymbolTableRecord
100
AcDbTextStyleTableRecord
  2
Annotative
 70
     0
 40
0.0
 41
1.0
 50
0.0
 71
     0
 42
0.2
  3
ARIAL.TTF
  4

1001
AcadAnnotative
1000
AnnotativeData
1002
{
1070
     1
1070
     1
1002
}
1001
ACAD
1000
Arial
1071
       34
  0
STYLE
  5
A86
330
3
100
AcDbSymbolTableRecord
100
AcDbTextStyleTableRecord
  2
small
 70
     0
 40
0.1
 41
1.0
 50
0.0
 71
     0
 42
0.2
  3
ARIAL.TTF
  4

1001
ACAD
1000
Arial
1071
       34
  0
ENDTAB
  0
TABLE
  2
VIEW
  5
6
330
0
100
AcDbSymbolTable
 70
     1
  0
VIEW
  5
20
330
6
100
AcDbSymbolTableRecord
100
AcDbViewTableRecord
  2
BORDER
 70
     0
 40
4.875
 10
218.9921132055122
 20
-1.75675378203411
 41
7.75
 11
0.0
 21
0.0
 31
1.0
 12
0.0
 22
0.0
 32
0.0
 42
0.0
 43
0.0
 44
0.0
 50
0.0
 71
     0
281
     0
 72
     0
 73
     0
348
170F
  0
ENDTAB
  0
TABLE
  2
UCS
  5
7
330
0
100
AcDbSymbolTable
 70
     0
  0
ENDTAB
  0
TABLE
  2
APPID
  5
9
330
0
100
AcDbSymbolTable
 70
    11
  0
APPID
  5
11
330
9
100
AcDbSymbolTableRecord
100
AcDbRegAppTableRecord
  2
ACAD
 70
     0
  0
APPID
  5
175
330
9
100
AcDbSymbolTableRecord
100
AcDbRegAppTableRecord
  2
SI-MECH
 70
     0
  0
APPID
  5
29D
330
9
100
AcDbSymbolTableRecord
100
AcDbRegAppTableRecord
  2
DCO15
 70
     0
  0
APPID
  5
A8A
330
9
100
AcDbSymbolTableRecord
100
AcDbRegAppTableRecord
  2
AcadAnnoPO
 70
     0
  0
APPID
  5
A8B
330
9
100
AcDbSymbolTableRecord
100
AcDbRegAppTableRecord
  2
AcadAnnotative
 70
     0
  0
APPID
  5
A8C
330
9
100
AcDbSymbolTableRecord
100
AcDbRegAppTableRecord
  2
ACAD_DSTYLE_DIMJAG
 70
     0
  0
APPID
  5
A8D
330
9
100
AcDbSymbolTableRecord
100
AcDbRegAppTableRecord
  2
ACAD_DSTYLE_DIMTALN
 70
     0
  0
APPID
  5
A8E
330
9
100
AcDbSymbolTableRecord
100
AcDbRegAppTableRecord
  2
ACAD_MLEADERVER
 70
     0
  0
APPID
  5
A8F
330
9
100
AcDbSymbolTableRecord
100
AcDbRegAppTableRecord
  2
ACAD_DSTYLE_DIMBREAK
 70
     0
  0
APPID
  5
A90
330
9
100
AcDbSymbolTableRecord
100
AcDbRegAppTableRecord
  2
ACAD_EXEMPT_FROM_CAD_STANDARDS
 70
     0
  0
APPID
  5
A91
330
9
100
AcDbSymbolTableRecord
100
AcDbRegAppTableRecord
  2
ACAD_DSTYLE_DIMRADIAL_EXTENSION
 70
     0
  0
ENDTAB
  0
TABLE
  2
DIMSTYLE
  5
A
330
0
100
AcDbSymbolTable
 70
     5
100
AcDbDimStyleTable
 71
     2
340
49A
340
8C
  0
DIMSTYLE
105
8C
330
A
100
AcDbSymbolTableRecord
100
AcDbDimStyleTableRecord
  2
THREE
 70
     0
 41
0.12
 42
0.1
 43
0.22
 44
0.12
 73
     0
 78
     3
140
0.1
141
0.0
271
     3
272
     3
284
     3
340
10
  0
DIMSTYLE
105
49A
102
{ACAD_REACTORS
330
11A2
330
14EF
330
14F8
330
150D
330
1516
330
151F
330
1529
330
1532
330
153D
330
1548
330
1553
330
155E
330
1567
330
1570
330
1579
330
1582
330
1592
330
159D
330
15A6
330
15AF
330
15BD
330
15C6
330
15CF
330
15D8
330
15E1
330
15EA
330
15F3
330
160D
330
161B
330
162E
102
}
330
A
100
AcDbSymbolTableRecord
100
AcDbDimStyleTableRecord
  2
TPS3
 70
     0
 40
0.4
 41
0.12
 42
0.1
 43
0.22
 44
0.12
 73
     0
 74
     0
 78
     3
140
0.1
141
0.0
271
     3
272
     3
284
     3
340
10
  0
DIMSTYLE
105
A87
330
A
100
AcDbSymbolTableRecord
100
AcDbDimStyleTableRecord
  2
Standard
 70
     0
340
10
  0
DIMSTYLE
105
A88
330
A
100
AcDbSymbolTableRecord
100
AcDbDimStyleTableRecord
  2
Annotative
 70
     0
 40
0.0
340
10
1001
AcadAnnotative
1000
AnnotativeData
1002
{
1070
     1
1070
     1
1002
}
1001
ACAD_DSTYLE_DIMJAG
1070
   388
1040
1.5
1001
ACAD_DSTYLE_DIMTALN
1070
   392
1070
     0
  0
DIMSTYLE
105
A89
330
A
100
AcDbSymbolTableRecord
100
AcDbDimStyleTableRecord
  2
small
 70
     0
 41
0.075
140
0.1
175
     1
279
     1
340
A86
1001
ACAD_DSTYLE_DIMBREAK
1070
   391
1040
0.125
1001
ACAD_DSTYLE_DIMJAG
1070
   388
1040
1.5
1001
ACAD_DSTYLE_DIMTALN
1070
   392
1070
     0
  0
ENDTAB
  0
TABLE
  2
BLOCK_RECORD
  5
1
330
0
100
AcDbSymbolTable
 70
    30
  0
BLOCK_RECORD
  5
18
330
1
100
AcDbSymbolTableRecord
100
AcDbBlockTableRecord
  2
*MODEL_SPACE
340
109
 70
     0
280
     1
281
     0
  0
BLOCK_RECORD
  5
15
330
1
100
AcDbSymbolTableRecord
100
AcDbBlockTableRecord
  2
*PAPER_SPACE
340
10A
 70
     0
280
     1
281
     0
  0
BLOCK_RECORD
  5
11A3
330
1
100
AcDbSymbolTableRecord
100
AcDbBlockTableRecord
  2
*D0
340
0
 70
     0
280
     1
281
     0
  0
BLOCK_RECORD
  5
14F0
330
1
100
AcDbSymbolTableRecord
100
AcDbBlockTableRecord
  2
*D1
340
0
 70
     0
280
     1
281
     0
  0
BLOCK_RECORD
  5
14F9
330
1
100
AcDbSymbolTableRecord
100
AcDbBlockTableRecord
  2
*D2
340
0
 70
     0
280
     1
281
     0
  0
BLOCK_RECORD
  5
150E
330
1
100
AcDbSymbolTableRecord
100
AcDbBlockTableRecord
  2
*D3
340
0
 70
     0
280
     1
281
     0
  0
BLOCK_RECORD
  5
1517
330
1
100
AcDbSymbolTableRecord
100
AcDbBlockTableRecord
  2
*D4
340
0
 70
     0
280
     1
281
     0
  0
BLOCK_RECORD
  5
1520
330
1
100
AcDbSymbolTableRecord
100
AcDbBlockTableRecord
  2
*D5
340
0
 70
     0
280
     1
281
     0
  0
BLOCK_RECORD
  5
152A
330
1
100
AcDbSymbolTableRecord
100
AcDbBlockTableRecord
  2
*D6
340
0
 70
     0
280
     1
281
     0
  0
BLOCK_RECORD
  5
1533
330
1
100
AcDbSymbolTableRecord
100
AcDbBlockTableRecord
  2
*D7
340
0
 70
     0
280
     1
281
     0
  0
BLOCK_RECORD
  5
153E
330
1
100
AcDbSymbolTableRecord
100
AcDbBlockTableRecord
  2
*D8
340
0
 70
     0
280
     1
281
     0
  0
BLOCK_RECORD
  5
1549
330
1
100
AcDbSymbolTableRecord
100
AcDbBlockTableRecord
  2
*D9
340
0
 70
     0
280
     1
281
     0
  0
BLOCK_RECORD
  5
1554
330
1
100
AcDbSymbolTableRecord
100
AcDbBlockTableRecord
  2
*D10
340
0
 70
     0
280
     1
281
     0
  0
BLOCK_RECORD
  5
155F
330
1
100
AcDbSymbolTableRecord
100
AcDbBlockTableRecord
  2
*D11
340
0
 70
     0
280
     1
281
     0
  0
BLOCK_RECORD
  5
1568
330
1
100
AcDbSymbolTableRecord
100
AcDbBlockTableRecord
  2
*D12
340
0
 70
     0
280
     1
281
     0
  0
BLOCK_RECORD
  5
1571
330
1
100
AcDbSymbolTableRecord
100
AcDbBlockTableRecord
  2
*D13
340
0
 70
     0
280
     1
281
     0
  0
BLOCK_RECORD
  5
157A
330
1
100
AcDbSymbolTableRecord
100
AcDbBlockTableRecord
  2
*D14
340
0
 70
     0
280
     1
281
     0
  0
BLOCK_RECORD
  5
1583
330
1
100
AcDbSymbolTableRecord
100
AcDbBlockTableRecord
  2
*D15
340
0
 70
     0
280
     1
281
     0
  0
BLOCK_RECORD
  5
1593
330
1
100
AcDbSymbolTableRecord
100
AcDbBlockTableRecord
  2
*D16
340
0
 70
     0
280
     1
281
     0
  0
BLOCK_RECORD
  5
159E
330
1
100
AcDbSymbolTableRecord
100
AcDbBlockTableRecord
  2
*D17
340
0
 70
     0
280
     1
281
     0
  0
BLOCK_RECORD
  5
15A7
330
1
100
AcDbSymbolTableRecord
100
AcDbBlockTableRecord
  2
*D18
340
0
 70
     0
280
     1
281
     0
  0
BLOCK_RECORD
  5
15B0
330
1
100
AcDbSymbolTableRecord
100
AcDbBlockTableRecord
  2
*D19
340
0
 70
     0
280
     1
281
     0
  0
BLOCK_RECORD
  5
15BE
330
1
100
AcDbSymbolTableRecord
100
AcDbBlockTableRecord
  2
*D20
340
0
 70
     0
280
     1
281
     0
  0
BLOCK_RECORD
  5
15C7
330
1
100
AcDbSymbolTableRecord
100
AcDbBlockTableRecord
  2
*D21
340
0
 70
     0
280
     1
281
     0
  0
BLOCK_RECORD
  5
15D0
330
1
100
AcDbSymbolTableRecord
100
AcDbBlockTableRecord
  2
*D22
340
0
 70
     0
280
     1
281
     0
  0
BLOCK_RECORD
  5
15D9
330
1
100
AcDbSymbolTableRecord
100
AcDbBlockTableRecord
  2
*D23
340
0
 70
     0
280
     1
281
     0
  0
BLOCK_RECORD
  5
15E2
330
1
100
AcDbSymbolTableRecord
100
AcDbBlockTableRecord
  2
*D24
340
0
 70
     0
280
     1
281
     0
  0
BLOCK_RECORD
  5
15EB
330
1
100
AcDbSymbolTableRecord
100
AcDbBlockTableRecord
  2
*D25
340
0
 70
     0
280
     1
281
     0
  0
BLOCK_RECORD
  5
15F4
330
1
100
AcDbSymbolTableRecord
100
AcDbBlockTableRecord
  2
*D26
340
0
 70
     0
280
     1
281
     0
  0
BLOCK_RECORD
  5
160E
330
1
100
AcDbSymbolTableRecord
100
AcDbBlockTableRecord
  2
*D27
340
0
 70
     0
280
     1
281
     0
  0
BLOCK_RECORD
  5
161C
330
1
100
AcDbSymbolTableRecord
100
AcDbBlockTableRecord
  2
*D28
340
0
 70
     0
280
     1
281
     0
  0
BLOCK_RECORD
  5
162F
330
1
100
AcDbSymbolTableRecord
100
AcDbBlockTableRecord
  2
*D29
340
0
 70
     0
280
     1
281
     0
  0
ENDTAB
  0
ENDSEC
  0
SECTION
  2
BLOCKS
  0
BLOCK
  5
2E
330
18
100
AcDbEntity
  8
0
100
AcDbBlockBegin
  2
*MODEL_SPACE
 70
     0
 10
0.0
 20
0.0
 30
0.0
  3
*MODEL_SPACE
  1

  0
ENDBLK
  5
2F
330
18
100
AcDbEntity
  8
0
100
AcDbBlockEnd
  0
BLOCK
  5
2C
330
15
100
AcDbEntity
 67
     1
  8
0
100
AcDbBlockBegin
  2
*PAPER_SPACE
 70
     0
 10
0.0
 20
0.0
 30
0.0
  3
*PAPER_SPACE
  1

  0
ENDBLK
  5
2D
330
15
100
AcDbEntity
 67
     1
  8
0
100
AcDbBlockEnd
  0
BLOCK
  5
11AE
330
11A3
100
AcDbEntity
  8
0
100
AcDbBlockBegin
  2
*D0
 70
     1
 10
0.0
 20
0.0
 30
0.0
  3
*D0
  1

  0
LINE
  5
16DB
330
11A3
100
AcDbEntity
  8
D
 62
     0
370
    -2
100
AcDbLine
 10
215.9664550908254
 20
-1.229665411011402
 30
0.0
 11
215.9664550908254
 21
-1.025153340859391
 31
0.0
  0
LINE
  5
16DC
330
11A3
100
AcDbEntity
  8
D
 62
     0
370
    -2
100
AcDbLine
 10
215.9464550908254
 20
-1.229665411011402
 30
0.0
 11
215.9464550908254
 21
-1.025153340859391
 31
0.0
  0
LINE
  5
16DD
330
11A3
100
AcDbEntity
  8
D
 62
     0
370
    -2
100
AcDbLine
 10
216.0144550908254
 20
-1.073153340859391
 30
0.0
 11
216.0624550908254
 21
-1.073153340859391
 31
0.0
  0
LINE
  5
16DE
330
11A3
100
AcDbEntity
  8
D
 62
     0
370
    -2
100
AcDbLine
 10
215.8984550908254
 20
-1.073153340859391
 30
0.0
 11
215.8504550908254
 21
-1.073153340859391
 31
0.0
  0
SOLID
  5
16DF
330
11A3
100
AcDbEntity
  8
D
 62
     0
100
AcDbTrace
 10
216.0144550908254
 20
-1.065153340859391
 30
0.0
 11
216.0144550908254
 21
-1.081153340859391
 31
0.0
 12
215.9664550908254
 22
-1.073153340859391
 32
0.0
 13
215.9664550908254
 23
-1.073153340859391
 33
0.0
  0
SOLID
  5
16E0
330
11A3
100
AcDbEntity
  8
D
 62
     0
100
AcDbTrace
 10
215.8984550908254
 20
-1.065153340859391
 30
0.0
 11
215.8984550908254
 21
-1.081153340859391
 31
0.0
 12
215.9464550908254
 22
-1.073153340859391
 32
0.0
 13
215.9464550908254
 23
-1.073153340859391
 33
0.0
  0
MTEXT
  5
16E1
330
11A3
100
AcDbEntity
  8
D
 62
     0
100
AcDbMText
 10
215.6644550908254
 20
-1.073153340859391
 30
0.0
 40
0.04
 41
0.0
 46
0.0
 71
     5
 72
     1
  1
\A1;0.020 REF
 73
     1
 44
1.0
  0
POINT
  5
16E2
330
11A3
100
AcDbEntity
  8
Defpoints
 62
     0
100
AcDbPoint
 10
215.9664550908254
 20
-1.269665411011402
 30
0.0
  0
POINT
  5
16E3
330
11A3
100
AcDbEntity
  8
Defpoints
 62
     0
100
AcDbPoint
 10
215.9464550908254
 20
-1.269665411011402
 30
0.0
  0
POINT
  5
16E4
330
11A3
100
AcDbEntity
  8
Defpoints
 62
     0
100
AcDbPoint
 10
215.9464550908254
 20
-1.073153340859391
 30
0.0
  0
ENDBLK
  5
11AF
330
11A3
100
AcDbEntity
  8
0
100
AcDbBlockEnd
  0
BLOCK
  5
14F6
330
14F0
100
AcDbEntity
  8
0
100
AcDbBlockBegin
  2
*D1
 70
     1
 10
0.0
 20
0.0
 30
0.0
  3
*D1
  1

  0
LINE
  5
15B8
330
14F0
100
AcDbEntity
  8
D
 62
     0
370
    -2
100
AcDbLine
 10
217.0237956006614
 20
-1.390165411011395
 30
0.0
 11
216.8531012103765
 21
-1.390165411011395
 31
0.0
  0
MTEXT
  5
15B9
330
14F0
100
AcDbEntity
  8
D
 62
     0
100
AcDbMText
 10
216.7504345437099
 20
-1.390165411011395
 30
0.0
 40
0.04
 41
0.0
 46
0.0
 71
     5
 72
     1
  1
\A1;0.000
 73
     1
 44
1.0
  0
POINT
  5
15BA
330
14F0
100
AcDbEntity
  8
Defpoints
 62
     0
100
AcDbPoint
 10
217.0637956006614
 20
-1.390165411011395
 30
0.0
  0
POINT
  5
15BB
330
14F0
100
AcDbEntity
  8
Defpoints
 62
     0
100
AcDbPoint
 10
216.8531012103765
 20
-1.390165411011395
 30
0.0
  0
POINT
  5
15BC
330
14F0
100
AcDbEntity
  8
Defpoints
 62
     0
100
AcDbPoint
 10
217.0637956006614
 20
-1.390165411011395
 30
0.0
  0
ENDBLK
  5
14F7
330
14F0
100
AcDbEntity
  8
0
100
AcDbBlockEnd
  0
BLOCK
  5
14FF
330
14F9
100
AcDbEntity
  8
0
100
AcDbBlockBegin
  2
*D2
 70
     1
 10
0.0
 20
0.0
 30
0.0
  3
*D2
  1

  0
LINE
  5
14FA
330
14F9
100
AcDbEntity
  8
D
 62
     0
370
    -2
100
AcDbLine
 10
217.0637956006614
 20
-1.350165411011395
 30
0.0
 11
217.0637956006614
 21
-1.200141269087424
 31
0.0
  0
MTEXT
  5
14FB
330
14F9
100
AcDbEntity
  8
D
 62
     0
100
AcDbMText
 10
217.0637956006614
 20
-1.097474602420723
 30
0.0
 40
0.04
 41
0.0
 46
0.0
 71
     5
 72
     1
  1
\A1;0.000
 11
0.0000000000000001
 21
1.0
 31
0.0
 73
     1
 44
1.0
  0
POINT
  5
14FC
330
14F9
100
AcDbEntity
  8
Defpoints
 62
     0
100
AcDbPoint
 10
217.0637956006614
 20
-1.390165411011395
 30
0.0
  0
POINT
  5
14FD
330
14F9
100
AcDbEntity
  8
Defpoints
 62
     0
100
AcDbPoint
 10
217.0637956006614
 20
-1.200141269087424
 30
0.0
  0
POINT
  5
14FE
330
14F9
100
AcDbEntity
  8
Defpoints
 62
     0
100
AcDbPoint
 10
217.0637956006614
 20
-1.390165411011395
 30
0.0
  0
ENDBLK
  5
1500
330
14F9
100
AcDbEntity
  8
0
100
AcDbBlockEnd
  0
BLOCK
  5
1514
330
150E
100
AcDbEntity
  8
0
100
AcDbBlockBegin
  2
*D3
 70
     1
 10
0.0
 20
0.0
 30
0.0
  3
*D3
  1

  0
LINE
  5
150F
330
150E
100
AcDbEntity
  8
D
 62
     0
370
    -2
100
AcDbLine
 10
217.1842956006615
 20
-1.229665411011395
 30
0.0
 11
217.1842956006615
 21
-1.047547257268732
 31
0.0
  0
MTEXT
  5
1510
330
150E
100
AcDbEntity
  8
D
 62
     0
100
AcDbMText
 10
217.1842956006615
 20
-0.9482139239353641
 30
0.0
 40
0.04
 41
0.0
 46
0.0
 71
     5
 72
     1
  1
\A1;0.121
 11
0.0000000000000001
 21
1.0
 31
0.0
 73
     1
 44
1.0
  0
POINT
  5
1511
330
150E
100
AcDbEntity
  8
Defpoints
 62
     0
100
AcDbPoint
 10
217.1842956006615
 20
-1.269665411011395
 30
0.0
  0
POINT
  5
1512
330
150E
100
AcDbEntity
  8
Defpoints
 62
     0
100
AcDbPoint
 10
217.1842956006615
 20
-1.047547257268732
 30
0.0
  0
POINT
  5
1513
330
150E
100
AcDbEntity
  8
Defpoints
 62
     0
100
AcDbPoint
 10
217.0637956006614
 20
-1.390165411011395
 30
0.0
  0
ENDBLK
  5
1515
330
150E
100
AcDbEntity
  8
0
100
AcDbBlockEnd
  0
BLOCK
  5
151D
330
1517
100
AcDbEntity
  8
0
100
AcDbBlockBegin
  2
*D4
 70
     1
 10
0.0
 20
0.0
 30
0.0
  3
*D4
  1

  0
LINE
  5
1518
330
1517
100
AcDbEntity
  8
D
 62
     0
370
    -2
100
AcDbLine
 10
219.9657956006615
 20
-1.229665411011395
 30
0.0
 11
219.9657956006615
 21
-1.127427371675594
 31
0.0
  0
MTEXT
  5
1519
330
1517
100
AcDbEntity
  8
D
 62
     0
100
AcDbMText
 10
219.9657956006615
 20
-1.014760705008892
 30
0.0
 40
0.04
 41
0.0
 46
0.0
 71
     5
 72
     1
  1
\A1;2.902
 11
0.0000000000000001
 21
1.0
 31
0.0
 73
     1
 44
1.0
  0
POINT
  5
151A
330
1517
100
AcDbEntity
  8
Defpoints
 62
     0
100
AcDbPoint
 10
219.9657956006615
 20
-1.269665411011395
 30
0.0
  0
POINT
  5
151B
330
1517
100
AcDbEntity
  8
Defpoints
 62
     0
100
AcDbPoint
 10
219.9657956006615
 20
-1.127427371675594
 30
0.0
  0
POINT
  5
151C
330
1517
100
AcDbEntity
  8
Defpoints
 62
     0
100
AcDbPoint
 10
217.0637956006614
 20
-1.390165411011395
 30
0.0
  0
ENDBLK
  5
151E
330
1517
100
AcDbEntity
  8
0
100
AcDbBlockEnd
  0
BLOCK
  5
1526
330
1520
100
AcDbEntity
  8
0
100
AcDbBlockBegin
  2
*D5
 70
     1
 10
0.0
 20
0.0
 30
0.0
  3
*D5
  1

  0
LINE
  5
1521
330
1520
100
AcDbEntity
  8
D
 62
     0
370
    -2
100
AcDbLine
 10
220.4377956006614
 20
-1.406665411011395
 30
0.0
 11
220.4377956006614
 21
-1.305435389089524
 31
0.0
  0
MTEXT
  5
1522
330
1520
100
AcDbEntity
  8
D
 62
     0
100
AcDbMText
 10
220.4377956006614
 20
-1.189435389089488
 30
0.0
 40
0.04
 41
0.0
 46
0.0
 71
     5
 72
     1
  1
\A1;3.374
 11
0.0000000000000001
 21
1.0
 31
0.0
 73
     1
 44
1.0
  0
POINT
  5
1523
330
1520
100
AcDbEntity
  8
Defpoints
 62
     0
100
AcDbPoint
 10
220.4377956006614
 20
-1.446665411011395
 30
0.0
  0
POINT
  5
1524
330
1520
100
AcDbEntity
  8
Defpoints
 62
     0
100
AcDbPoint
 10
220.4377956006614
 20
-1.305435389089524
 30
0.0
  0
POINT
  5
1525
330
1520
100
AcDbEntity
  8
Defpoints
 62
     0
100
AcDbPoint
 10
217.0637956006614
 20
-1.390165411011395
 30
0.0
  0
ENDBLK
  5
1527
330
1520
100
AcDbEntity
  8
0
100
AcDbBlockEnd
  0
BLOCK
  5
1530
330
152A
100
AcDbEntity
  8
0
100
AcDbBlockBegin
  2
*D6
 70
     1
 10
0.0
 20
0.0
 30
0.0
  3
*D6
  1

  0
LINE
  5
152B
330
152A
100
AcDbEntity
  8
D
 62
     0
370
    -2
100
AcDbLine
 10
220.225257171953
 20
-1.1906300163578
 30
0.0
 11
220.2008081789614
 21
-1.264519251947916
 31
0.0
  0
MTEXT
  5
152C
330
152A
100
AcDbEntity
  8
D
 62
     0
100
AcDbMText
 10
220.2648384109069
 20
-1.071008423311795
 30
0.0
 40
0.04
 41
0.0
 46
0.0
 71
     5
 72
     1
  1
\A1;R0.814
 11
0.3141368170950206
 21
0.9493777225874902
 31
0.0
 73
     1
 44
1.0
  0
SOLID
  5
152D
330
152A
100
AcDbEntity
  8
D
 62
     0
100
AcDbTrace
 10
220.1932131571807
 20
-1.26200615741115
 30
0.0
 11
220.2084032007421
 21
-1.267032346484683
 31
0.0
 12
220.1857296117408
 22
-1.310089382632114
 32
0.0
 13
220.1857296117408
 23
-1.310089382632114
 33
0.0
  0
POINT
  5
152E
330
152A
100
AcDbEntity
  8
Defpoints
 62
     0
100
AcDbPoint
 10
220.1857296117408
 20
-1.310089382632114
 30
0.0
  0
POINT
  5
152F
330
152A
100
AcDbEntity
  8
Defpoints
 62
     0
100
AcDbPoint
 10
219.9299898472662
 20
-2.082980753396157
 30
0.0
  0
ENDBLK
  5
1531
330
152A
100
AcDbEntity
  8
0
100
AcDbBlockEnd
  0
BLOCK
  5
153B
330
1533
100
AcDbEntity
  8
0
100
AcDbBlockBegin
  2
*D7
 70
     1
 10
0.0
 20
0.0
 30
0.0
  3
*D7
  1

  0
LINE
  5
1534
330
1533
100
AcDbEntity
  8
D
 62
     0
370
    -2
100
AcDbLine
 10
220.4817956103189
 20
-1.413665411011394
 30
0.0
 11
220.4817956103189
 21
-1.357665411011394
 31
0.0
  0
LINE
  5
1535
330
1533
100
AcDbEntity
  8
D
 62
     0
370
    -2
100
AcDbLine
 10
220.4817956103189
 20
-1.357665411011394
 30
0.0
 11
220.5282429314211
 21
-1.388870884988659
 31
0.0
  0
LINE
  5
1536
330
1533
100
AcDbEntity
  8
D
 62
     0
370
    -2
100
AcDbLine
 10
220.5282429314211
 20
-1.388870884988659
 30
0.0
 11
220.5282429314211
 21
-1.292870884988658
 31
0.0
  0
MTEXT
  5
1537
330
1533
100
AcDbEntity
  8
D
 62
     0
100
AcDbMText
 10
220.5282429314211
 20
-1.18353755165529
 30
0.0
 40
0.04
 41
0.0
 46
0.0
 71
     5
 72
     1
  1
\A1;3.418
 11
0.0000000000000001
 21
1.0
 31
0.0
 73
     1
 44
1.0
  0
POINT
  5
1538
330
1533
100
AcDbEntity
  8
Defpoints
 62
     0
100
AcDbPoint
 10
220.4817956103189
 20
-1.453665411011394
 30
0.0
  0
POINT
  5
1539
330
1533
100
AcDbEntity
  8
Defpoints
 62
     0
100
AcDbPoint
 10
220.5282429314211
 20
-1.292870884988658
 30
0.0
  0
POINT
  5
153A
330
1533
100
AcDbEntity
  8
Defpoints
 62
     0
100
AcDbPoint
 10
217.0637956006614
 20
-1.390165411011395
 30
0.0
  0
ENDBLK
  5
153C
330
1533
100
AcDbEntity
  8
0
100
AcDbBlockEnd
  0
BLOCK
  5
1546
330
153E
100
AcDbEntity
  8
0
100
AcDbBlockBegin
  2
*D8
 70
     1
 10
0.0
 20
0.0
 30
0.0
  3
*D8
  1

  0
LINE
  5
153F
330
153E
100
AcDbEntity
  8
D
 62
     0
370
    -2
100
AcDbLine
 10
220.3977956006614
 20
-1.446665411011395
 30
0.0
 11
220.3417956006614
 21
-1.446665411011395
 31
0.0
  0
LINE
  5
1540
330
153E
100
AcDbEntity
  8
D
 62
     0
370
    -2
100
AcDbLine
 10
220.3417956006614
 20
-1.446665411011395
 30
0.0
 11
220.2883266620297
 21
-1.398578256586631
 31
0.0
  0
LINE
  5
1541
330
153E
100
AcDbEntity
  8
D
 62
     0
370
    -2
100
AcDbLine
 10
220.2883266620297
 20
-1.398578256586631
 30
0.0
 11
220.1923266620297
 21
-1.398578256586631
 31
0.0
  0
MTEXT
  5
1542
330
153E
100
AcDbEntity
  8
D
 62
     0
100
AcDbMText
 10
220.0829933286964
 20
-1.398578256586631
 30
0.0
 40
0.04
 41
0.0
 46
0.0
 71
     5
 72
     1
  1
\A1;0.057
 73
     1
 44
1.0
  0
POINT
  5
1543
330
153E
100
AcDbEntity
  8
Defpoints
 62
     0
100
AcDbPoint
 10
220.4377956006614
 20
-1.446665411011395
 30
0.0
  0
POINT
  5
1544
330
153E
100
AcDbEntity
  8
Defpoints
 62
     0
100
AcDbPoint
 10
220.1923266620297
 20
-1.398578256586631
 30
0.0
  0
POINT
  5
1545
330
153E
100
AcDbEntity
  8
Defpoints
 62
     0
100
AcDbPoint
 10
217.0637956006614
 20
-1.390165411011395
 30
0.0
  0
ENDBLK
  5
1547
330
153E
100
AcDbEntity
  8
0
100
AcDbBlockEnd
  0
BLOCK
  5
1551
330
1549
100
AcDbEntity
  8
0
100
AcDbBlockBegin
  2
*D9
 70
     1
 10
0.0
 20
0.0
 30
0.0
  3
*D9
  1

  0
LINE
  5
154A
330
1549
100
AcDbEntity
  8
D
 62
     0
370
    -2
100
AcDbLine
 10
220.5217956103189
 20
-1.453665411011394
 30
0.0
 11
220.5777956103189
 21
-1.453665411011394
 31
0.0
  0
LINE
  5
154B
330
1549
100
AcDbEntity
  8
D
 62
     0
370
    -2
100
AcDbLine
 10
220.5777956103189
 20
-1.453665411011394
 30
0.0
 11
220.6020940041125
 21
-1.386422166328813
 31
0.0
  0
LINE
  5
154C
330
1549
100
AcDbEntity
  8
D
 62
     0
370
    -2
100
AcDbLine
 10
220.6020940041125
 20
-1.386422166328813
 30
0.0
 11
220.6980940041125
 21
-1.386422166328813
 31
0.0
  0
MTEXT
  5
154D
330
1549
100
AcDbEntity
  8
D
 62
     0
100
AcDbMText
 10
220.8074273374458
 20
-1.386422166328813
 30
0.0
 40
0.04
 41
0.0
 46
0.0
 71
     5
 72
     1
  1
\A1;0.064
 73
     1
 44
1.0
  0
POINT
  5
154E
330
1549
100
AcDbEntity
  8
Defpoints
 62
     0
100
AcDbPoint
 10
220.4817956103189
 20
-1.453665411011394
 30
0.0
  0
POINT
  5
154F
330
1549
100
AcDbEntity
  8
Defpoints
 62
     0
100
AcDbPoint
 10
220.6980940041125
 20
-1.386422166328813
 30
0.0
  0
POINT
  5
1550
330
1549
100
AcDbEntity
  8
Defpoints
 62
     0
100
AcDbPoint
 10
217.0637956006614
 20
-1.390165411011395
 30
0.0
  0
ENDBLK
  5
1552
330
1549
100
AcDbEntity
  8
0
100
AcDbBlockEnd
  0
BLOCK
  5
155C
330
1554
100
AcDbEntity
  8
0
100
AcDbBlockBegin
  2
*D10
 70
     1
 10
0.0
 20
0.0
 30
0.0
  3
*D10
  1

  0
LINE
  5
1555
330
1554
100
AcDbEntity
  8
D
 62
     0
370
    -2
100
AcDbLine
 10
220.2701555354575
 20
-1.548665411011395
 30
0.0
 11
220.3261555354576
 21
-1.548665411011395
 31
0.0
  0
LINE
  5
1556
330
1554
100
AcDbEntity
  8
D
 62
     0
370
    -2
100
AcDbLine
 10
220.3261555354576
 20
-1.548665411011395
 30
0.0
 11
220.3639836747726
 21
-1.605231253441317
 31
0.0
  0
LINE
  5
1557
330
1554
100
AcDbEntity
  8
D
 62
     0
370
    -2
100
AcDbLine
 10
220.3639836747726
 20
-1.605231253441317
 30
0.0
 11
220.4599836747726
 21
-1.605231253441317
 31
0.0
  0
MTEXT
  5
1558
330
1554
100
AcDbEntity
  8
D
 62
     0
100
AcDbMText
 10
220.5659836747726
 20
-1.605231253441317
 30
0.0
 40
0.04
 41
0.0
 46
0.0
 71
     5
 72
     1
  1
\A1;0.159
 73
     1
 44
1.0
  0
POINT
  5
1559
330
1554
100
AcDbEntity
  8
Defpoints
 62
     0
100
AcDbPoint
 10
220.2301555354575
 20
-1.548665411011395
 30
0.0
  0
POINT
  5
155A
330
1554
100
AcDbEntity
  8
Defpoints
 62
     0
100
AcDbPoint
 10
220.4599836747726
 20
-1.605231253441317
 30
0.0
  0
POINT
  5
155B
330
1554
100
AcDbEntity
  8
Defpoints
 62
     0
100
AcDbPoint
 10
217.0637956006614
 20
-1.390165411011395
 30
0.0
  0
ENDBLK
  5
155D
330
1554
100
AcDbEntity
  8
0
100
AcDbBlockEnd
  0
BLOCK
  5
1565
330
155F
100
AcDbEntity
  8
0
100
AcDbBlockBegin
  2
*D11
 70
     1
 10
0.0
 20
0.0
 30
0.0
  3
*D11
  1

  0
LINE
  5
1603
330
155F
100
AcDbEntity
  8
D
 62
     0
370
    -2
100
AcDbLine
 10
220.2301555354575
 20
-1.588665411011395
 30
0.0
 11
220.2301555354575
 21
-1.644665411011395
 31
0.0
  0
LINE
  5
1604
330
155F
100
AcDbEntity
  8
D
 62
     0
370
    -2
100
AcDbLine
 10
220.2301555354575
 20
-1.644665411011395
 30
0.0
 11
220.1368260330686
 21
-1.728665150957029
 31
0.0
  0
LINE
  5
1605
330
155F
100
AcDbEntity
  8
D
 62
     0
370
    -2
100
AcDbLine
 10
220.1368260330686
 20
-1.728665150957029
 30
0.0
 11
220.1368260330686
 21
-1.824665150957029
 31
0.0
  0
MTEXT
  5
1606
330
155F
100
AcDbEntity
  8
D
 62
     0
100
AcDbMText
 10
220.1368260330686
 20
-1.933998484290327
 30
0.0
 40
0.04
 41
0.0
 46
0.0
 71
     5
 72
     1
  1
\A1;3.166
 11
0.0000000000000001
 21
1.0
 31
0.0
 73
     1
 44
1.0
  0
POINT
  5
1607
330
155F
100
AcDbEntity
  8
Defpoints
 62
     0
100
AcDbPoint
 10
220.2301555354575
 20
-1.548665411011395
 30
0.0
  0
POINT
  5
1608
330
155F
100
AcDbEntity
  8
Defpoints
 62
     0
100
AcDbPoint
 10
220.1368260330686
 20
-1.824665150957029
 30
0.0
  0
POINT
  5
1609
330
155F
100
AcDbEntity
  8
Defpoints
 62
     0
100
AcDbPoint
 10
217.0637956006614
 20
-1.390165411011395
 30
0.0
  0
ENDBLK
  5
1566
330
155F
100
AcDbEntity
  8
0
100
AcDbBlockEnd
  0
BLOCK
  5
156E
330
1568
100
AcDbEntity
  8
0
100
AcDbBlockBegin
  2
*D12
 70
     1
 10
0.0
 20
0.0
 30
0.0
  3
*D12
  1

  0
LINE
  5
15FC
330
1568
100
AcDbEntity
  8
D
 62
     0
370
    -2
100
AcDbLine
 10
220.1147956006615
 20
-1.620665411011395
 30
0.0
 11
220.1147956006615
 21
-1.676665411011395
 31
0.0
  0
LINE
  5
15FD
330
1568
100
AcDbEntity
  8
D
 62
     0
370
    -2
100
AcDbLine
 10
220.1147956006615
 20
-1.676665411011395
 30
0.0
 11
219.976925373227
 21
-1.69205670699704
 31
0.0
  0
LINE
  5
15FE
330
1568
100
AcDbEntity
  8
D
 62
     0
370
    -2
100
AcDbLine
 10
219.976925373227
 20
-1.69205670699704
 30
0.0
 11
219.976925373227
 21
-1.788056706997041
 31
0.0
  0
MTEXT
  5
15FF
330
1568
100
AcDbEntity
  8
D
 62
     0
100
AcDbMText
 10
219.976925373227
 20
-1.894056706997005
 30
0.0
 40
0.04
 41
0.0
 46
0.0
 71
     5
 72
     1
  1
\A1;3.051
 11
0.0000000000000001
 21
1.0
 31
0.0
 73
     1
 44
1.0
  0
POINT
  5
1600
330
1568
100
AcDbEntity
  8
Defpoints
 62
     0
100
AcDbPoint
 10
220.1147956006615
 20
-1.580665411011395
 30
0.0
  0
POINT
  5
1601
330
1568
100
AcDbEntity
  8
Defpoints
 62
     0
100
AcDbPoint
 10
219.976925373227
 20
-1.788056706997041
 30
0.0
  0
POINT
  5
1602
330
1568
100
AcDbEntity
  8
Defpoints
 62
     0
100
AcDbPoint
 10
217.0637956006614
 20
-1.390165411011395
 30
0.0
  0
ENDBLK
  5
156F
330
1568
100
AcDbEntity
  8
0
100
AcDbBlockEnd
  0
BLOCK
  5
1577
330
1571
100
AcDbEntity
  8
0
100
AcDbBlockBegin
  2
*D13
 70
     1
 10
0.0
 20
0.0
 30
0.0
  3
*D13
  1

  0
LINE
  5
1572
330
1571
100
AcDbEntity
  8
D
 62
     0
370
    -2
100
AcDbLine
 10
221.5580112233031
 20
-1.5886654110114
 30
0.0
 11
221.5580112233031
 21
-1.656357915238785
 31
0.0
  0
MTEXT
  5
1573
330
1571
100
AcDbEntity
  8
D
 62
     0
100
AcDbMText
 10
221.5580112233031
 20
-1.77235791523875
 30
0.0
 40
0.04
 41
0.0
 46
0.0
 71
     5
 72
     1
  1
\A1;4.494
 11
0.0000000000000001
 21
1.0
 31
0.0
 73
     1
 44
1.0
  0
POINT
  5
1574
330
1571
100
AcDbEntity
  8
Defpoints
 62
     0
100
AcDbPoint
 10
221.5580112233031
 20
-1.5486654110114
 30
0.0
  0
POINT
  5
1575
330
1571
100
AcDbEntity
  8
Defpoints
 62
     0
100
AcDbPoint
 10
221.5580112233031
 20
-1.656357915238785
 30
0.0
  0
POINT
  5
1576
330
1571
100
AcDbEntity
  8
Defpoints
 62
     0
100
AcDbPoint
 10
217.0637956006614
 20
-1.390165411011395
 30
0.0
  0
ENDBLK
  5
1578
330
1571
100
AcDbEntity
  8
0
100
AcDbBlockEnd
  0
BLOCK
  5
1580
330
157A
100
AcDbEntity
  8
0
100
AcDbBlockBegin
  2
*D14
 70
     1
 10
0.0
 20
0.0
 30
0.0
  3
*D14
  1

  0
LINE
  5
158B
330
157A
100
AcDbEntity
  8
D
 62
     0
370
    -2
100
AcDbLine
 10
221.5580112233031
 20
-1.453665411011395
 30
0.0
 11
221.5580112233031
 21
-1.397665411011395
 31
0.0
  0
LINE
  5
158C
330
157A
100
AcDbEntity
  8
D
 62
     0
370
    -2
100
AcDbLine
 10
221.5580112233031
 20
-1.397665411011395
 30
0.0
 11
221.308946683705
 21
-1.366918708328857
 31
0.0
  0
LINE
  5
158D
330
157A
100
AcDbEntity
  8
D
 62
     0
370
    -2
100
AcDbLine
 10
221.308946683705
 20
-1.366918708328857
 30
0.0
 11
221.308946683705
 21
-1.270918708328857
 31
0.0
  0
MTEXT
  5
158E
330
157A
100
AcDbEntity
  8
D
 62
     0
100
AcDbMText
 10
221.308946683705
 20
-1.154918708328821
 30
0.0
 40
0.04
 41
0.0
 46
0.0
 71
     5
 72
     1
  1
\A1;4.494
 11
0.0000000000000001
 21
1.0
 31
0.0
 73
     1
 44
1.0
  0
POINT
  5
158F
330
157A
100
AcDbEntity
  8
Defpoints
 62
     0
100
AcDbPoint
 10
221.5580112233031
 20
-1.493665411011395
 30
0.0
  0
POINT
  5
1590
330
157A
100
AcDbEntity
  8
Defpoints
 62
     0
100
AcDbPoint
 10
221.308946683705
 20
-1.270918708328857
 30
0.0
  0
POINT
  5
1591
330
157A
100
AcDbEntity
  8
Defpoints
 62
     0
100
AcDbPoint
 10
217.0637956006614
 20
-1.390165411011395
 30
0.0
  0
ENDBLK
  5
1581
330
157A
100
AcDbEntity
  8
0
100
AcDbBlockEnd
  0
BLOCK
  5
1589
330
1583
100
AcDbEntity
  8
0
100
AcDbBlockBegin
  2
*D15
 70
     1
 10
0.0
 20
0.0
 30
0.0
  3
*D15
  1

  0
LINE
  5
1616
330
1583
100
AcDbEntity
  8
D
 62
     0
370
    -2
100
AcDbLine
 10
221.7227956103189
 20
-1.364165411011396
 30
0.0
 11
221.7227956103189
 21
-1.125929106404449
 31
0.0
  0
MTEXT
  5
1617
330
1583
100
AcDbEntity
  8
D
 62
     0
100
AcDbMText
 10
221.7227956103189
 20
-1.009929106404413
 30
0.0
 40
0.04
 41
0.0
 46
0.0
 71
     5
 72
     1
  1
\A1;4.659
 11
0.0000000000000001
 21
1.0
 31
0.0
 73
     1
 44
1.0
  0
POINT
  5
1618
330
1583
100
AcDbEntity
  8
Defpoints
 62
     0
100
AcDbPoint
 10
221.7227956103189
 20
-1.404165411011396
 30
0.0
  0
POINT
  5
1619
330
1583
100
AcDbEntity
  8
Defpoints
 62
     0
100
AcDbPoint
 10
221.7227956103189
 20
-1.125929106404449
 30
0.0
  0
POINT
  5
161A
330
1583
100
AcDbEntity
  8
Defpoints
 62
     0
100
AcDbPoint
 10
217.0637956006614
 20
-1.390165411011395
 30
0.0
  0
ENDBLK
  5
158A
330
1583
100
AcDbEntity
  8
0
100
AcDbBlockEnd
  0
BLOCK
  5
159B
330
1593
100
AcDbEntity
  8
0
100
AcDbBlockBegin
  2
*D16
 70
     1
 10
0.0
 20
0.0
 30
0.0
  3
*D16
  1

  0
LINE
  5
1594
330
1593
100
AcDbEntity
  8
D
 62
     0
370
    -2
100
AcDbLine
 10
221.6827956103189
 20
-1.404165411011396
 30
0.0
 11
221.6267956103189
 21
-1.404165411011396
 31
0.0
  0
LINE
  5
1595
330
1593
100
AcDbEntity
  8
D
 62
     0
370
    -2
100
AcDbLine
 10
221.6267956103189
 20
-1.404165411011396
 30
0.0
 11
221.6190945312592
 21
-1.230326589023917
 31
0.0
  0
LINE
  5
1596
330
1593
100
AcDbEntity
  8
D
 62
     0
370
    -2
100
AcDbLine
 10
221.6190945312592
 20
-1.230326589023917
 30
0.0
 11
221.5230945312592
 21
-1.230326589023917
 31
0.0
  0
MTEXT
  5
1597
330
1593
100
AcDbEntity
  8
D
 62
     0
100
AcDbMText
 10
221.4204278645926
 20
-1.230326589023917
 30
0.0
 40
0.04
 41
0.0
 46
0.0
 71
     5
 72
     1
  1
\A1;0.014
 73
     1
 44
1.0
  0
POINT
  5
1598
330
1593
100
AcDbEntity
  8
Defpoints
 62
     0
100
AcDbPoint
 10
221.7227956103189
 20
-1.404165411011396
 30
0.0
  0
POINT
  5
1599
330
1593
100
AcDbEntity
  8
Defpoints
 62
     0
100
AcDbPoint
 10
221.5230945312592
 20
-1.230326589023917
 30
0.0
  0
POINT
  5
159A
330
1593
100
AcDbEntity
  8
Defpoints
 62
     0
100
AcDbPoint
 10
217.0637956006614
 20
-1.390165411011395
 30
0.0
  0
ENDBLK
  5
159C
330
1593
100
AcDbEntity
  8
0
100
AcDbBlockEnd
  0
BLOCK
  5
15A4
330
159E
100
AcDbEntity
  8
0
100
AcDbBlockBegin
  2
*D17
 70
     1
 10
0.0
 20
0.0
 30
0.0
  3
*D17
  1

  0
LINE
  5
159F
330
159E
100
AcDbEntity
  8
D
 62
     0
370
    -2
100
AcDbLine
 10
221.8297956103189
 20
-1.404165411011395
 30
0.0
 11
221.9159941504716
 21
-1.404165411011395
 31
0.0
  0
MTEXT
  5
15A0
330
159E
100
AcDbEntity
  8
D
 62
     0
100
AcDbMText
 10
222.0186608171382
 20
-1.404165411011395
 30
0.0
 40
0.04
 41
0.0
 46
0.0
 71
     5
 72
     1
  1
\A1;0.014
 73
     1
 44
1.0
  0
POINT
  5
15A1
330
159E
100
AcDbEntity
  8
Defpoints
 62
     0
100
AcDbPoint
 10
221.7897956103189
 20
-1.404165411011395
 30
0.0
  0
POINT
  5
15A2
330
159E
100
AcDbEntity
  8
Defpoints
 62
     0
100
AcDbPoint
 10
221.9159941504716
 20
-1.404165411011395
 30
0.0
  0
POINT
  5
15A3
330
159E
100
AcDbEntity
  8
Defpoints
 62
     0
100
AcDbPoint
 10
217.0637956006614
 20
-1.390165411011395
 30
0.0
  0
ENDBLK
  5
15A5
330
159E
100
AcDbEntity
  8
0
100
AcDbBlockEnd
  0
BLOCK
  5
15AD
330
15A7
100
AcDbEntity
  8
0
100
AcDbBlockBegin
  2
*D18
 70
     1
 10
0.0
 20
0.0
 30
0.0
  3
*D18
  1

  0
LINE
  5
15A8
330
15A7
100
AcDbEntity
  8
D
 62
     0
370
    -2
100
AcDbLine
 10
217.1842956006615
 20
-1.620665411011395
 30
0.0
 11
217.1842956006615
 21
-1.737174941107141
 31
0.0
  0
MTEXT
  5
15A9
330
15A7
100
AcDbEntity
  8
D
 62
     0
100
AcDbMText
 10
217.1842956006615
 20
-1.83650827444044
 30
0.0
 40
0.04
 41
0.0
 46
0.0
 71
     5
 72
     1
  1
\A1;0.121
 11
0.0000000000000001
 21
1.0
 31
0.0
 73
     1
 44
1.0
  0
POINT
  5
15AA
330
15A7
100
AcDbEntity
  8
Defpoints
 62
     0
100
AcDbPoint
 10
217.1842956006615
 20
-1.580665411011395
 30
0.0
  0
POINT
  5
15AB
330
15A7
100
AcDbEntity
  8
Defpoints
 62
     0
100
AcDbPoint
 10
217.1842956006615
 20
-1.737174941107141
 30
0.0
  0
POINT
  5
15AC
330
15A7
100
AcDbEntity
  8
Defpoints
 62
     0
100
AcDbPoint
 10
217.0637956006614
 20
-1.390165411011395
 30
0.0
  0
ENDBLK
  5
15AE
330
15A7
100
AcDbEntity
  8
0
100
AcDbBlockEnd
  0
BLOCK
  5
15B6
330
15B0
100
AcDbEntity
  8
0
100
AcDbBlockBegin
  2
*D19
 70
     1
 10
0.0
 20
0.0
 30
0.0
  3
*D19
  1

  0
LINE
  5
15B1
330
15B0
100
AcDbEntity
  8
D
 62
     0
370
    -2
100
AcDbLine
 10
217.0237956006614
 20
-1.460165411011393
 30
0.0
 11
216.8643644112857
 21
-1.460165411011393
 31
0.0
  0
MTEXT
  5
15B2
330
15B0
100
AcDbEntity
  8
D
 62
     0
100
AcDbMText
 10
216.7583644112857
 20
-1.460165411011393
 30
0.0
 40
0.04
 41
0.0
 46
0.0
 71
     5
 72
     1
  1
\A1;0.070
 73
     1
 44
1.0
  0
POINT
  5
15B3
330
15B0
100
AcDbEntity
  8
Defpoints
 62
     0
100
AcDbPoint
 10
217.0637956006614
 20
-1.460165411011393
 30
0.0
  0
POINT
  5
15B4
330
15B0
100
AcDbEntity
  8
Defpoints
 62
     0
100
AcDbPoint
 10
216.8643644112857
 20
-1.460165411011393
 30
0.0
  0
POINT
  5
15B5
330
15B0
100
AcDbEntity
  8
Defpoints
 62
     0
100
AcDbPoint
 10
217.0637956006614
 20
-1.390165411011395
 30
0.0
  0
ENDBLK
  5
15B7
330
15B0
100
AcDbEntity
  8
0
100
AcDbBlockEnd
  0
BLOCK
  5
15C4
330
15BE
100
AcDbEntity
  8
0
100
AcDbBlockBegin
  2
*D20
 70
     1
 10
0.0
 20
0.0
 30
0.0
  3
*D20
  1

  0
LINE
  5
15BF
330
15BE
100
AcDbEntity
  8
D
 62
     0
370
    -2
100
AcDbLine
 10
217.1442956006615
 20
-1.580665411011395
 30
0.0
 11
217.000345176418
 21
-1.580665411011395
 31
0.0
  0
MTEXT
  5
15C0
330
15BE
100
AcDbEntity
  8
D
 62
     0
100
AcDbMText
 10
216.9010118430847
 20
-1.580665411011395
 30
0.0
 40
0.04
 41
0.0
 46
0.0
 71
     5
 72
     1
  1
\A1;0.191
 73
     1
 44
1.0
  0
POINT
  5
15C1
330
15BE
100
AcDbEntity
  8
Defpoints
 62
     0
100
AcDbPoint
 10
217.1842956006615
 20
-1.580665411011395
 30
0.0
  0
POINT
  5
15C2
330
15BE
100
AcDbEntity
  8
Defpoints
 62
     0
100
AcDbPoint
 10
217.000345176418
 20
-1.580665411011395
 30
0.0
  0
POINT
  5
15C3
330
15BE
100
AcDbEntity
  8
Defpoints
 62
     0
100
AcDbPoint
 10
217.0637956006614
 20
-1.390165411011395
 30
0.0
  0
ENDBLK
  5
15C5
330
15BE
100
AcDbEntity
  8
0
100
AcDbBlockEnd
  0
BLOCK
  5
15CD
330
15C7
100
AcDbEntity
  8
0
100
AcDbBlockBegin
  2
*D21
 70
     1
 10
0.0
 20
0.0
 30
0.0
  3
*D21
  1

  0
LINE
  5
15C8
330
15C7
100
AcDbEntity
  8
D
 62
     0
370
    -2
100
AcDbLine
 10
217.1442956006615
 20
-1.269665411011395
 30
0.0
 11
216.9672688300832
 21
-1.269665411011395
 31
0.0
  0
MTEXT
  5
15C9
330
15C7
100
AcDbEntity
  8
D
 62
     0
100
AcDbMText
 10
216.8679354967499
 20
-1.269665411011395
 30
0.0
 40
0.04
 41
0.0
 46
0.0
 71
     5
 72
     1
  1
\A1;0.121
 73
     1
 44
1.0
  0
POINT
  5
15CA
330
15C7
100
AcDbEntity
  8
Defpoints
 62
     0
100
AcDbPoint
 10
217.1842956006615
 20
-1.269665411011395
 30
0.0
  0
POINT
  5
15CB
330
15C7
100
AcDbEntity
  8
Defpoints
 62
     0
100
AcDbPoint
 10
216.9672688300832
 20
-1.269665411011395
 30
0.0
  0
POINT
  5
15CC
330
15C7
100
AcDbEntity
  8
Defpoints
 62
     0
100
AcDbPoint
 10
217.0637956006614
 20
-1.390165411011395
 30
0.0
  0
ENDBLK
  5
15CE
330
15C7
100
AcDbEntity
  8
0
100
AcDbBlockEnd
  0
BLOCK
  5
15D6
330
15D0
100
AcDbEntity
  8
0
100
AcDbBlockBegin
  2
*D22
 70
     1
 10
0.0
 20
0.0
 30
0.0
  3
*D22
  1

  0
LINE
  5
15D1
330
15D0
100
AcDbEntity
  8
D
 62
     0
370
    -2
100
AcDbLine
 10
216.9676205376267
 20
-1.178007425156323
 30
0.0
 11
217.0638997567949
 21
-1.272279488273937
 31
0.0
  0
MTEXT
  5
15D2
330
15D0
100
AcDbEntity
  8
D
 62
     0
100
AcDbMText
 10
216.8823550339586
 20
-1.094519471961419
 30
0.0
 40
0.04
 41
0.0
 46
0.0
 71
     5
 72
     1
  1
\A1;R0.121
 11
0.714515393866733
 21
-0.6996197195101547
 31
0.0
 73
     1
 44
1.0
  0
SOLID
  5
15D3
330
15D0
100
AcDbEntity
  8
D
 62
     0
100
AcDbTrace
 10
217.069496714551
 20
-1.266563365123005
 30
0.0
 11
217.0583027990388
 21
-1.277995611424884
 31
0.0
 12
217.0981964957005
 22
-1.305861234810421
 32
0.0
 13
217.0981964957005
 23
-1.305861234810421
 33
0.0
  0
POINT
  5
15D4
330
15D0
100
AcDbEntity
  8
Defpoints
 62
     0
100
AcDbPoint
 10
217.0981964957005
 20
-1.305861234810421
 30
0.0
  0
POINT
  5
15D5
330
15D0
100
AcDbEntity
  8
Defpoints
 62
     0
100
AcDbPoint
 10
217.1842956006615
 20
-1.390165411011338
 30
0.0
  0
ENDBLK
  5
15D7
330
15D0
100
AcDbEntity
  8
0
100
AcDbBlockEnd
  0
BLOCK
  5
15DF
330
15D9
100
AcDbEntity
  8
0
100
AcDbBlockBegin
  2
*D23
 70
     1
 10
0.0
 20
0.0
 30
0.0
  3
*D23
  1

  0
LINE
  5
15DA
330
15D9
100
AcDbEntity
  8
D
 62
     0
370
    -2
100
AcDbLine
 10
217.0022079746137
 20
-1.647820310936268
 30
0.0
 11
217.066955432198
 21
-1.581093219496381
 31
0.0
  0
MTEXT
  5
15DB
330
15D9
100
AcDbEntity
  8
D
 62
     0
100
AcDbMText
 10
216.9191065298857
 20
-1.733462557103578
 30
0.0
 40
0.04
 41
0.0
 46
0.0
 71
     5
 72
     1
  1
\A1;R0.121
 11
0.696380821742207
 21
0.7176724539158855
 31
0.0
 73
     1
 44
1.0
  0
SOLID
  5
15DC
330
15D9
100
AcDbEntity
  8
D
 62
     0
100
AcDbTrace
 10
217.0612140525667
 20
-1.575522172922433
 30
0.0
 11
217.0726968118294
 21
-1.586664266070329
 31
0.0
 12
217.1003817116416
 22
-1.546644941708422
 32
0.0
 13
217.1003817116416
 23
-1.546644941708422
 33
0.0
  0
POINT
  5
15DD
330
15D9
100
AcDbEntity
  8
Defpoints
 62
     0
100
AcDbPoint
 10
217.1003817116416
 20
-1.546644941708422
 30
0.0
  0
POINT
  5
15DE
330
15D9
100
AcDbEntity
  8
Defpoints
 62
     0
100
AcDbPoint
 10
217.1842956006616
 20
-1.460165411011502
 30
0.0
  0
ENDBLK
  5
15E0
330
15D9
100
AcDbEntity
  8
0
100
AcDbBlockEnd
  0
BLOCK
  5
15E8
330
15E2
100
AcDbEntity
  8
0
100
AcDbBlockBegin
  2
*D24
 70
     1
 10
0.0
 20
0.0
 30
0.0
  3
*D24
  1

  0
LINE
  5
15E3
330
15E2
100
AcDbEntity
  8
D
 62
     0
370
    -2
100
AcDbLine
 10
221.5228314252627
 20
-1.221849595666483
 30
0.0
 11
221.6090128437453
 21
-1.432855551492153
 31
0.0
  0
MTEXT
  5
15E4
330
15E2
100
AcDbEntity
  8
D
 62
     0
100
AcDbMText
 10
221.4739292478625
 20
-1.102117861541302
 30
0.0
 40
0.04
 41
0.0
 46
0.0
 71
     5
 72
     1
  1
\A1;R0.230
 11
0.3781096190738848
 21
-0.9257608308649711
 31
0.0
 73
     1
 44
1.0
  0
SOLID
  5
15E5
330
15E2
100
AcDbEntity
  8
D
 62
     0
100
AcDbTrace
 10
221.6164189303923
 20
-1.429830674539559
 30
0.0
 11
221.6016067570984
 21
-1.435880428444747
 31
0.0
 12
221.6271621054609
 22
-1.477292071373682
 32
0.0
 13
221.6271621054609
 23
-1.477292071373682
 33
0.0
  0
POINT
  5
15E6
330
15E2
100
AcDbEntity
  8
Defpoints
 62
     0
100
AcDbPoint
 10
221.6271621054609
 20
-1.477292071373682
 30
0.0
  0
POINT
  5
15E7
330
15E2
100
AcDbEntity
  8
Defpoints
 62
     0
100
AcDbPoint
 10
221.540281626957
 20
-1.264574542095544
 30
0.0
  0
ENDBLK
  5
15E9
330
15E2
100
AcDbEntity
  8
0
100
AcDbBlockEnd
  0
BLOCK
  5
15F1
330
15EB
100
AcDbEntity
  8
0
100
AcDbBlockBegin
  2
*D25
 70
     1
 10
0.0
 20
0.0
 30
0.0
  3
*D25
  1

  0
LINE
  5
1629
330
15EB
100
AcDbEntity
  8
D
 62
     0
370
    -2
100
AcDbLine
 10
221.8229916605573
 20
-1.695698274334802
 30
0.0
 11
221.7228251554288
 21
-1.541953977092973
 31
0.0
  0
MTEXT
  5
162A
330
15EB
100
AcDbEntity
  8
D
 62
     0
100
AcDbMText
 10
221.8954116851284
 20
-1.806854850773504
 30
0.0
 40
0.04
 41
0.0
 46
0.0
 71
     5
 72
     1
  1
\A1;R0.295
 11
0.5458795821939944
 21
-0.8378636414976545
 31
0.0
 73
     1
 44
1.0
  0
SOLID
  5
162B
330
15EB
100
AcDbEntity
  8
D
 62
     0
100
AcDbTrace
 10
221.7295280645608
 20
-1.537586940435417
 30
0.0
 11
221.7161222462968
 21
-1.546321013750528
 31
0.0
 12
221.6966229354834
 22
-1.501736522301087
 32
0.0
 13
221.6966229354834
 23
-1.501736522301087
 33
0.0
  0
POINT
  5
162C
330
15EB
100
AcDbEntity
  8
Defpoints
 62
     0
100
AcDbPoint
 10
221.6966229354834
 20
-1.501736522301087
 30
0.0
  0
POINT
  5
162D
330
15EB
100
AcDbEntity
  8
Defpoints
 62
     0
100
AcDbPoint
 10
221.5358002009199
 20
-1.254891748449196
 30
0.0
  0
ENDBLK
  5
15F2
330
15EB
100
AcDbEntity
  8
0
100
AcDbBlockEnd
  0
BLOCK
  5
15FA
330
15F4
100
AcDbEntity
  8
0
100
AcDbBlockBegin
  2
*D26
 70
     1
 10
0.0
 20
0.0
 30
0.0
  3
*D26
  1

  0
LINE
  5
15F5
330
15F4
100
AcDbEntity
  8
D
 62
     0
370
    -2
100
AcDbLine
 10
220.3159823227473
 20
-1.823642039817187
 30
0.0
 11
220.2211526619028
 21
-1.607894818180199
 31
0.0
  0
MTEXT
  5
15F6
330
15F4
100
AcDbEntity
  8
D
 62
     0
100
AcDbMText
 10
220.3666829870019
 20
-1.938991260205284
 30
0.0
 40
0.04
 41
0.0
 46
0.0
 71
     5
 72
     1
  1
\A1;R0.199
 11
0.4023862242428298
 21
-0.9154700030801659
 31
0.0
 73
     1
 44
1.0
  0
SOLID
  5
15F7
330
15F4
100
AcDbEntity
  8
D
 62
     0
100
AcDbTrace
 10
220.2284764219274
 20
-1.604675728386254
 30
0.0
 11
220.2138289018781
 21
-1.611113907974157
 31
0.0
 12
220.2018381231391
 22
-1.563952258032344
 32
0.0
 13
220.2018381231391
 23
-1.563952258032344
 33
0.0
  0
POINT
  5
15F8
330
15F4
100
AcDbEntity
  8
Defpoints
 62
     0
100
AcDbPoint
 10
220.2018381231391
 20
-1.563952258032344
 30
0.0
  0
POINT
  5
15F9
330
15F4
100
AcDbEntity
  8
Defpoints
 62
     0
100
AcDbPoint
 10
220.1217076716812
 20
-1.381647248011063
 30
0.0
  0
ENDBLK
  5
15FB
330
15F4
100
AcDbEntity
  8
0
100
AcDbBlockEnd
  0
BLOCK
  5
1614
330
160E
100
AcDbEntity
  8
0
100
AcDbBlockBegin
  2
*D27
 70
     1
 10
0.0
 20
0.0
 30
0.0
  3
*D27
  1

  0
LINE
  5
160F
330
160E
100
AcDbEntity
  8
D
 62
     0
370
    -2
100
AcDbLine
 10
221.7897956103189
 20
-1.364165411011395
 30
0.0
 11
221.7897956103189
 21
-1.123643603941957
 31
0.0
  0
MTEXT
  5
1610
330
160E
100
AcDbEntity
  8
D
 62
     0
100
AcDbMText
 10
221.7897956103189
 20
-1.007643603941921
 30
0.0
 40
0.04
 41
0.0
 46
0.0
 71
     5
 72
     1
  1
\A1;4.726
 11
0.0000000000000001
 21
1.0
 31
0.0
 73
     1
 44
1.0
  0
POINT
  5
1611
330
160E
100
AcDbEntity
  8
Defpoints
 62
     0
100
AcDbPoint
 10
221.7897956103189
 20
-1.404165411011395
 30
0.0
  0
POINT
  5
1612
330
160E
100
AcDbEntity
  8
Defpoints
 62
     0
100
AcDbPoint
 10
221.7897956103189
 20
-1.123643603941957
 30
0.0
  0
POINT
  5
1613
330
160E
100
AcDbEntity
  8
Defpoints
 62
     0
100
AcDbPoint
 10
217.0637956006614
 20
-1.390165411011395
 30
0.0
  0
ENDBLK
  5
1615
330
160E
100
AcDbEntity
  8
0
100
AcDbBlockEnd
  0
BLOCK
  5
1627
330
161C
100
AcDbEntity
  8
0
100
AcDbBlockBegin
  2
*D28
 70
     1
 10
0.0
 20
0.0
 30
0.0
  3
*D28
  1

  0
LINE
  5
1646
330
161C
100
AcDbEntity
  8
D
 62
     0
370
    -2
100
AcDbLine
 10
221.7897956103189
 20
-1.444165411011395
 30
0.0
 11
221.7897956103189
 21
-2.116547678115734
 31
0.0
  0
LINE
  5
1647
330
161C
100
AcDbEntity
  8
D
 62
     0
370
    -2
100
AcDbLine
 10
217.0637956006614
 20
-1.500165411011393
 30
0.0
 11
217.0637956006614
 21
-2.116547678115734
 31
0.0
  0
LINE
  5
1648
330
161C
100
AcDbEntity
  8
D
 62
     0
370
    -2
100
AcDbLine
 10
221.7417956103189
 20
-2.068547678115734
 30
0.0
 11
219.6227956054902
 21
-2.068547678115734
 31
0.0
  0
LINE
  5
1649
330
161C
100
AcDbEntity
  8
D
 62
     0
370
    -2
100
AcDbLine
 10
217.1117956006614
 20
-2.068547678115734
 30
0.0
 11
219.2307956054902
 21
-2.068547678115734
 31
0.0
  0
SOLID
  5
164A
330
161C
100
AcDbEntity
  8
D
 62
     0
100
AcDbTrace
 10
221.7417956103189
 20
-2.060547678115734
 30
0.0
 11
221.7417956103189
 21
-2.076547678115734
 31
0.0
 12
221.7897956103189
 22
-2.068547678115734
 32
0.0
 13
221.7897956103189
 23
-2.068547678115734
 33
0.0
  0
SOLID
  5
164B
330
161C
100
AcDbEntity
  8
D
 62
     0
100
AcDbTrace
 10
217.1117956006614
 20
-2.060547678115734
 30
0.0
 11
217.1117956006614
 21
-2.076547678115734
 31
0.0
 12
217.0637956006614
 22
-2.068547678115734
 32
0.0
 13
217.0637956006614
 23
-2.068547678115734
 33
0.0
  0
MTEXT
  5
164C
330
161C
100
AcDbEntity
  8
D
 62
     0
100
AcDbMText
 10
219.4267956054902
 20
-2.068547678115734
 30
0.0
 40
0.04
 41
0.0
 46
0.0
 71
     5
 72
     1
  1
\A1;4.726 REF
 73
     1
 44
1.0
  0
POINT
  5
164D
330
161C
100
AcDbEntity
  8
Defpoints
 62
     0
100
AcDbPoint
 10
221.7897956103189
 20
-1.404165411011395
 30
0.0
  0
POINT
  5
164E
330
161C
100
AcDbEntity
  8
Defpoints
 62
     0
100
AcDbPoint
 10
217.0637956006614
 20
-1.460165411011393
 30
0.0
  0
POINT
  5
164F
330
161C
100
AcDbEntity
  8
Defpoints
 62
     0
100
AcDbPoint
 10
217.0637956006614
 20
-2.068547678115734
 30
0.0
  0
ENDBLK
  5
1628
330
161C
100
AcDbEntity
  8
0
100
AcDbBlockEnd
  0
BLOCK
  5
163A
330
162F
100
AcDbEntity
  8
0
100
AcDbBlockBegin
  2
*D29
 70
     1
 10
0.0
 20
0.0
 30
0.0
  3
*D29
  1

  0
LINE
  5
1650
330
162F
100
AcDbEntity
  8
D
 62
     0
370
    -2
100
AcDbLine
 10
218.7417647157498
 20
-1.580665411011395
 30
0.0
 11
218.7590201535529
 21
-1.580665411011395
 31
0.0
  0
LINE
  5
1651
330
162F
100
AcDbEntity
  8
D
 62
     0
370
    -2
100
AcDbLine
 10
218.7417647157498
 20
-1.269665411011395
 30
0.0
 11
218.7590201535529
 21
-1.269665411011395
 31
0.0
  0
LINE
  5
1652
330
162F
100
AcDbEntity
  8
D
 62
     0
370
    -2
100
AcDbLine
 10
218.7110201535529
 20
-1.532665411011395
 30
0.0
 11
218.7110201535529
 21
-1.317665411011395
 31
0.0
  0
LINE
  5
1653
330
162F
100
AcDbEntity
  8
D
 62
     0
370
    -2
100
AcDbLine
 10
218.7110201535529
 20
-1.269665411011395
 30
0.0
 11
218.7110201535529
 21
-1.221665411011395
 31
0.0
  0
SOLID
  5
1654
330
162F
100
AcDbEntity
  8
D
 62
     0
100
AcDbTrace
 10
218.7030201535529
 20
-1.532665411011395
 30
0.0
 11
218.7190201535529
 21
-1.532665411011395
 31
0.0
 12
218.7110201535529
 22
-1.580665411011395
 32
0.0
 13
218.7110201535529
 23
-1.580665411011395
 33
0.0
  0
SOLID
  5
1655
330
162F
100
AcDbEntity
  8
D
 62
     0
100
AcDbTrace
 10
218.7030201535529
 20
-1.317665411011395
 30
0.0
 11
218.7190201535529
 21
-1.317665411011395
 31
0.0
 12
218.7110201535529
 22
-1.269665411011395
 32
0.0
 13
218.7110201535529
 23
-1.269665411011395
 33
0.0
  0
MTEXT
  5
1656
330
162F
100
AcDbEntity
  8
D
 62
     0
100
AcDbMText
 10
218.7110201535529
 20
-1.042332077678026
 30
0.0
 40
0.04
 41
0.0
 46
0.0
 71
     5
 72
     1
  1
\A1;0.311 REF
 11
0.0000000000000001
 21
1.0
 31
0.0
 73
     1
 44
1.0
  0
POINT
  5
1657
330
162F
100
AcDbEntity
  8
Defpoints
 62
     0
100
AcDbPoint
 10
218.7017647157498
 20
-1.580665411011395
 30
0.0
  0
POINT
  5
1658
330
162F
100
AcDbEntity
  8
Defpoints
 62
     0
100
AcDbPoint
 10
218.7017647157498
 20
-1.269665411011395
 30
0.0
  0
POINT
  5
1659
330
162F
100
AcDbEntity
  8
Defpoints
 62
     0
100
AcDbPoint
 10
218.7110201535529
 20
-1.269665411011395
 30
0.0
  0
ENDBLK
  5
163B
330
162F
100
AcDbEntity
  8
0
100
AcDbBlockEnd
  0
ENDSEC
  0
SECTION
  2
ENTITIES
  0
TEXT
  5
45
330
18
100
AcDbEntity
  8
T
100
AcDbText
 10
15.48616755326692
 20
1.693507973140668
 30
0.0
 40
0.12
  1
 
100
AcDbText
  0
TEXT
  5
69
330
18
100
AcDbEntity
  8
D
100
AcDbText
 10
5.604806811939204
 20
5.027631219471905
 30
0.0
 40
0.1
  1

100
AcDbText
  0
LINE
  5
F5C
330
18
100
AcDbEntity
  8
Title Block
100
AcDbLine
 10
222.8671132055122
 20
0.6807462179658899
 30
0.0
 11
222.8671132055122
 21
-4.19425378203411
 31
0.0
  0
LINE
  5
F5D
330
18
100
AcDbEntity
  8
Title Block
100
AcDbLine
 10
215.1171132055122
 20
-4.19425378203411
 30
0.0
 11
215.1171132055122
 21
0.6807462179658899
 31
0.0
  0
LINE
  5
F5E
330
18
100
AcDbEntity
  8
Title Block
100
AcDbLine
 10
222.8671132055122
 20
-4.19425378203411
 30
0.0
 11
215.1171132055122
 21
-4.19425378203411
 31
0.0
  0
MTEXT
  5
F5F
330
18
100
AcDbEntity
  8
TITLE BLOCK TEXT
100
AcDbMText
 10
220.3496846080445
 20
-3.746666059204761
 30
0.0
 40
0.036
 41
0.0
 46
0.0
 71
     4
 72
     1
  1
MATL: 1095 STEEL\PMATL CERTS REQUIRED\PFINISH: DEBUR, TUMBLE
  7
Roman
 73
     1
 44
1.0
  0
MTEXT
  5
F60
330
18
100
AcDbEntity
  8
TITLE BLOCK TEXT
100
AcDbMText
 10
220.3446099066594
 20
-4.035675370464758
 30
0.0
 40
0.036
 41
0.0
 46
0.0
 71
     4
 72
     1
  1
TOLERANCES:\PX.XXX +/- 0.005"\PFRACTIONS +/- 1/64"\PANGLES +/- 1/2
  7
Roman
 73
     1
 44
1.0
  0
LINE
  5
F62
330
18
100
AcDbEntity
  8
Title Block
100
AcDbLine
 10
220.2808159956285
 20
-3.594253782034109
 30
0.0
 11
222.867113205512
 21
-3.594253782034109
 31
0.0
  0
LINE
  5
F63
330
18
100
AcDbEntity
  8
Title Block
100
AcDbLine
 10
220.2808159956286
 20
-4.19425378203411
 30
0.0
 11
220.2808159956286
 21
-3.379762381082252
 31
0.0
  0
TEXT
  5
F65
330
18
100
AcDbEntity
  8
TITLE BLOCK TEXT
100
AcDbText
 10
221.8279701110593
 20
-4.145839862090286
 30
0.0
 40
0.067392
  1
ISON-1016-01-03
  7
Roman
100
AcDbText
  0
LINE
  5
F68
330
18
100
AcDbEntity
  8
Title Block
100
AcDbLine
 10
221.9689509740085
 20
-3.966253782034112
 30
0.0
 11
221.9689509740086
 21
-3.594253782034178
 31
0.0
  0
LINE
  5
F69
330
18
100
AcDbEntity
  8
Title Block
100
AcDbLine
 10
221.1129344065044
 20
-4.19425378203411
 30
0.0
 11
221.1129344065042
 21
-3.379762381082252
 31
0.0
  0
LINE
  5
F6A
330
18
100
AcDbEntity
  8
Title Block
100
AcDbLine
 10
221.7583542112901
 20
-4.19425378203411
 30
0.0
 11
221.7583542112901
 21
-3.966253782034112
 31
0.0
  0
LINE
  5
F6B
330
18
100
AcDbEntity
  8
Title Block
100
AcDbLine
 10
221.5589703949634
 20
-4.19425378203411
 30
0.0
 11
221.5589703949634
 21
-3.966253782034112
 31
0.0
  0
TEXT
  5
F6C
330
18
100
AcDbEntity
  8
TITLE BLOCK TEXT
100
AcDbText
 10
221.3761493243485
 20
-4.145839862090286
 30
0.0
 40
0.048
  1
2:1
  7
Roman
100
AcDbText
  0
MTEXT
  5
F6D
330
18
100
AcDbEntity
  8
TITLE BLOCK TEXT
100
AcDbMText
 10
221.6084994779424
 20
-4.014697940828336
 30
0.0
 40
0.036
 41
0.0
 46
0.0
 71
     4
 72
     1
  1
REV.
  7
Roman
 73
     1
 44
1.0
  0
LINE
  5
F6E
330
18
100
AcDbEntity
  8
Title Block
100
AcDbLine
 10
221.3188540139814
 20
-4.19425378203411
 30
0.0
 11
221.3188540139814
 21
-3.966253782034112
 31
0.0
  0
TEXT
  5
F6F
330
18
100
AcDbEntity
  8
TITLE BLOCK TEXT
100
AcDbText
 10
221.1908273965526
 20
-4.145839862090286
 30
0.0
 40
0.048
  1
B
  7
Roman
100
AcDbText
  0
MTEXT
  5
F70
330
18
100
AcDbEntity
  8
TITLE BLOCK TEXT
100
AcDbMText
 10
221.1579325797837
 20
-4.014697940828336
 30
0.0
 40
0.036
 41
0.0
 46
0.0
 71
     4
 72
     1
  1
SIZE
  7
Roman
 73
     1
 44
1.0
  0
MTEXT
  5
F72
330
18
100
AcDbEntity
  8
TITLE BLOCK TEXT
100
AcDbMText
 10
221.3491514798801
 20
-4.014697940828336
 30
0.0
 40
0.036
 41
0.0
 46
0.0
 71
     4
 72
     1
  1
SCALE
  7
Roman
 73
     1
 44
1.0
  0
TEXT
  5
F73
330
18
100
AcDbEntity
  8
TITLE BLOCK TEXT
100
AcDbText
 10
221.8354072920479
 20
-4.034713782034117
 30
0.0
 40
0.039
  1
DWG NO.
  7
Roman
100
AcDbText
  0
LINE
  5
F74
330
18
100
AcDbEntity
  8
Title Block
100
AcDbLine
 10
215.1171132055122
 20
0.6807462179658899
 30
0.0
 11
222.8671132055122
 21
0.6807462179658899
 31
0.0
  0
TEXT
  5
F75
330
18
100
AcDbEntity
  8
TITLE BLOCK TEXT
100
AcDbText
 10
220.6963132055122
 20
0.5849262179658635
 30
0.0
 40
0.039
  1
DESCRIPTION
  7
Roman
100
AcDbText
  0
LINE
  5
F76
330
18
100
AcDbEntity
  8
Title Block
100
AcDbLine
 10
219.8671132055122
 20
0.5307462179658895
 30
0.0
 11
222.8671132055122
 21
0.5307462179658895
 31
0.0
  0
LINE
  5
F77
330
18
100
AcDbEntity
  8
Title Block
100
AcDbLine
 10
219.8671132055122
 20
0.6807462179658899
 30
0.0
 11
222.8671132055122
 21
0.6807462179658899
 31
0.0
  0
TEXT
  5
F78
330
18
100
AcDbEntity
  8
TITLE BLOCK TEXT
100
AcDbText
 10
219.9151732055121
 20
0.5849262179658635
 30
0.0
 40
0.039
  1
REV
  7
Roman
100
AcDbText
  0
LINE
  5
F79
330
18
100
AcDbEntity
  8
Title Block
100
AcDbLine
 10
219.8671132055122
 20
0.5307462179658895
 30
0.0
 11
219.8671132055122
 21
0.6807462179658899
 31
0.0
  0
LINE
  5
F7A
330
18
100
AcDbEntity
  8
Title Block
100
AcDbLine
 10
220.0951132055123
 20
0.5307462179658895
 30
0.0
 11
220.0951132055123
 21
0.6807462179658899
 31
0.0
  0
TEXT
  5
F7B
330
18
100
AcDbEntity
  8
TITLE BLOCK TEXT
100
AcDbText
 10
222.4119532055121
 20
0.5849262179658635
 30
0.0
 40
0.039
  1
APPROVED
  7
Roman
100
AcDbText
  0
LINE
  5
F7C
330
18
100
AcDbEntity
  8
Title Block
100
AcDbLine
 10
221.7391132055121
 20
0.5307462179658895
 30
0.0
 11
221.7391132055121
 21
0.6807462179658899
 31
0.0
  0
LINE
  5
F7D
330
18
100
AcDbEntity
  8
Title Block
100
AcDbLine
 10
222.2671132055122
 20
0.5307462179658895
 30
0.0
 11
222.2671132055122
 21
0.6807462179658899
 31
0.0
  0
TEXT
  5
F7E
330
18
100
AcDbEntity
  8
TITLE BLOCK TEXT
100
AcDbText
 10
221.9357332055122
 20
0.5849262179658635
 30
0.0
 40
0.039
  1
DATE
  7
Roman
100
AcDbText
  0
LINE
  5
119C
330
18
100
AcDbEntity
  8
PICK
100
AcDbLine
 10
215.9464550908254
 20
-1.580665411011395
 30
0.0
 11
215.9464550908254
 21
-1.269665411011402
 31
0.0
  0
LINE
  5
119D
330
18
100
AcDbEntity
  8
PICK
100
AcDbLine
 10
215.9664550908254
 20
-1.580665411011395
 30
0.0
 11
215.9664550908254
 21
-1.269665411011402
 31
0.0
  0
LINE
  5
119F
330
18
100
AcDbEntity
  8
PICK
100
AcDbLine
 10
215.9664550908254
 20
-1.269665411011402
 30
0.0
 11
215.9464550908254
 21
-1.269665411011402
 31
0.0
  0
LINE
  5
11A0
330
18
100
AcDbEntity
  8
PICK
100
AcDbLine
 10
215.9464550908254
 20
-1.269665411011402
 30
0.0
 11
215.9664550908254
 21
-1.269665411011402
 31
0.0
  0
LINE
  5
11A1
330
18
100
AcDbEntity
  8
PICK
100
AcDbLine
 10
215.9464550908254
 20
-1.580665411011395
 30
0.0
 11
215.9664550908254
 21
-1.580665411011395
 31
0.0
  0
DIMENSION
  5
11A2
330
18
100
AcDbEntity
  8
D
100
AcDbDimension
280
     0
  2
*D0
 10
215.9464550908254
 20
-1.073153340859391
 30
0.0
 11
215.6644550908254
 21
-1.073153340859391
 31
0.0
 70
    32
  1
<> REF
 71
     5
 42
0.0199999999999818
 73
     0
 74
     0
 75
     0
  3
TPS3
100
AcDbAlignedDimension
 13
215.9664550908254
 23
-1.269665411011402
 33
0.0
 14
215.9464550908254
 24
-1.269665411011402
 34
0.0
100
AcDbRotatedDimension
  0
LINE
  5
123E
330
18
100
AcDbEntity
  8
Title Block
100
AcDbLine
 10
218.3670431001213
 20
-3.194056640204962
 30
0.0
 11
215.1171132055122
 21
-3.194056640204962
 31
0.0
  0
MTEXT
  5
1240
330
18
100
AcDbEntity
  8
D
100
AcDbMText
 10
216.6536727265738
 20
-3.963035119641034
 30
0.0
 40
0.04
 41
0.0
 46
0.0
 71
     5
 72
     1
  1
*****THIS VIEW IS 1:1 ONLY WHEN PRINTED \PON 11X17 PAPER.*****
 73
     1
 44
1.0
  0
LINE
  5
1241
330
18
100
AcDbEntity
  8
Title Block
100
AcDbLine
 10
218.3670431001213
 20
-4.19425378203411
 30
0.0
 11
218.3670431001213
 21
-3.194056640204962
 31
0.0
  0
LINE
  5
12AA
330
18
100
AcDbEntity
  8
Title Block
100
AcDbLine
 10
220.2808159956285
 20
-3.379762381082252
 30
0.0
 11
221.1129344065042
 21
-3.379762381082251
 31
0.0
  0
MTEXT
  5
137A
330
18
100
AcDbEntity
  8
D
100
AcDbMText
 10
216.6536727265738
 20
-3.39668549162647
 30
0.0
 40
0.04
 41
0.0
 46
0.0
 71
     5
 72
     1
  1
*****THIS VIEW IS 1:1 ONLY WHEN PRINTED \PON 11X17 PAPER.*****
 73
     1
 44
1.0
  0
LINE
  5
14D4
330
18
100
AcDbEntity
  8
PICK
100
AcDbLine
 10
217.1842956006615
 20
-1.580665411011395
 30
0.0
 11
220.1147956006615
 21
-1.580665411011395
 31
0.0
  0
LINE
  5
14D5
330
18
100
AcDbEntity
  8
PICK
100
AcDbLine
 10
217.1842956006615
 20
-1.269665411011395
 30
0.0
 11
219.9657956006615
 21
-1.269665411011395
 31
0.0
  0
LINE
  5
14D6
330
18
100
AcDbEntity
  8
PICK
100
AcDbLine
 10
217.0637956006614
 20
-1.460165411011393
 30
0.0
 11
217.0637956006614
 21
-1.390165411011395
 31
0.0
  0
ARC
  5
14D7
330
18
100
AcDbEntity
  8
PICK
100
AcDbCircle
 10
219.9299898472671
 20
-2.082980753396274
 30
0.0
 40
0.8141031250000029
100
AcDbArc
 50
51.40869651708104
 51
87.47921304375259
  0
ARC
  5
14D9
330
18
100
AcDbEntity
  8
PICK
100
AcDbCircle
 10
220.1217076716806
 20
-1.38164724801128
 30
0.0
 40
0.1991381578947491
100
AcDbArc
 50
268.0108681009747
 51
302.9963806075794
  0
ARC
  5
14DA
330
18
100
AcDbEntity
  8
PICK
100
AcDbCircle
 10
217.1842956006615
 20
-1.390165411011395
 30
0.0
 40
0.1204999999999998
100
AcDbArc
 50
90.0
 51
180.0
  0
ARC
  5
14DB
330
18
100
AcDbEntity
  8
PICK
100
AcDbCircle
 10
217.1842956006615
 20
-1.460165411011395
 30
0.0
 40
0.1204999999999998
100
AcDbArc
 50
179.999999999999
 51
270.0
  0
LINE
  5
14DC
330
18
100
AcDbEntity
  8
PICK
100
AcDbLine
 10
220.4817956103189
 20
-1.453665411011394
 30
0.0
 11
220.4377956006614
 21
-1.446665411011395
 31
0.0
  0
LINE
  5
14DD
330
18
100
AcDbEntity
  8
PICK
100
AcDbLine
 10
220.2301555354575
 20
-1.548665411011395
 30
0.0
 11
221.5580112233032
 21
-1.548665411011395
 31
0.0
  0
LINE
  5
14DE
330
18
100
AcDbEntity
  8
PICK
100
AcDbLine
 10
221.5580112233031
 20
-1.493665411011395
 30
0.0
 11
220.4817956103189
 21
-1.453665411011394
 31
0.0
  0
ARC
  5
14DF
330
18
100
AcDbEntity
  8
PICK
100
AcDbCircle
 10
221.7562956103189
 20
-1.404165411011396
 30
0.0
 40
0.0335000000000037
100
AcDbArc
 50
0.000000000000007
 51
180.0
  0
ARC
  5
14E0
330
18
100
AcDbEntity
  8
PICK
100
AcDbCircle
 10
221.5402816269573
 20
-1.264574542095504
 30
0.0
 40
0.2297759012760604
100
AcDbArc
 50
274.4253629036958
 51
322.5904139806109
  0
ARC
  5
14E1
330
18
100
AcDbEntity
  8
PICK
100
AcDbCircle
 10
221.5358002009199
 20
-1.254891748449237
 30
0.0
 40
0.2946121082550676
100
AcDbArc
 50
274.3236731394679
 51
329.5571521914023
  0
LINE
  5
14E2
330
18
100
AcDbEntity
  8
Title Block
100
AcDbLine
 10
215.7109929120126
 20
-3.570706876651779
 30
0.0
 11
217.1017429120126
 21
-3.570706876651779
 31
0.0
  0
LINE
  5
14E3
330
18
100
AcDbEntity
  8
Title Block
100
AcDbLine
 10
215.7109929120126
 20
-3.726206876651779
 30
0.0
 11
217.1762429120127
 21
-3.726206876651779
 31
0.0
  0
ARC
  5
14E4
330
18
100
AcDbEntity
  8
Title Block
100
AcDbCircle
 10
215.7109929120126
 20
-3.66595687665178
 30
0.0
 40
0.0602499999999999
100
AcDbArc
 50
179.999999999999
 51
270.0
  0
ARC
  5
14E5
330
18
100
AcDbEntity
  8
Title Block
100
AcDbCircle
 10
215.7109929120126
 20
-3.630956876651779
 30
0.0
 40
0.0602499999999999
100
AcDbArc
 50
90.0
 51
180.0
  0
LINE
  5
14E6
330
18
100
AcDbEntity
  8
Title Block
100
AcDbLine
 10
215.6507429120126
 20
-3.665956876651779
 30
0.0
 11
215.6507429120126
 21
-3.630956876651779
 31
0.0
  0
ARC
  5
14E7
330
18
100
AcDbEntity
  8
Title Block
100
AcDbCircle
 10
217.1796989475222
 20
-3.626697795151722
 30
0.0
 40
0.0995690789473746
100
AcDbArc
 50
268.0108681009747
 51
302.9963806075794
  0
ARC
  5
14E8
330
18
100
AcDbEntity
  8
Title Block
100
AcDbCircle
 10
217.8867452121418
 20
-3.563320045370701
 30
0.0
 40
0.1473060541275338
100
AcDbArc
 50
274.3236731394679
 51
329.5571521914023
  0
ARC
  5
14E9
330
18
100
AcDbEntity
  8
Title Block
100
AcDbCircle
 10
217.8889859251605
 20
-3.568161442193834
 30
0.0
 40
0.1148879506380302
100
AcDbArc
 50
274.4253629036958
 51
322.5904139806109
  0
ARC
  5
14EA
330
18
100
AcDbEntity
  8
Title Block
100
AcDbCircle
 10
217.9969929168414
 20
-3.63795687665178
 30
0.0
 40
0.0167500000000018
100
AcDbArc
 50
0.000000000000007
 51
180.0
  0
LINE
  5
14EB
330
18
100
AcDbEntity
  8
Title Block
100
AcDbLine
 10
217.3597429168414
 20
-3.662706876651779
 30
0.0
 11
217.3377429120126
 21
-3.659206876651779
 31
0.0
  0
ARC
  5
14EC
330
18
100
AcDbEntity
  8
Title Block
100
AcDbCircle
 10
217.0838400353154
 20
-3.977364547844219
 30
0.0
 40
0.4070515625000015
100
AcDbArc
 50
51.40869651708104
 51
87.47921304375259
  0
LINE
  5
14ED
330
18
100
AcDbEntity
  8
Title Block
100
AcDbLine
 10
217.8978507233335
 20
-3.68270687665178
 30
0.0
 11
217.3597429168414
 21
-3.662706876651779
 31
0.0
  0
LINE
  5
14EE
330
18
100
AcDbEntity
  8
Title Block
100
AcDbLine
 10
217.2339228794107
 20
-3.710206876651779
 30
0.0
 11
217.8978507233335
 21
-3.710206876651779
 31
0.0
  0
DIMENSION
  5
14EF
330
18
100
AcDbEntity
  8
D
100
AcDbDimension
280
     0
  2
*D1
 10
217.0637956006614
 20
-1.390165411011395
 30
0.0
 11
216.7504345437099
 21
-1.390165411011395
 31
0.0
 70
   166
 71
     5
 42
0.0
 73
     0
 74
     0
 75
     0
  3
TPS3
100
AcDbOrdinateDimension
 13
217.0637956006614
 23
-1.390165411011395
 33
0.0
 14
216.8531012103765
 24
-1.390165411011395
 34
0.0
  0
DIMENSION
  5
14F8
330
18
100
AcDbEntity
  8
D
100
AcDbDimension
280
     0
  2
*D2
 10
217.0637956006614
 20
-1.390165411011395
 30
0.0
 11
217.0637956006614
 21
-1.097474602420723
 31
0.0
 70
   102
 71
     5
 42
0.0
 73
     0
 74
     0
 75
     0
  3
TPS3
100
AcDbOrdinateDimension
 13
217.0637956006614
 23
-1.390165411011395
 33
0.0
 14
217.0637956006614
 24
-1.200141269087424
 34
0.0
  0
POINT
  5
1501
330
18
100
AcDbEntity
  8
D
100
AcDbPoint
 10
217.0637956006614
 20
-1.390165411011395
 30
0.0
  0
POINT
  5
1502
330
18
100
AcDbEntity
  8
D
100
AcDbPoint
 10
217.0637956006614
 20
-1.460165411011393
 30
0.0
  0
POINT
  5
1503
330
18
100
AcDbEntity
  8
D
100
AcDbPoint
 10
217.1842956006615
 20
-1.269665411011395
 30
0.0
  0
POINT
  5
1504
330
18
100
AcDbEntity
  8
D
100
AcDbPoint
 10
219.9657956006615
 20
-1.269665411011395
 30
0.0
  0
POINT
  5
1505
330
18
100
AcDbEntity
  8
D
100
AcDbPoint
 10
220.4377956006614
 20
-1.446665411011395
 30
0.0
  0
POINT
  5
1506
330
18
100
AcDbEntity
  8
D
100
AcDbPoint
 10
221.5580112233031
 20
-1.493665411011395
 30
0.0
  0
POINT
  5
1507
330
18
100
AcDbEntity
  8
D
100
AcDbPoint
 10
221.7227956103189
 20
-1.404165411011396
 30
0.0
  0
POINT
  5
1508
330
18
100
AcDbEntity
  8
D
100
AcDbPoint
 10
221.7897956103189
 20
-1.404165411011395
 30
0.0
  0
POINT
  5
1509
330
18
100
AcDbEntity
  8
D
100
AcDbPoint
 10
221.5580112233031
 20
-1.5486654110114
 30
0.0
  0
POINT
  5
150A
330
18
100
AcDbEntity
  8
D
100
AcDbPoint
 10
220.2301555354575
 20
-1.548665411011395
 30
0.0
  0
POINT
  5
150B
330
18
100
AcDbEntity
  8
D
100
AcDbPoint
 10
220.1147956006615
 20
-1.580665411011395
 30
0.0
  0
POINT
  5
150C
330
18
100
AcDbEntity
  8
D
100
AcDbPoint
 10
217.1842956006615
 20
-1.580665411011395
 30
0.0
  0
DIMENSION
  5
150D
330
18
100
AcDbEntity
  8
D
100
AcDbDimension
280
     0
  2
*D3
 10
217.0637956006614
 20
-1.390165411011395
 30
0.0
 11
217.1842956006615
 21
-0.9482139239353641
 31
0.0
 70
   102
 71
     5
 42
0.1204999999999927
 73
     0
 74
     0
 75
     0
  3
TPS3
100
AcDbOrdinateDimension
 13
217.1842956006615
 23
-1.269665411011395
 33
0.0
 14
217.1842956006615
 24
-1.047547257268732
 34
0.0
  0
DIMENSION
  5
1516
330
18
100
AcDbEntity
  8
D
100
AcDbDimension
280
     0
  2
*D4
 10
217.0637956006614
 20
-1.390165411011395
 30
0.0
 11
219.9657956006615
 21
-1.014760705008892
 31
0.0
 70
   102
 71
     5
 42
2.902000000000043
 73
     0
 74
     0
 75
     0
  3
TPS3
100
AcDbOrdinateDimension
 13
219.9657956006615
 23
-1.269665411011395
 33
0.0
 14
219.9657956006615
 24
-1.127427371675594
 34
0.0
  0
DIMENSION
  5
151F
330
18
100
AcDbEntity
  8
D
100
AcDbDimension
280
     0
  2
*D5
 10
217.0637956006614
 20
-1.390165411011395
 30
0.0
 11
220.4377956006614
 21
-1.189435389089488
 31
0.0
 70
   102
 71
     5
 42
3.373999999999995
 73
     0
 74
     0
 75
     0
  3
TPS3
100
AcDbOrdinateDimension
 13
220.4377956006614
 23
-1.446665411011395
 33
0.0
 14
220.4377956006614
 24
-1.305435389089524
 34
0.0
  0
POINT
  5
1528
330
18
100
AcDbEntity
  8
D
100
AcDbPoint
 10
220.4817956103189
 20
-1.453665411011394
 30
0.0
  0
DIMENSION
  5
1529
330
18
100
AcDbEntity
  8
D
100
AcDbDimension
280
     0
  2
*D6
 10
219.9299898472662
 20
-2.082980753396157
 30
0.0
 11
220.2648384109069
 21
-1.071008423311795
 31
0.0
 70
   164
 71
     5
 42
0.8141031250001873
 73
     0
 74
     0
 75
     0
  3
TPS3
100
AcDbRadialDimension
 15
220.1857296117408
 25
-1.310089382632114
 35
0.0
 40
0.0
1001
ACAD
1000
DSTYLE
1002
{
1070
   288
1070
     1
1002
}
  0
DIMENSION
  5
1532
330
18
100
AcDbEntity
  8
D
100
AcDbDimension
280
     0
  2
*D7
 10
217.0637956006614
 20
-1.390165411011395
 30
0.0
 11
220.5282429314211
 21
-1.18353755165529
 31
0.0
 70
   102
 71
     5
 42
3.418000009657475
 73
     0
 74
     0
 75
     0
  3
TPS3
100
AcDbOrdinateDimension
 13
220.4817956103189
 23
-1.453665411011394
 33
0.0
 14
220.5282429314211
 24
-1.292870884988658
 34
0.0
  0
DIMENSION
  5
153D
330
18
100
AcDbEntity
  8
D
100
AcDbDimension
280
     0
  2
*D8
 10
217.0637956006614
 20
-1.390165411011395
 30
0.0
 11
220.0829933286964
 21
-1.398578256586631
 31
0.0
 70
    38
 71
     5
 42
0.0565000000000007
 73
     0
 74
     0
 75
     0
  3
TPS3
100
AcDbOrdinateDimension
 13
220.4377956006614
 23
-1.446665411011395
 33
0.0
 14
220.1923266620297
 24
-1.398578256586631
 34
0.0
  0
DIMENSION
  5
1548
330
18
100
AcDbEntity
  8
D
100
AcDbDimension
280
     0
  2
*D9
 10
217.0637956006614
 20
-1.390165411011395
 30
0.0
 11
220.8074273374458
 21
-1.386422166328813
 31
0.0
 70
    38
 71
     5
 42
0.0634999999999995
 73
     0
 74
     0
 75
     0
  3
TPS3
100
AcDbOrdinateDimension
 13
220.4817956103189
 23
-1.453665411011394
 33
0.0
 14
220.6980940041125
 24
-1.386422166328813
 34
0.0
  0
DIMENSION
  5
1553
330
18
100
AcDbEntity
  8
D
100
AcDbDimension
280
     0
  2
*D10
 10
217.0637956006614
 20
-1.390165411011395
 30
0.0
 11
220.5659836747726
 21
-1.605231253441317
 31
0.0
 70
    38
 71
     5
 42
0.1585000000000001
 73
     0
 74
     0
 75
     0
  3
TPS3
100
AcDbOrdinateDimension
 13
220.2301555354575
 23
-1.548665411011395
 33
0.0
 14
220.4599836747726
 24
-1.605231253441317
 34
0.0
  0
DIMENSION
  5
155E
330
18
100
AcDbEntity
  8
D
100
AcDbDimension
280
     0
  2
*D11
 10
217.0637956006614
 20
-1.390165411011395
 30
0.0
 11
220.1368260330686
 21
-1.933998484290327
 31
0.0
 70
   230
 71
     5
 42
3.166359934796105
 73
     0
 74
     0
 75
     0
  3
TPS3
100
AcDbOrdinateDimension
 13
220.2301555354575
 23
-1.548665411011395
 33
0.0
 14
220.1368260330686
 24
-1.824665150957029
 34
0.0
  0
DIMENSION
  5
1567
330
18
100
AcDbEntity
  8
D
100
AcDbDimension
280
     0
  2
*D12
 10
217.0637956006614
 20
-1.390165411011395
 30
0.0
 11
219.976925373227
 21
-1.894056706997005
 31
0.0
 70
   230
 71
     5
 42
3.051000000000044
 73
     0
 74
     0
 75
     0
  3
TPS3
100
AcDbOrdinateDimension
 13
220.1147956006615
 23
-1.580665411011395
 33
0.0
 14
219.976925373227
 24
-1.788056706997041
 34
0.0
  0
DIMENSION
  5
1570
330
18
100
AcDbEntity
  8
D
100
AcDbDimension
280
     0
  2
*D13
 10
217.0637956006614
 20
-1.390165411011395
 30
0.0
 11
221.5580112233031
 21
-1.77235791523875
 31
0.0
 70
   102
 71
     5
 42
4.494215622641689
 73
     0
 74
     0
 75
     0
  3
TPS3
100
AcDbOrdinateDimension
 13
221.5580112233031
 23
-1.5486654110114
 33
0.0
 14
221.5580112233031
 24
-1.656357915238785
 34
0.0
  0
DIMENSION
  5
1579
330
18
100
AcDbEntity
  8
D
100
AcDbDimension
280
     0
  2
*D14
 10
217.0637956006614
 20
-1.390165411011395
 30
0.0
 11
221.308946683705
 21
-1.154918708328821
 31
0.0
 70
   230
 71
     5
 42
4.494215622641661
 73
     0
 74
     0
 75
     0
  3
TPS3
100
AcDbOrdinateDimension
 13
221.5580112233031
 23
-1.493665411011395
 33
0.0
 14
221.308946683705
 24
-1.270918708328857
 34
0.0
  0
DIMENSION
  5
1582
330
18
100
AcDbEntity
  8
D
100
AcDbDimension
280
     0
  2
*D15
 10
217.0637956006614
 20
-1.390165411011395
 30
0.0
 11
221.7227956103189
 21
-1.009929106404413
 31
0.0
 70
   230
 71
     5
 42
4.659000009657461
 73
     0
 74
     0
 75
     0
  3
TPS3
100
AcDbOrdinateDimension
 13
221.7227956103189
 23
-1.404165411011396
 33
0.0
 14
221.7227956103189
 24
-1.125929106404449
 34
0.0
  0
DIMENSION
  5
1592
330
18
100
AcDbEntity
  8
D
100
AcDbDimension
280
     0
  2
*D16
 10
217.0637956006614
 20
-1.390165411011395
 30
0.0
 11
221.4204278645926
 21
-1.230326589023917
 31
0.0
 70
    38
 71
     5
 42
0.0140000000000011
 73
     0
 74
     0
 75
     0
  3
TPS3
100
AcDbOrdinateDimension
 13
221.7227956103189
 23
-1.404165411011396
 33
0.0
 14
221.5230945312592
 24
-1.230326589023917
 34
0.0
  0
DIMENSION
  5
159D
330
18
100
AcDbEntity
  8
D
100
AcDbDimension
280
     0
  2
*D17
 10
217.0637956006614
 20
-1.390165411011395
 30
0.0
 11
222.0186608171382
 21
-1.404165411011395
 31
0.0
 70
    38
 71
     5
 42
0.0140000000000002
 73
     0
 74
     0
 75
     0
  3
TPS3
100
AcDbOrdinateDimension
 13
221.7897956103189
 23
-1.404165411011395
 33
0.0
 14
221.9159941504716
 24
-1.404165411011395
 34
0.0
  0
DIMENSION
  5
15A6
330
18
100
AcDbEntity
  8
D
100
AcDbDimension
280
     0
  2
*D18
 10
217.0637956006614
 20
-1.390165411011395
 30
0.0
 11
217.1842956006615
 21
-1.83650827444044
 31
0.0
 70
   102
 71
     5
 42
0.1204999999999927
 73
     0
 74
     0
 75
     0
  3
TPS3
100
AcDbOrdinateDimension
 13
217.1842956006615
 23
-1.580665411011395
 33
0.0
 14
217.1842956006615
 24
-1.737174941107141
 34
0.0
  0
DIMENSION
  5
15AF
330
18
100
AcDbEntity
  8
D
100
AcDbDimension
280
     0
  2
*D19
 10
217.0637956006614
 20
-1.390165411011395
 30
0.0
 11
216.7583644112857
 21
-1.460165411011393
 31
0.0
 70
    38
 71
     5
 42
0.0699999999999985
 73
     0
 74
     0
 75
     0
  3
TPS3
100
AcDbOrdinateDimension
 13
217.0637956006614
 23
-1.460165411011393
 33
0.0
 14
216.8643644112857
 24
-1.460165411011393
 34
0.0
  0
DIMENSION
  5
15BD
330
18
100
AcDbEntity
  8
D
100
AcDbDimension
280
     0
  2
*D20
 10
217.0637956006614
 20
-1.390165411011395
 30
0.0
 11
216.9010118430847
 21
-1.580665411011395
 31
0.0
 70
    38
 71
     5
 42
0.1905000000000001
 73
     0
 74
     0
 75
     0
  3
TPS3
100
AcDbOrdinateDimension
 13
217.1842956006615
 23
-1.580665411011395
 33
0.0
 14
217.000345176418
 24
-1.580665411011395
 34
0.0
  0
DIMENSION
  5
15C6
330
18
100
AcDbEntity
  8
D
100
AcDbDimension
280
     0
  2
*D21
 10
217.0637956006614
 20
-1.390165411011395
 30
0.0
 11
216.8679354967499
 21
-1.269665411011395
 31
0.0
 70
    38
 71
     5
 42
0.1204999999999998
 73
     0
 74
     0
 75
     0
  3
TPS3
100
AcDbOrdinateDimension
 13
217.1842956006615
 23
-1.269665411011395
 33
0.0
 14
216.9672688300832
 24
-1.269665411011395
 34
0.0
  0
DIMENSION
  5
15CF
330
18
100
AcDbEntity
  8
D
100
AcDbDimension
280
     0
  2
*D22
 10
217.1842956006615
 20
-1.390165411011338
 30
0.0
 11
216.8823550339586
 21
-1.094519471961419
 31
0.0
 70
   164
 71
     5
 42
0.1204999999999359
 73
     0
 74
     0
 75
     0
  3
TPS3
100
AcDbRadialDimension
 15
217.0981964957005
 25
-1.305861234810421
 35
0.0
 40
0.0
1001
ACAD
1000
DSTYLE
1002
{
1070
   288
1070
     1
1002
}
  0
DIMENSION
  5
15D8
330
18
100
AcDbEntity
  8
D
100
AcDbDimension
280
     0
  2
*D23
 10
217.1842956006616
 20
-1.460165411011502
 30
0.0
 11
216.9191065298857
 21
-1.733462557103578
 31
0.0
 70
   164
 71
     5
 42
0.120500000000078
 73
     0
 74
     0
 75
     0
  3
TPS3
100
AcDbRadialDimension
 15
217.1003817116416
 25
-1.546644941708422
 35
0.0
 40
0.0
1001
ACAD
1000
DSTYLE
1002
{
1070
   288
1070
     1
1002
}
  0
DIMENSION
  5
15E1
330
18
100
AcDbEntity
  8
D
100
AcDbDimension
280
     0
  2
*D24
 10
221.540281626957
 20
-1.264574542095544
 30
0.0
 11
221.4739292478625
 21
-1.102117861541302
 31
0.0
 70
   164
 71
     5
 42
0.2297759012761276
 73
     0
 74
     0
 75
     0
  3
TPS3
100
AcDbRadialDimension
 15
221.6271621054609
 25
-1.477292071373682
 35
0.0
 40
0.0
1001
ACAD
1000
DSTYLE
1002
{
1070
   279
1070
     1
1070
   288
1070
     1
1002
}
  0
DIMENSION
  5
15EA
330
18
100
AcDbEntity
  8
D
100
AcDbDimension
280
     0
  2
*D25
 10
221.5358002009199
 20
-1.254891748449196
 30
0.0
 11
221.8954116851284
 21
-1.806854850773504
 31
0.0
 70
   164
 71
     5
 42
0.2946121082550661
 73
     0
 74
     0
 75
     0
  3
TPS3
100
AcDbRadialDimension
 15
221.6966229354834
 25
-1.501736522301087
 35
0.0
 40
0.0
1001
ACAD
1000
DSTYLE
1002
{
1070
   288
1070
     1
1002
}
  0
DIMENSION
  5
15F3
330
18
100
AcDbEntity
  8
D
100
AcDbDimension
280
     0
  2
*D26
 10
220.1217076716812
 20
-1.381647248011063
 30
0.0
 11
220.3666829870019
 21
-1.938991260205284
 31
0.0
 70
   164
 71
     5
 42
0.1991381578947511
 73
     0
 74
     0
 75
     0
  3
TPS3
100
AcDbRadialDimension
 15
220.2018381231391
 25
-1.563952258032344
 35
0.0
 40
0.0
1001
ACAD
1000
DSTYLE
1002
{
1070
   288
1070
     1
1002
}
  0
DIMENSION
  5
160D
330
18
100
AcDbEntity
  8
D
100
AcDbDimension
280
     0
  2
*D27
 10
217.0637956006614
 20
-1.390165411011395
 30
0.0
 11
221.7897956103189
 21
-1.007643603941921
 31
0.0
 70
   102
 71
     5
 42
4.726000009657468
 73
     0
 74
     0
 75
     0
  3
TPS3
100
AcDbOrdinateDimension
 13
221.7897956103189
 23
-1.404165411011395
 33
0.0
 14
221.7897956103189
 24
-1.123643603941957
 34
0.0
  0
DIMENSION
  5
161B
330
18
100
AcDbEntity
  8
D
100
AcDbDimension
280
     0
  2
*D28
 10
217.0637956006614
 20
-2.068547678115734
 30
0.0
 11
219.4267956054902
 21
-2.068547678115734
 31
0.0
 70
    32
  1
<> REF
 71
     5
 42
4.726000009657468
 73
     0
 74
     0
 75
     0
  3
TPS3
100
AcDbAlignedDimension
 13
221.7897956103189
 23
-1.404165411011395
 33
0.0
 14
217.0637956006614
 24
-1.460165411011393
 34
0.0
100
AcDbRotatedDimension
  0
DIMENSION
  5
162E
330
18
100
AcDbEntity
  8
D
100
AcDbDimension
280
     0
  2
*D29
 10
218.7110201535529
 20
-1.269665411011395
 30
0.0
 11
218.7110201535529
 21
-1.042332077678026
 31
0.0
 70
   160
  1
<> REF
 71
     5
 42
0.3109999999999999
 73
     0
 74
     0
 75
     0
  3
TPS3
100
AcDbAlignedDimension
 13
218.7017647157498
 23
-1.580665411011395
 33
0.0
 14
218.7017647157498
 24
-1.269665411011395
 34
0.0
 50
90.0
100
AcDbRotatedDimension
  0
LINE
  5
1696
330
18
100
AcDbEntity
  8
Title Block
100
AcDbLine
 10
221.1129344065043
 20
-3.966253782034111
 30
0.0
 11
222.8671132055122
 21
-3.966253782034112
 31
0.0
  0
MTEXT
  5
16A0
330
18
100
AcDbEntity
  8
TITLE BLOCK TEXT
100
AcDbMText
 10
221.1561052303493
 20
-3.91012371801049
 30
0.0
 40
0.048
 41
0.0
 46
0.0
 71
     4
 72
     1
  1
DATE: 5-18-2011
  7
Roman
 73
     1
 44
1.0
  0
LINE
  5
16A1
330
18
100
AcDbEntity
  8
Title Block
100
AcDbLine
 10
220.2832050155143
 20
-3.859688787552666
 30
0.0
 11
221.9689509740086
 21
-3.859688787552283
 31
0.0
  0
MTEXT
  5
16A2
330
18
100
AcDbEntity
  8
TITLE BLOCK TEXT
100
AcDbMText
 10
221.1463230824977
 20
-3.725798926643472
 30
0.0
 40
0.048
 41
0.0
 46
0.0
 71
     4
 72
     1
  1
OPEN\PLOCK PICK SET\PPICK BLADE
  7
Roman
 73
     1
 44
1.0
  0
MTEXT
  5
16D9
330
18
100
AcDbEntity
  8
TITLE BLOCK TEXT
100
AcDbMText
 10
221.345926528697
 20
-3.342274995093253
 30
0.0
 40
0.036
 41
0.0
 46
0.0
 71
     4
 72
     1
  1
NOTES:\P-CAD FILES AVAILABLE WITH ORDER.\P-ACAD 2000 DWG OR ACAD DXF PROVIDED.\P-CAD FILE IN MAIN VIEW IS DRAWN 1:1.\P-BORDER IS SCALED TO PRINT.\P-LAYED TO CUT IS CALLED "PICK"
  7
Roman
 73
     1
 44
1.0
  0
MTEXT
  5
16DA
330
18
100
AcDbEntity
  8
TITLE BLOCK TEXT
100
AcDbMText
 10
220.3431312761052
 20
-3.489393816339566
 30
0.0
 40
0.048
 41
0.0
 46
0.0
 71
     4
 72
     1
  1
MOCK UP QTY: 30\PPROD QTY: 2500
  7
Roman
 73
     1
 44
1.0
  0
ENDSEC
  0
SECTION
  2
OBJECTS
  0
DICTIONARY
  5
C
330
0
100
AcDbDictionary
281
     1
  3
ACAD_COLOR
350
171D
  3
ACAD_GROUP
350
D
  3
ACAD_LAYOUT
350
107
  3
ACAD_MATERIAL
350
16F0
  3
ACAD_MLEADERSTYLE
350
1742
  3
ACAD_MLINESTYLE
350
E
  3
ACAD_PLOTSETTINGS
350
108
  3
ACAD_PLOTSTYLENAME
350
105
  3
ACAD_SCALELIST
350
1720
  3
ACAD_TABLESTYLE
350
171E
  3
ACAD_VISUALSTYLE
350
1709
  3
AcadDim
350
2A8
  3
ACDB_RECOMPOSE_DATA
350
1773
  3
AcDbVariableDictionary
350
1769
  3
ASE_INDEX_DICTIONARY
350
29C
  0
DICTIONARY
  5
174A
330
F
100
AcDbDictionary
280
     1
281
     1
  3
ADSK_XREC_LAYER_RECONCILED
360
174B
  0
DICTIONARY
  5
174C
330
24
100
AcDbDictionary
280
     1
281
     1
  3
ADSK_XREC_LAYER_RECONCILED
360
174D
  0
DICTIONARY
  5
174E
330
25
100
AcDbDictionary
280
     1
281
     1
  3
ADSK_XREC_LAYER_RECONCILED
360
174F
  0
DICTIONARY
  5
1750
330
26
100
AcDbDictionary
280
     1
281
     1
  3
ADSK_XREC_LAYER_RECONCILED
360
1751
  0
DICTIONARY
  5
1752
330
27
100
AcDbDictionary
280
     1
281
     1
  3
ADSK_XREC_LAYER_RECONCILED
360
1753
  0
DICTIONARY
  5
1754
330
28
100
AcDbDictionary
280
     1
281
     1
  3
ADSK_XREC_LAYER_RECONCILED
360
1755
  0
DICTIONARY
  5
1756
330
2A
100
AcDbDictionary
280
     1
281
     1
  3
ADSK_XREC_LAYER_RECONCILED
360
1757
  0
DICTIONARY
  5
1758
330
371
100
AcDbDictionary
280
     1
281
     1
  3
ADSK_XREC_LAYER_RECONCILED
360
1759
  0
DICTIONARY
  5
175A
330
372
100
AcDbDictionary
280
     1
281
     1
  3
ADSK_XREC_LAYER_RECONCILED
360
175B
  0
DICTIONARY
  5
175C
330
373
100
AcDbDictionary
280
     1
281
     1
  3
ADSK_XREC_LAYER_RECONCILED
360
175D
  0
DICTIONARY
  5
175E
330
374
100
AcDbDictionary
280
     1
281
     1
  3
ADSK_XREC_LAYER_RECONCILED
360
175F
  0
DICTIONARY
  5
1760
330
496
100
AcDbDictionary
280
     1
281
     1
  3
ADSK_XREC_LAYER_RECONCILED
360
1761
  0
DICTIONARY
  5
1762
330
4F0
100
AcDbDictionary
280
     1
281
     1
  3
ADSK_XREC_LAYER_RECONCILED
360
1763
  0
DICTIONARY
  5
1764
330
504
100
AcDbDictionary
280
     1
281
     1
  3
ADSK_XREC_LAYER_RECONCILED
360
1765
  0
DICTIONARY
  5
AF8
330
AF7
100
AcDbDictionary
280
     1
281
     1
  3
ADSK_XREC_LAYER_RECONCILED
360
1766
  0
DICTIONARY
  5
1767
330
1197
100
AcDbDictionary
280
     1
281
     1
  3
ADSK_XREC_LAYER_RECONCILED
360
1768
  0
DICTIONARY
  5
171D
102
{ACAD_REACTORS
330
C
102
}
330
C
100
AcDbDictionary
281
     1
  0
DICTIONARY
  5
D
102
{ACAD_REACTORS
330
C
102
}
330
C
100
AcDbDictionary
281
     1
  0
DICTIONARY
  5
107
102
{ACAD_REACTORS
330
C
102
}
330
C
100
AcDbDictionary
281
     1
  3
Layout1
350
10A
  3
Model
350
109
  0
DICTIONARY
  5
16F0
102
{ACAD_REACTORS
330
C
102
}
330
C
100
AcDbDictionary
281
     1
  3
ByBlock
350
16F9
  3
ByLayer
350
16F1
  3
Global
350
1701
  0
DICTIONARY
  5
1742
102
{ACAD_REACTORS
330
C
102
}
330
C
100
AcDbDictionary
281
     1
  3
Standard
350
1743
  0
DICTIONARY
  5
E
102
{ACAD_REACTORS
330
C
102
}
330
C
100
AcDbDictionary
281
     1
  3
STANDARD
350
1B
  0
DICTIONARY
  5
108
102
{ACAD_REACTORS
330
C
102
}
330
C
100
AcDbDictionary
281
     1
  3
hp-a-fit
350
11C
  3
hp-B-1-1
350
11B
  0
ACDBDICTIONARYWDFLT
  5
105
102
{ACAD_REACTORS
330
C
102
}
330
C
100
AcDbDictionary
281
     1
  3
Normal
350
106
100
AcDbDictionaryWithDefault
340
106
  0
DICTIONARY
  5
1720
102
{ACAD_REACTORS
330
C
102
}
330
C
100
AcDbDictionary
281
     1
  3
A0
350
1721
  3
A1
350
1722
  3
A2
350
1723
  3
A3
350
1724
  3
A4
350
1725
  3
A5
350
1726
  3
A6
350
1727
  3
A7
350
1728
  3
A8
350
1729
  3
A9
350
172A
  3
B0
350
172B
  3
B1
350
172C
  3
B2
350
172D
  3
B3
350
172E
  3
B4
350
172F
  3
B5
350
1730
  3
B6
350
1731
  3
B7
350
1732
  3
B8
350
1733
  3
B9
350
1734
  3
C0
350
1735
  3
C1
350
1736
  3
C2
350
1737
  3
C3
350
1738
  3
C4
350
1739
  3
C5
350
173A
  3
C6
350
173B
  3
C7
350
173C
  3
C8
350
173D
  3
C9
350
173E
  3
D0
350
173F
  3
D1
350
1740
  3
D2
350
1741
  0
DICTIONARY
  5
171E
102
{ACAD_REACTORS
330
C
102
}
330
C
100
AcDbDictionary
281
     1
  3
Standard
350
171F
  0
DICTIONARY
  5
1709
102
{ACAD_REACTORS
330
C
102
}
330
C
100
AcDbDictionary
281
     1
  3
2dWireframe
350
170F
  3
3D Hidden
350
1711
  3
3dWireframe
350
1710
  3
Basic
350
170E
  3
Brighten
350
1715
  3
ColorChange
350
1719
  3
Conceptual
350
1712
  3
Dim
350
1714
  3
EdgeColorOff
350
171C
  3
Facepattern
350
1718
  3
Flat
350
170A
  3
FlatWithEdges
350
170B
  3
Gouraud
350
170C
  3
GouraudWithEdges
350
170D
  3
JitterOff
350
171A
  3
Linepattern
350
1717
  3
OverhangOff
350
171B
  3
Realistic
350
1713
  3
Thicken
350
1716
  0
XRECORD
  5
2A8
102
{ACAD_REACTORS
330
C
102
}
330
C
100
AcDbXrecord
280
     1
 90
   990106
  3

 60
     0
 61
     0
 62
     2
 63
     2
 64
     0
 65
     0
 66
     0
 67
     3
 68
     0
 69
     0
 70
     0
 71
     0
 72
     0
 40
0.0
170
     2
340
1240
  0
XRECORD
  5
1773
102
{ACAD_REACTORS
330
C
102
}
330
C
100
AcDbXrecord
280
     1
 90
        1
330
171F
  0
DICTIONARY
  5
1769
102
{ACAD_REACTORS
330
C
102
}
330
C
100
AcDbDictionary
281
     1
  3
CANNOSCALE
350
176D
  3
CMLEADERSTYLE
350
176B
  3
CTABLESTYLE
350
176A
  3
LAYEREVAL
350
176F
  3
LAYERNOTIFY
350
1770
  3
LIGHTINGUNITS
350
176E
  3
MSLTSCALE
350
176C
  0
DICTIONARY
  5
29C
102
{ACAD_REACTORS
330
C
102
}
330
C
100
AcDbDictionary
281
     1
  3
ASEBlockHierarchyIndexRecord
350
29E
1001
DCO15
1040
1663581020.26
  0
XRECORD
  5
174B
102
{ACAD_REACTORS
330
174A
102
}
330
174A
100
AcDbXrecord
280
     1
290
     1
  0
XRECORD
  5
174D
102
{ACAD_REACTORS
330
174C
102
}
330
174C
100
AcDbXrecord
280
     1
290
     1
  0
XRECORD
  5
174F
102
{ACAD_REACTORS
330
174E
102
}
330
174E
100
AcDbXrecord
280
     1
290
     1
  0
XRECORD
  5
1751
102
{ACAD_REACTORS
330
1750
102
}
330
1750
100
AcDbXrecord
280
     1
290
     1
  0
XRECORD
  5
1753
102
{ACAD_REACTORS
330
1752
102
}
330
1752
100
AcDbXrecord
280
     1
290
     1
  0
XRECORD
  5
1755
102
{ACAD_REACTORS
330
1754
102
}
330
1754
100
AcDbXrecord
280
     1
290
     1
  0
XRECORD
  5
1757
102
{ACAD_REACTORS
330
1756
102
}
330
1756
100
AcDbXrecord
280
     1
290
     1
  0
XRECORD
  5
1759
102
{ACAD_REACTORS
330
1758
102
}
330
1758
100
AcDbXrecord
280
     1
290
     1
  0
XRECORD
  5
175B
102
{ACAD_REACTORS
330
175A
102
}
330
175A
100
AcDbXrecord
280
     1
290
     1
  0
XRECORD
  5
175D
102
{ACAD_REACTORS
330
175C
102
}
330
175C
100
AcDbXrecord
280
     1
290
     1
  0
XRECORD
  5
175F
102
{ACAD_REACTORS
330
175E
102
}
330
175E
100
AcDbXrecord
280
     1
290
     1
  0
XRECORD
  5
1761
102
{ACAD_REACTORS
330
1760
102
}
330
1760
100
AcDbXrecord
280
     1
290
     1
  0
XRECORD
  5
1763
102
{ACAD_REACTORS
330
1762
102
}
330
1762
100
AcDbXrecord
280
     1
290
     1
  0
XRECORD
  5
1765
102
{ACAD_REACTORS
330
1764
102
}
330
1764
100
AcDbXrecord
280
     1
290
     1
  0
XRECORD
  5
1766
102
{ACAD_REACTORS
330
AF8
102
}
330
AF8
100
AcDbXrecord
280
     1
290
     1
  0
XRECORD
  5
1768
102
{ACAD_REACTORS
330
1767
102
}
330
1767
100
AcDbXrecord
280
     1
290
     1
  0
LAYOUT
  5
10A
102
{ACAD_REACTORS
330
107
102
}
330
107
100
AcDbPlotSettings
  1

  2
C:\PROGRAM FILES\ACAD2000\plotters\HP-5000PLT.pc3
  4

  6

 40
0.0
 41
0.0
 42
0.0
 43
0.0
 44
0.0
 45
0.0
 46
0.0
 47
0.0
 48
0.0
 49
0.0
140
0.0
141
0.0
142
1.0
143
1.0
 70
   688
 72
     0
 73
     0
 74
     5
  7
tps-s1_BLACK.ctb
 75
    16
147
1.0
 76
     0
 77
     2
 78
   300
148
0.0
149
0.0
100
AcDbLayout
  1
Layout1
 70
     0
 71
     1
 10
0.0
 20
0.0
 11
12.0
 21
9.0
 12
0.0
 22
0.0
 32
0.0
 14
1.000000000000000E+20
 24
1.000000000000000E+20
 34
1.000000000000000E+20
 15
-1.000000000000000E+20
 25
-1.000000000000000E+20
 35
-1.000000000000000E+20
146
0.0
 13
0.0
 23
0.0
 33
0.0
 16
1.0
 26
0.0
 36
0.0
 17
0.0
 27
1.0
 37
0.0
 76
     0
330
15
  0
LAYOUT
  5
109
102
{ACAD_REACTORS
330
107
102
}
330
107
100
AcDbPlotSettings
  1

  2
EPSON Stylus Photo 1400 Series
  4
User262
  6
BORDER
 40
3.757083177566528
 41
3.757076978683471
 42
3.757080078125
 43
3.757080078125
 44
279.3999938964844
 45
431.7999877929687
 46
12.192
 47
15.24
 48
0.0
 49
0.0
140
0.0
141
0.0
142
1.0
143
0.5
 70
 11940
 72
     0
 73
     1
 74
     3
  7
tps-s1_BLACK.ctb
 75
     0
147
2.0
 76
     0
 77
     2
 78
   300
148
-5463.97467542001
149
106.5340460636664
100
AcDbLayout
  1
Model
 70
     1
 71
     0
 10
0.0
 20
0.0
 11
12.0
 21
9.0
 12
0.0
 22
0.0
 32
0.0
 14
0.0
 24
0.0
 34
0.0
 15
0.0
 25
0.0
 35
0.0
146
0.0
 13
0.0
 23
0.0
 33
0.0
 16
1.0
 26
0.0
 36
0.0
 17
0.0
 27
1.0
 37
0.0
 76
     0
330
18
331
16EE
  0
MATERIAL
  5
16F9
102
{ACAD_XDICTIONARY
360
16FA
102
}
102
{ACAD_REACTORS
330
16F0
102
}
330
16F0
100
AcDbMaterial
  1
ByBlock
 72
     0
 43
0.0208333333333333
 43
0.0
 43
0.0
 43
0.0
 43
0.0
 43
0.0208333333333333
 43
0.0
 43
0.0
 43
0.0
 43
0.0
 43
1.0
 43
0.0
 43
0.0
 43
0.0
 43
0.0
 43
1.0
 77
     0
 47
0.0208333333333333
 47
0.0
 47
0.0
 47
0.0
 47
0.0
 47
0.0208333333333333
 47
0.0
 47
0.0
 47
0.0
 47
0.0
 47
1.0
 47
0.0
 47
0.0
 47
0.0
 47
0.0
 47
1.0
171
     0
 49
0.0208333333333333
 49
0.0
 49
0.0
 49
0.0
 49
0.0
 49
0.0208333333333333
 49
0.0
 49
0.0
 49
0.0
 49
0.0
 49
1.0
 49
0.0
 49
0.0
 49
0.0
 49
0.0
 49
1.0
175
     0
142
0.0208333333333333
142
0.0
142
0.0
142
0.0
142
0.0
142
0.0208333333333333
142
0.0
142
0.0
142
0.0
142
0.0
142
1.0
142
0.0
142
0.0
142
0.0
142
0.0
142
1.0
179
     0
144
0.0208333333333333
144
0.0
144
0.0
144
0.0
144
0.0
144
0.0208333333333333
144
0.0
144
0.0
144
0.0
144
0.0
144
1.0
144
0.0
144
0.0
144
0.0
144
0.0
144
1.0
147
0.0208333333333333
147
0.0
147
0.0
147
0.0
147
0.0
147
0.0208333333333333
147
0.0
147
0.0
147
0.0
147
0.0
147
1.0
147
0.0
147
0.0
147
0.0
147
0.0
147
1.0
  0
MATERIAL
  5
16F1
102
{ACAD_XDICTIONARY
360
16F2
102
}
102
{ACAD_REACTORS
330
16F0
102
}
330
16F0
100
AcDbMaterial
  1
ByLayer
 72
     0
 43
0.0208333333333333
 43
0.0
 43
0.0
 43
0.0
 43
0.0
 43
0.0208333333333333
 43
0.0
 43
0.0
 43
0.0
 43
0.0
 43
1.0
 43
0.0
 43
0.0
 43
0.0
 43
0.0
 43
1.0
 77
     0
 47
0.0208333333333333
 47
0.0
 47
0.0
 47
0.0
 47
0.0
 47
0.0208333333333333
 47
0.0
 47
0.0
 47
0.0
 47
0.0
 47
1.0
 47
0.0
 47
0.0
 47
0.0
 47
0.0
 47
1.0
171
     0
 49
0.0208333333333333
 49
0.0
 49
0.0
 49
0.0
 49
0.0
 49
0.0208333333333333
 49
0.0
 49
0.0
 49
0.0
 49
0.0
 49
1.0
 49
0.0
 49
0.0
 49
0.0
 49
0.0
 49
1.0
175
     0
142
0.0208333333333333
142
0.0
142
0.0
142
0.0
142
0.0
142
0.0208333333333333
142
0.0
142
0.0
142
0.0
142
0.0
142
1.0
142
0.0
142
0.0
142
0.0
142
0.0
142
1.0
179
     0
144
0.0208333333333333
144
0.0
144
0.0
144
0.0
144
0.0
144
0.0208333333333333
144
0.0
144
0.0
144
0.0
144
0.0
144
1.0
144
0.0
144
0.0
144
0.0
144
0.0
144
1.0
147
0.0208333333333333
147
0.0
147
0.0
147
0.0
147
0.0
147
0.0208333333333333
147
0.0
147
0.0
147
0.0
147
0.0
147
1.0
147
0.0
147
0.0
147
0.0
147
0.0
147
1.0
  0
MATERIAL
  5
1701
102
{ACAD_XDICTIONARY
360
1702
102
}
102
{ACAD_REACTORS
330
16F0
102
}
330
16F0
100
AcDbMaterial
  1
Global
 72
     0
 43
0.0208333333333333
 43
0.0
 43
0.0
 43
0.0
 43
0.0
 43
0.0208333333333333
 43
0.0
 43
0.0
 43
0.0
 43
0.0
 43
1.0
 43
0.0
 43
0.0
 43
0.0
 43
0.0
 43
1.0
 77
     0
 47
0.0208333333333333
 47
0.0
 47
0.0
 47
0.0
 47
0.0
 47
0.0208333333333333
 47
0.0
 47
0.0
 47
0.0
 47
0.0
 47
1.0
 47
0.0
 47
0.0
 47
0.0
 47
0.0
 47
1.0
171
     0
 49
0.0208333333333333
 49
0.0
 49
0.0
 49
0.0
 49
0.0
 49
0.0208333333333333
 49
0.0
 49
0.0
 49
0.0
 49
0.0
 49
1.0
 49
0.0
 49
0.0
 49
0.0
 49
0.0
 49
1.0
175
     0
142
0.0208333333333333
142
0.0
142
0.0
142
0.0
142
0.0
142
0.0208333333333333
142
0.0
142
0.0
142
0.0
142
0.0
142
1.0
142
0.0
142
0.0
142
0.0
142
0.0
142
1.0
179
     0
144
0.0208333333333333
144
0.0
144
0.0
144
0.0
144
0.0
144
0.0208333333333333
144
0.0
144
0.0
144
0.0
144
0.0
144
1.0
144
0.0
144
0.0
144
0.0
144
0.0
144
1.0
147
0.0208333333333333
147
0.0
147
0.0
147
0.0
147
0.0
147
0.0208333333333333
147
0.0
147
0.0
147
0.0
147
0.0
147
1.0
147
0.0
147
0.0
147
0.0
147
0.0
147
1.0
  0
MLEADERSTYLE
  5
1743
102
{ACAD_REACTORS
330
1742
102
}
330
1742
100
AcDbMLeaderStyle
179
     2
170
     2
171
     1
172
     0
 90
        2
 40
0.0
 41
0.0
173
     1
 91
-1056964608
340
12
 92
       -2
290
     1
 42
0.09
291
     1
 43
0.36
  3
Standard
 44
0.18
300

342
10
174
     1
178
     6
175
     1
176
     0
 93
-1056964608
 45
0.18
292
     0
297
     0
 46
0.18
 94
-1056964608
 47
1.0
 49
1.0
140
1.0
293
     1
141
0.0
294
     1
177
     0
142
1.0
295
     1
296
     0
143
0.125
271
     0
272
     9
273
     9
  0
MLINESTYLE
  5
1B
102
{ACAD_REACTORS
330
E
102
}
330
E
100
AcDbMlineStyle
  2
STANDARD
 70
     0
  3

 62
     0
 51
90.0
 52
90.0
 71
     2
 49
0.5
 62
   256
  6
BYLAYER
 49
-0.5
 62
   256
  6
BYLAYER
  0
PLOTSETTINGS
  5
11C
102
{ACAD_REACTORS
330
108
102
}
330
108
100
AcDbPlotSettings
  1
hp-a-fit
  2
HP-5000PLT.pc3
  4
ANSI_A_(8.50_x_11.00_Inches)
  6
BORDER
 40
5.027082920074462
 41
5.027082920074462
 42
9.345077514648437
 43
5.11175537109375
 44
215.8999938964844
 45
279.3999938964844
 46
0.0
 47
0.0
 48
0.0
 49
0.0
140
0.0
141
0.0
142
1.0
143
1.509315367403764
 70
  1712
 72
     0
 73
     1
 74
     3
  7
tps-s1.ctb
 75
     0
147
0.6625520561154433
 76
     0
 77
     2
 78
   300
148
-12.7
149
-19.05
  0
PLOTSETTINGS
  5
11B
102
{ACAD_REACTORS
330
108
102
}
330
108
100
AcDbPlotSettings
  1
hp-B-1-1
  2
HP-5000PLT.pc3
  4
ANSI_B_(11.00_x_17.00_Inches)
  6
BORDER
 40
5.027082920074462
 41
5.027082920074462
 42
9.26043701171875
 43
5.027069091796875
 44
279.3999938964844
 45
431.7999877929687
 46
0.0
 47
0.0
 48
0.0
 49
0.0
140
0.0
141
0.0
142
1.0
143
1.0
 70
  1712
 72
     0
 73
     1
 74
     3
  7
tps-s1.ctb
 75
    16
147
1.0
 76
     0
 77
     2
 78
   300
148
-12.7
149
-19.05
  0
ACDBPLACEHOLDER
  5
106
102
{ACAD_REACTORS
330
105
102
}
330
105
  0
SCALE
  5
1721
102
{ACAD_REACTORS
330
1720
102
}
330
1720
100
AcDbScale
 70
     0
300
1:1
140
1.0
141
1.0
290
     1
  0
SCALE
  5
1722
102
{ACAD_REACTORS
330
1720
102
}
330
1720
100
AcDbScale
 70
     0
300
1:2
140
1.0
141
2.0
290
     0
  0
SCALE
  5
1723
102
{ACAD_REACTORS
330
1720
102
}
330
1720
100
AcDbScale
 70
     0
300
1:4
140
1.0
141
4.0
290
     0
  0
SCALE
  5
1724
102
{ACAD_REACTORS
330
1720
102
}
330
1720
100
AcDbScale
 70
     0
300
1:5
140
1.0
141
5.0
290
     0
  0
SCALE
  5
1725
102
{ACAD_REACTORS
330
1720
102
}
330
1720
100
AcDbScale
 70
     0
300
1:8
140
1.0
141
8.0
290
     0
  0
SCALE
  5
1726
102
{ACAD_REACTORS
330
1720
102
}
330
1720
100
AcDbScale
 70
     0
300
1:10
140
1.0
141
10.0
290
     0
  0
SCALE
  5
1727
102
{ACAD_REACTORS
330
1720
102
}
330
1720
100
AcDbScale
 70
     0
300
1:16
140
1.0
141
16.0
290
     0
  0
SCALE
  5
1728
102
{ACAD_REACTORS
330
1720
102
}
330
1720
100
AcDbScale
 70
     0
300
1:20
140
1.0
141
20.0
290
     0
  0
SCALE
  5
1729
102
{ACAD_REACTORS
330
1720
102
}
330
1720
100
AcDbScale
 70
     0
300
1:30
140
1.0
141
30.0
290
     0
  0
SCALE
  5
172A
102
{ACAD_REACTORS
330
1720
102
}
330
1720
100
AcDbScale
 70
     0
300
1:40
140
1.0
141
40.0
290
     0
  0
SCALE
  5
172B
102
{ACAD_REACTORS
330
1720
102
}
330
1720
100
AcDbScale
 70
     0
300
1:50
140
1.0
141
50.0
290
     0
  0
SCALE
  5
172C
102
{ACAD_REACTORS
330
1720
102
}
330
1720
100
AcDbScale
 70
     0
300
1:100
140
1.0
141
100.0
290
     0
  0
SCALE
  5
172D
102
{ACAD_REACTORS
330
1720
102
}
330
1720
100
AcDbScale
 70
     0
300
2:1
140
2.0
141
1.0
290
     0
  0
SCALE
  5
172E
102
{ACAD_REACTORS
330
1720
102
}
330
1720
100
AcDbScale
 70
     0
300
4:1
140
4.0
141
1.0
290
     0
  0
SCALE
  5
172F
102
{ACAD_REACTORS
330
1720
102
}
330
1720
100
AcDbScale
 70
     0
300
8:1
140
8.0
141
1.0
290
     0
  0
SCALE
  5
1730
102
{ACAD_REACTORS
330
1720
102
}
330
1720
100
AcDbScale
 70
     0
300
10:1
140
10.0
141
1.0
290
     0
  0
SCALE
  5
1731
102
{ACAD_REACTORS
330
1720
102
}
330
1720
100
AcDbScale
 70
     0
300
100:1
140
100.0
141
1.0
290
     0
  0
SCALE
  5
1732
102
{ACAD_REACTORS
330
1720
102
}
330
1720
100
AcDbScale
 70
     0
300
1/128" = 1'-0"
140
0.0078125
141
12.0
290
     0
  0
SCALE
  5
1733
102
{ACAD_REACTORS
330
1720
102
}
330
1720
100
AcDbScale
 70
     0
300
1/64" = 1'-0"
140
0.015625
141
12.0
290
     0
  0
SCALE
  5
1734
102
{ACAD_REACTORS
330
1720
102
}
330
1720
100
AcDbScale
 70
     0
300
1/32" = 1'-0"
140
0.03125
141
12.0
290
     0
  0
SCALE
  5
1735
102
{ACAD_REACTORS
330
1720
102
}
330
1720
100
AcDbScale
 70
     0
300
1/16" = 1'-0"
140
0.0625
141
12.0
290
     0
  0
SCALE
  5
1736
102
{ACAD_REACTORS
330
1720
102
}
330
1720
100
AcDbScale
 70
     0
300
3/32" = 1'-0"
140
0.09375
141
12.0
290
     0
  0
SCALE
  5
1737
102
{ACAD_REACTORS
330
1720
102
}
330
1720
100
AcDbScale
 70
     0
300
1/8" = 1'-0"
140
0.125
141
12.0
290
     0
  0
SCALE
  5
1738
102
{ACAD_REACTORS
330
1720
102
}
330
1720
100
AcDbScale
 70
     0
300
3/16" = 1'-0"
140
0.1875
141
12.0
290
     0
  0
SCALE
  5
1739
102
{ACAD_REACTORS
330
1720
102
}
330
1720
100
AcDbScale
 70
     0
300
1/4" = 1'-0"
140
0.25
141
12.0
290
     0
  0
SCALE
  5
173A
102
{ACAD_REACTORS
330
1720
102
}
330
1720
100
AcDbScale
 70
     0
300
3/8" = 1'-0"
140
0.375
141
12.0
290
     0
  0
SCALE
  5
173B
102
{ACAD_REACTORS
330
1720
102
}
330
1720
100
AcDbScale
 70
     0
300
1/2" = 1'-0"
140
0.5
141
12.0
290
     0
  0
SCALE
  5
173C
102
{ACAD_REACTORS
330
1720
102
}
330
1720
100
AcDbScale
 70
     0
300
3/4" = 1'-0"
140
0.75
141
12.0
290
     0
  0
SCALE
  5
173D
102
{ACAD_REACTORS
330
1720
102
}
330
1720
100
AcDbScale
 70
     0
300
1" = 1'-0"
140
1.0
141
12.0
290
     0
  0
SCALE
  5
173E
102
{ACAD_REACTORS
330
1720
102
}
330
1720
100
AcDbScale
 70
     0
300
1-1/2" = 1'-0"
140
1.5
141
12.0
290
     0
  0
SCALE
  5
173F
102
{ACAD_REACTORS
330
1720
102
}
330
1720
100
AcDbScale
 70
     0
300
3" = 1'-0"
140
3.0
141
12.0
290
     0
  0
SCALE
  5
1740
102
{ACAD_REACTORS
330
1720
102
}
330
1720
100
AcDbScale
 70
     0
300
6" = 1'-0"
140
6.0
141
12.0
290
     0
  0
SCALE
  5
1741
102
{ACAD_REACTORS
330
1720
102
}
330
1720
100
AcDbScale
 70
     0
300
1'-0" = 1'-0"
140
12.0
141
12.0
290
     0
  0
TABLESTYLE
  5
171F
102
{ACAD_XDICTIONARY
360
1771
102
}
102
{ACAD_REACTORS
330
171E
102
}
330
171E
100
AcDbTableStyle
280
     0
  3
Standard
 70
     0
 71
     0
 40
0.06
 41
0.06
280
     0
281
     0
  7
STANDARD
140
0.18
170
     2
 62
     0
 63
     7
283
     0
 90
      512
 91
        0
  1

274
    -2
284
     1
 64
     0
275
    -2
285
     1
 65
     0
276
    -2
286
     1
 66
     0
277
    -2
287
     1
 67
     0
278
    -2
288
     1
 68
     0
279
    -2
289
     1
 69
     0
  7
STANDARD
140
0.25
170
     5
 62
     0
 63
     7
283
     0
 90
      512
 91
        0
  1

274
    -2
284
     1
 64
     0
275
    -2
285
     1
 65
     0
276
    -2
286
     1
 66
     0
277
    -2
287
     1
 67
     0
278
    -2
288
     1
 68
     0
279
    -2
289
     1
 69
     0
  7
STANDARD
140
0.18
170
     5
 62
     0
 63
     7
283
     0
 90
      512
 91
        0
  1

274
    -2
284
     1
 64
     0
275
    -2
285
     1
 65
     0
276
    -2
286
     1
 66
     0
277
    -2
287
     1
 67
     0
278
    -2
288
     1
 68
     0
279
    -2
289
     1
 69
     0
  0
VISUALSTYLE
  5
170F
102
{ACAD_REACTORS
330
1709
102
}
330
1709
100
AcDbVisualStyle
  2
2dWireframe
 70
     4
177
     2
291
     0
 71
     0
176
     1
 72
     2
176
     1
 73
     0
176
     1
 90
        0
176
     1
 40
0.6
176
     1
 41
30.0
176
     1
 63
     7
421
 16777215
176
     1
 74
     1
176
     1
 91
        4
176
     1
 64
     7
176
     1
 65
   257
176
     1
 75
     1
176
     1
175
     1
176
     1
 42
1.0
176
     1
 92
        0
176
     1
 66
   257
176
     1
 43
1.0
176
     1
 76
     1
176
     1
 77
     6
176
     1
 78
     2
176
     1
 67
     7
176
     1
 79
     5
176
     1
170
     0
176
     1
171
     0
176
     1
290
     0
176
     1
 93
        1
176
     1
 44
0.0
176
     1
173
     0
176
     1
  0
VISUALSTYLE
  5
1711
102
{ACAD_REACTORS
330
1709
102
}
330
1709
100
AcDbVisualStyle
  2
3D Hidden
 70
     6
177
     2
291
     0
 71
     1
176
     1
 72
     2
176
     1
 73
     2
176
     1
 90
        0
176
     1
 40
0.6
176
     1
 41
30.0
176
     1
 63
     7
421
 16777215
176
     1
 74
     2
176
     1
 91
        2
176
     1
 64
     7
176
     1
 65
   257
176
     1
 75
     2
176
     1
175
     1
176
     1
 42
179.0
176
     1
 92
        0
176
     1
 66
   257
176
     1
 43
1.0
176
     1
 76
     1
176
     1
 77
     6
176
     1
 78
     2
176
     1
 67
     7
176
     1
 79
     3
176
     1
170
     0
176
     1
171
     0
176
     1
290
     0
176
     1
 93
        1
176
     1
 44
0.0
176
     1
173
     0
176
     1
  0
VISUALSTYLE
  5
1710
102
{ACAD_REACTORS
330
1709
102
}
330
1709
100
AcDbVisualStyle
  2
3dWireframe
 70
     5
177
     2
291
     0
 71
     0
176
     1
 72
     2
176
     1
 73
     0
176
     1
 90
        0
176
     1
 40
0.6
176
     1
 41
30.0
176
     1
 63
     7
421
 16777215
176
     1
 74
     1
176
     1
 91
        4
176
     1
 64
     7
176
     1
 65
   257
176
     1
 75
     1
176
     1
175
     1
176
     1
 42
1.0
176
     1
 92
        0
176
     1
 66
   257
176
     1
 43
1.0
176
     1
 76
     1
176
     1
 77
     6
176
     1
 78
     2
176
     1
 67
     7
176
     1
 79
     5
176
     1
170
     0
176
     1
171
     0
176
     1
290
     0
176
     1
 93
        1
176
     1
 44
0.0
176
     1
173
     0
176
     1
  0
VISUALSTYLE
  5
170E
102
{ACAD_REACTORS
330
1709
102
}
330
1709
100
AcDbVisualStyle
  2
Basic
 70
     7
177
     2
291
     1
 71
     1
176
     1
 72
     0
176
     1
 73
     1
176
     1
 90
        0
176
     1
 40
0.6
176
     1
 41
30.0
176
     1
 63
     7
421
 16777215
176
     1
 74
     0
176
     1
 91
        4
176
     1
 64
     7
176
     1
 65
   257
176
     1
 75
     1
176
     1
175
     1
176
     1
 42
1.0
176
     1
 92
        8
176
     1
 66
     7
176
     1
 43
1.0
176
     1
 76
     1
176
     1
 77
     6
176
     1
 78
     2
176
     1
 67
     7
176
     1
 79
     5
176
     1
170
     0
176
     1
171
     0
176
     1
290
     0
176
     1
 93
        1
176
     1
 44
0.0
176
     1
173
     0
176
     1
  0
VISUALSTYLE
  5
1715
102
{ACAD_REACTORS
330
1709
102
}
330
1709
100
AcDbVisualStyle
  2
Brighten
 70
    12
177
     2
291
     1
 71
     2
176
     1
 72
     2
176
     1
 73
     0
176
     1
 90
        0
176
     1
 40
0.6
176
     1
 41
30.0
176
     1
 63
     7
421
 16777215
176
     1
 74
     1
176
     1
 91
        4
176
     1
 64
     7
176
     1
 65
   257
176
     1
 75
     1
176
     1
175
     1
176
     1
 42
1.0
176
     1
 92
        8
176
     1
 66
     7
176
     1
 43
1.0
176
     1
 76
     1
176
     1
 77
     6
176
     1
 78
     2
176
     1
 67
     7
176
     1
 79
     5
176
     1
170
     0
176
     1
171
     0
176
     1
290
     0
176
     1
 93
        1
176
     1
 44
50.0
176
     1
173
     0
176
     1
  0
VISUALSTYLE
  5
1719
102
{ACAD_REACTORS
330
1709
102
}
330
1709
100
AcDbVisualStyle
  2
ColorChange
 70
    16
177
     2
291
     1
 71
     2
176
     1
 72
     2
176
     1
 73
     3
176
     1
 90
        0
176
     1
 40
0.6
176
     1
 41
30.0
176
     1
 63
     8
421
  8421504
176
     1
 74
     1
176
     1
 91
        4
176
     1
 64
     7
176
     1
 65
   257
176
     1
 75
     1
176
     1
175
     1
176
     1
 42
1.0
176
     1
 92
        8
176
     1
 66
     8
424
  8421504
176
     1
 43
1.0
176
     1
 76
     1
176
     1
 77
     6
176
     1
 78
     2
176
     1
 67
     7
176
     1
 79
     5
176
     1
170
     0
176
     1
171
     0
176
     1
290
     0
176
     1
 93
        1
176
     1
 44
0.0
176
     1
173
     0
176
     1
  0
VISUALSTYLE
  5
1712
102
{ACAD_REACTORS
330
1709
102
}
330
1709
100
AcDbVisualStyle
  2
Conceptual
 70
     9
177
     2
291
     0
 71
     3
176
     1
 72
     2
176
     1
 73
     0
176
     1
 90
        0
176
     1
 40
0.6
176
     1
 41
30.0
176
     1
 63
     7
421
 16777215
176
     1
 74
     2
176
     1
 91
        2
176
     1
 64
     7
176
     1
 65
   257
176
     1
 75
     1
176
     1
175
     1
176
     1
 42
179.0
176
     1
 92
        8
176
     1
 66
     7
176
     1
 43
1.0
176
     1
 76
     1
176
     1
 77
     6
176
     1
 78
     2
176
     1
 67
     7
176
     1
 79
     3
176
     1
170
     0
176
     1
171
     0
176
     1
290
     0
176
     1
 93
        1
176
     1
 44
0.0
176
     1
173
     0
176
     1
  0
VISUALSTYLE
  5
1714
102
{ACAD_REACTORS
330
1709
102
}
330
1709
100
AcDbVisualStyle
  2
Dim
 70
    11
177
     2
291
     1
 71
     2
176
     1
 72
     2
176
     1
 73
     0
176
     1
 90
        0
176
     1
 40
0.6
176
     1
 41
30.0
176
     1
 63
     7
421
 16777215
176
     1
 74
     1
176
     1
 91
        4
176
     1
 64
     7
176
     1
 65
   257
176
     1
 75
     1
176
     1
175
     1
176
     1
 42
1.0
176
     1
 92
        8
176
     1
 66
     7
176
     1
 43
1.0
176
     1
 76
     1
176
     1
 77
     6
176
     1
 78
     2
176
     1
 67
     7
176
     1
 79
     5
176
     1
170
     0
176
     1
171
     0
176
     1
290
     0
176
     1
 93
        1
176
     1
 44
-50.0
176
     1
173
     0
176
     1
  0
VISUALSTYLE
  5
171C
102
{ACAD_REACTORS
330
1709
102
}
330
1709
100
AcDbVisualStyle
  2
EdgeColorOff
 70
    22
177
     2
291
     1
 71
     2
176
     0
 72
     2
176
     0
 73
     0
176
     0
 90
        0
176
     0
 40
0.6
176
     0
 41
30.0
176
     0
 63
     7
421
 16777215
176
     0
 74
     1
176
     0
 91
        4
176
     0
 64
     7
176
     0
 65
   257
176
     0
 75
     1
176
     0
175
     1
176
     0
 42
1.0
176
     0
 92
        8
176
     2
 66
     7
176
     0
 43
1.0
176
     0
 76
     1
176
     0
 77
     6
176
     0
 78
     2
176
     0
 67
     7
176
     0
 79
     5
176
     0
170
     0
176
     0
171
     0
176
     0
290
     0
176
     0
 93
        1
176
     0
 44
0.0
176
     0
173
     0
176
     0
  0
VISUALSTYLE
  5
1718
102
{ACAD_REACTORS
330
1709
102
}
330
1709
100
AcDbVisualStyle
  2
Facepattern
 70
    15
177
     2
291
     1
 71
     2
176
     1
 72
     2
176
     1
 73
     0
176
     1
 90
        0
176
     1
 40
0.6
176
     1
 41
30.0
176
     1
 63
     7
421
 16777215
176
     1
 74
     1
176
     1
 91
        4
176
     1
 64
     7
176
     1
 65
   257
176
     1
 75
     1
176
     1
175
     1
176
     1
 42
1.0
176
     1
 92
        8
176
     1
 66
     7
176
     1
 43
1.0
176
     1
 76
     1
176
     1
 77
     6
176
     1
 78
     2
176
     1
 67
     7
176
     1
 79
     5
176
     1
170
     0
176
     1
171
     0
176
     1
290
     0
176
     1
 93
        1
176
     1
 44
0.0
176
     1
173
     0
176
     1
  0
VISUALSTYLE
  5
170A
102
{ACAD_REACTORS
330
1709
102
}
330
1709
100
AcDbVisualStyle
  2
Flat
 70
     0
177
     2
291
     1
 71
     2
176
     1
 72
     1
176
     1
 73
     1
176
     1
 90
        2
176
     1
 40
0.6
176
     1
 41
30.0
176
     1
 63
     7
421
 16777215
176
     1
 74
     0
176
     1
 91
        4
176
     1
 64
     7
176
     1
 65
   257
176
     1
 75
     1
176
     1
175
     1
176
     1
 42
1.0
176
     1
 92
        8
176
     1
 66
     7
176
     1
 43
1.0
176
     1
 76
     1
176
     1
 77
     6
176
     1
 78
     2
176
     1
 67
     7
176
     1
 79
     5
176
     1
170
     0
176
     1
171
     0
176
     1
290
     0
176
     1
 93
       13
176
     1
 44
0.0
176
     1
173
     0
176
     1
  0
VISUALSTYLE
  5
170B
102
{ACAD_REACTORS
330
1709
102
}
330
1709
100
AcDbVisualStyle
  2
FlatWithEdges
 70
     1
177
     2
291
     1
 71
     2
176
     1
 72
     1
176
     1
 73
     1
176
     1
 90
        2
176
     1
 40
0.6
176
     1
 41
30.0
176
     1
 63
     7
421
 16777215
176
     1
 74
     1
176
     1
 91
        4
176
     1
 64
     7
176
     1
 65
   257
176
     1
 75
     1
176
     1
175
     1
176
     1
 42
1.0
176
     1
 92
        0
176
     1
 66
   257
176
     1
 43
1.0
176
     1
 76
     1
176
     1
 77
     6
176
     1
 78
     2
176
     1
 67
     7
176
     1
 79
     5
176
     1
170
     0
176
     1
171
     0
176
     1
290
     0
176
     1
 93
       13
176
     1
 44
0.0
176
     1
173
     0
176
     1
  0
VISUALSTYLE
  5
170C
102
{ACAD_REACTORS
330
1709
102
}
330
1709
100
AcDbVisualStyle
  2
Gouraud
 70
     2
177
     2
291
     1
 71
     2
176
     1
 72
     2
176
     1
 73
     1
176
     1
 90
        2
176
     1
 40
0.6
176
     1
 41
30.0
176
     1
 63
     7
421
 16777215
176
     1
 74
     0
176
     1
 91
        4
176
     1
 64
     7
176
     1
 65
   257
176
     1
 75
     1
176
     1
175
     1
176
     1
 42
1.0
176
     1
 92
        0
176
     1
 66
     7
176
     1
 43
1.0
176
     1
 76
     1
176
     1
 77
     6
176
     1
 78
     2
176
     1
 67
     7
176
     1
 79
     5
176
     1
170
     0
176
     1
171
     0
176
     1
290
     0
176
     1
 93
       13
176
     1
 44
0.0
176
     1
173
     0
176
     1
  0
VISUALSTYLE
  5
170D
102
{ACAD_REACTORS
330
1709
102
}
330
1709
100
AcDbVisualStyle
  2
GouraudWithEdges
 70
     3
177
     2
291
     1
 71
     2
176
     1
 72
     2
176
     1
 73
     1
176
     1
 90
        2
176
     1
 40
0.6
176
     1
 41
30.0
176
     1
 63
     7
421
 16777215
176
     1
 74
     1
176
     1
 91
        4
176
     1
 64
     7
176
     1
 65
   257
176
     1
 75
     1
176
     1
175
     1
176
     1
 42
1.0
176
     1
 92
        0
176
     1
 66
   257
176
     1
 43
1.0
176
     1
 76
     1
176
     1
 77
     6
176
     1
 78
     2
176
     1
 67
     7
176
     1
 79
     5
176
     1
170
     0
176
     1
171
     0
176
     1
290
     0
176
     1
 93
       13
176
     1
 44
0.0
176
     1
173
     0
176
     1
  0
VISUALSTYLE
  5
171A
102
{ACAD_REACTORS
330
1709
102
}
330
1709
100
AcDbVisualStyle
  2
JitterOff
 70
    20
177
     2
291
     1
 71
     2
176
     0
 72
     2
176
     0
 73
     0
176
     0
 90
        0
176
     0
 40
0.6
176
     0
 41
30.0
176
     0
 63
     7
421
 16777215
176
     0
 74
     1
176
     0
 91
        4
176
     0
 64
     7
176
     0
 65
   257
176
     0
 75
     1
176
     0
175
     1
176
     0
 42
1.0
176
     0
 92
       10
176
     2
 66
     7
176
     0
 43
1.0
176
     0
 76
     1
176
     0
 77
     6
176
     0
 78
     2
176
     0
 67
     7
176
     0
 79
     5
176
     0
170
     0
176
     0
171
     0
176
     0
290
     0
176
     0
 93
        1
176
     0
 44
0.0
176
     0
173
     0
176
     0
  0
VISUALSTYLE
  5
1717
102
{ACAD_REACTORS
330
1709
102
}
330
1709
100
AcDbVisualStyle
  2
Linepattern
 70
    14
177
     2
291
     1
 71
     2
176
     1
 72
     2
176
     1
 73
     0
176
     1
 90
        0
176
     1
 40
0.6
176
     1
 41
30.0
176
     1
 63
     7
421
 16777215
176
     1
 74
     1
176
     1
 91
        4
176
     1
 64
     7
176
     1
 65
   257
176
     1
 75
     7
176
     1
175
     7
176
     1
 42
1.0
176
     1
 92
        8
176
     1
 66
     7
176
     1
 43
1.0
176
     1
 76
     1
176
     1
 77
     6
176
     1
 78
     2
176
     1
 67
     7
176
     1
 79
     5
176
     1
170
     0
176
     1
171
     0
176
     1
290
     0
176
     1
 93
        1
176
     1
 44
0.0
176
     1
173
     0
176
     1
  0
VISUALSTYLE
  5
171B
102
{ACAD_REACTORS
330
1709
102
}
330
1709
100
AcDbVisualStyle
  2
OverhangOff
 70
    21
177
     2
291
     1
 71
     2
176
     0
 72
     2
176
     0
 73
     0
176
     0
 90
        0
176
     0
 40
0.6
176
     0
 41
30.0
176
     0
 63
     7
421
 16777215
176
     0
 74
     1
176
     0
 91
        4
176
     0
 64
     7
176
     0
 65
   257
176
     0
 75
     1
176
     0
175
     1
176
     0
 42
1.0
176
     0
 92
        9
176
     2
 66
     7
176
     0
 43
1.0
176
     0
 76
     1
176
     0
 77
     6
176
     0
 78
     2
176
     0
 67
     7
176
     0
 79
     5
176
     0
170
     0
176
     0
171
     0
176
     0
290
     0
176
     0
 93
        1
176
     0
 44
0.0
176
     0
173
     0
176
     0
  0
VISUALSTYLE
  5
1713
102
{ACAD_REACTORS
330
1709
102
}
330
1709
100
AcDbVisualStyle
  2
Realistic
 70
     8
177
     2
291
     0
 71
     2
176
     1
 72
     2
176
     1
 73
     0
176
     1
 90
        0
176
     1
 40
0.6
176
     1
 41
30.0
176
     1
 63
     7
421
 16777215
176
     1
 74
     1
176
     1
 91
        0
176
     1
 64
     7
176
     1
 65
   257
176
     1
 75
     1
176
     1
175
     1
176
     1
 42
1.0
176
     1
 92
        8
176
     1
 66
     8
424
  7895160
176
     1
 43
1.0
176
     1
 76
     1
176
     1
 77
     6
176
     1
 78
     2
176
     1
 67
     7
176
     1
 79
     5
176
     1
170
     0
176
     1
171
     0
176
     1
290
     0
176
     1
 93
       13
176
     1
 44
0.0
176
     1
173
     0
176
     1
  0
VISUALSTYLE
  5
1716
102
{ACAD_REACTORS
330
1709
102
}
330
1709
100
AcDbVisualStyle
  2
Thicken
 70
    13
177
     2
291
     1
 71
     2
176
     1
 72
     2
176
     1
 73
     0
176
     1
 90
        0
176
     1
 40
0.6
176
     1
 41
30.0
176
     1
 63
     7
421
 16777215
176
     1
 74
     1
176
     1
 91
        4
176
     1
 64
     7
176
     1
 65
   257
176
     1
 75
     1
176
     1
175
     1
176
     1
 42
1.0
176
     1
 92
       12
176
     1
 66
     7
176
     1
 43
1.0
176
     1
 76
     1
176
     1
 77
     6
176
     1
 78
     2
176
     1
 67
     7
176
     1
 79
     5
176
     1
170
     0
176
     1
171
     0
176
     1
290
     0
176
     1
 93
        1
176
     1
 44
0.0
176
     1
173
     0
176
     1
  0
DICTIONARYVAR
  5
176D
102
{ACAD_REACTORS
330
1769
102
}
330
1769
100
DictionaryVariables
280
     0
  1
1:1
  0
DICTIONARYVAR
  5
176B
102
{ACAD_REACTORS
330
1769
102
}
330
1769
100
DictionaryVariables
280
     0
  1
STANDARD
  0
DICTIONARYVAR
  5
176A
102
{ACAD_REACTORS
330
1769
102
}
330
1769
100
DictionaryVariables
280
     0
  1
STANDARD
  0
DICTIONARYVAR
  5
176F
102
{ACAD_REACTORS
330
1769
102
}
330
1769
100
DictionaryVariables
280
     0
  1
1
  0
DICTIONARYVAR
  5
1770
102
{ACAD_REACTORS
330
1769
102
}
330
1769
100
DictionaryVariables
280
     0
  1
15
  0
DICTIONARYVAR
  5
176E
102
{ACAD_REACTORS
330
1769
102
}
330
1769
100
DictionaryVariables
280
     0
  1
0
  0
DICTIONARYVAR
  5
176C
102
{ACAD_REACTORS
330
1769
102
}
330
1769
100
DictionaryVariables
280
     0
  1
0
  0
XRECORD
  5
29E
102
{ACAD_REACTORS
330
29C
102
}
330
29C
100
AcDbXrecord
280
     1
330
0
  0
DICTIONARY
  5
16FA
330
16F9
100
AcDbDictionary
280
     1
281
     1
  3
BUMPTILE
360
16FC
  3
DIFFUSETILE
360
16FB
  3
OPACITYTILE
360
16FF
  3
REFLECTIONTILE
360
16FE
  3
REFRACTIONTILE
360
1700
  3
SPECULARTILE
360
16FD
  0
DICTIONARY
  5
16F2
330
16F1
100
AcDbDictionary
280
     1
281
     1
  3
BUMPTILE
360
16F4
  3
DIFFUSETILE
360
16F3
  3
OPACITYTILE
360
16F7
  3
REFLECTIONTILE
360
16F6
  3
REFRACTIONTILE
360
16F8
  3
SPECULARTILE
360
16F5
  0
DICTIONARY
  5
1702
330
1701
100
AcDbDictionary
280
     1
281
     1
  3
BUMPTILE
360
1704
  3
DIFFUSETILE
360
1703
  3
OPACITYTILE
360
1707
  3
REFLECTIONTILE
360
1706
  3
REFRACTIONTILE
360
1708
  3
SPECULARTILE
360
1705
  0
DICTIONARY
  5
1771
330
171F
100
AcDbDictionary
280
     1
281
     1
  3
ACAD_ROUNDTRIP_2008_TABLESTYLE_CELLSTYLEMAP
360
1772
  0
XRECORD
  5
16FC
102
{ACAD_REACTORS
330
16FA
102
}
330
16FA
100
AcDbXrecord
280
     1
270
     1
271
     1
  0
XRECORD
  5
16FB
102
{ACAD_REACTORS
330
16FA
102
}
330
16FA
100
AcDbXrecord
280
     1
270
     1
271
     1
  0
XRECORD
  5
16FF
102
{ACAD_REACTORS
330
16FA
102
}
330
16FA
100
AcDbXrecord
280
     1
270
     1
271
     1
  0
XRECORD
  5
16FE
102
{ACAD_REACTORS
330
16FA
102
}
330
16FA
100
AcDbXrecord
280
     1
270
     1
271
     1
  0
XRECORD
  5
1700
102
{ACAD_REACTORS
330
16FA
102
}
330
16FA
100
AcDbXrecord
280
     1
270
     1
271
     1
  0
XRECORD
  5
16FD
102
{ACAD_REACTORS
330
16FA
102
}
330
16FA
100
AcDbXrecord
280
     1
270
     1
271
     1
  0
XRECORD
  5
16F4
102
{ACAD_REACTORS
330
16F2
102
}
330
16F2
100
AcDbXrecord
280
     1
270
     1
271
     1
  0
XRECORD
  5
16F3
102
{ACAD_REACTORS
330
16F2
102
}
330
16F2
100
AcDbXrecord
280
     1
270
     1
271
     1
  0
XRECORD
  5
16F7
102
{ACAD_REACTORS
330
16F2
102
}
330
16F2
100
AcDbXrecord
280
     1
270
     1
271
     1
  0
XRECORD
  5
16F6
102
{ACAD_REACTORS
330
16F2
102
}
330
16F2
100
AcDbXrecord
280
     1
270
     1
271
     1
  0
XRECORD
  5
16F8
102
{ACAD_REACTORS
330
16F2
102
}
330
16F2
100
AcDbXrecord
280
     1
270
     1
271
     1
  0
XRECORD
  5
16F5
102
{ACAD_REACTORS
330
16F2
102
}
330
16F2
100
AcDbXrecord
280
     1
270
     1
271
     1
  0
XRECORD
  5
1704
102
{ACAD_REACTORS
330
1702
102
}
330
1702
100
AcDbXrecord
280
     1
270
     1
271
     1
  0
XRECORD
  5
1703
102
{ACAD_REACTORS
330
1702
102
}
330
1702
100
AcDbXrecord
280
     1
270
     1
271
     1
  0
XRECORD
  5
1707
102
{ACAD_REACTORS
330
1702
102
}
330
1702
100
AcDbXrecord
280
     1
270
     1
271
     1
  0
XRECORD
  5
1706
102
{ACAD_REACTORS
330
1702
102
}
330
1702
100
AcDbXrecord
280
     1
270
     1
271
     1
  0
XRECORD
  5
1708
102
{ACAD_REACTORS
330
1702
102
}
330
1702
100
AcDbXrecord
280
     1
270
     1
271
     1
  0
XRECORD
  5
1705
102
{ACAD_REACTORS
330
1702
102
}
330
1702
100
AcDbXrecord
280
     1
270
     1
271
     1
  0
CELLSTYLEMAP
  5
1772
102
{ACAD_REACTORS
330
1771
102
}
330
1771
100
AcDbCellStyleMap
 90
        3
300
CELLSTYLE
  1
TABLEFORMAT_BEGIN
 90
        5
170
     1
 91
        0
 92
    32768
 62
   257
 93
        1
300
CONTENTFORMAT
  1
CONTENTFORMAT_BEGIN
 90
        0
 91
        0
 92
      512
 93
        0
300

 40
0.0
140
1.0
 94
        5
 62
     0
340
10
144
0.25
309
CONTENTFORMAT_END
171
     0
 94
        0
309
TABLEFORMAT_END
  1
CELLSTYLE_BEGIN
 90
        1
 91
        1
300
_TITLE
309
CELLSTYLE_END
300
CELLSTYLE
  1
TABLEFORMAT_BEGIN
 90
        5
170
     1
 91
        0
 92
        0
 62
   257
 93
        1
300
CONTENTFORMAT
  1
CONTENTFORMAT_BEGIN
 90
        0
 91
        0
 92
      512
 93
        0
300

 40
0.0
140
1.0
 94
        5
 62
     0
340
10
144
0.18
309
CONTENTFORMAT_END
171
     0
 94
        0
309
TABLEFORMAT_END
  1
CELLSTYLE_BEGIN
 90
        2
 91
        1
300
_HEADER
309
CELLSTYLE_END
300
CELLSTYLE
  1
TABLEFORMAT_BEGIN
 90
        5
170
     1
 91
        0
 92
        0
 62
   257
 93
        1
300
CONTENTFORMAT
  1
CONTENTFORMAT_BEGIN
 90
        0
 91
        0
 92
      512
 93
        0
300

 40
0.0
140
1.0
 94
        2
 62
     0
340
10
144
0.18
309
CONTENTFORMAT_END
171
     0
 94
        0
309
TABLEFORMAT_END
  1
CELLSTYLE_BEGIN
 90
        3
 91
        2
300
_DATA
309
CELLSTYLE_END
  0
ENDSEC
  0
EOF
