  0
SECTION
  2
HEADER
  9
$ACADVER
  1
AC1021
  9
$ACADMAINTVER
 70
    50
  9
$DWGCODEPAGE
  3
ANSI_932
  9
$LASTSAVEDBY
  1
Schuyler
  9
$INSBASE
 10
0.0
 20
0.0
 30
0.0
  9
$EXTMIN
 10
214.836885864041
 20
-5.999676172326758
 30
0.0
  9
$EXTMAX
 10
222.8671132055122
 20
0.6807462179658899
 30
0.0
  9
$LIMMIN
 10
0.0
 20
0.0
  9
$LIMMAX
 10
17.0
 20
11.0
  9
$ORTHOMODE
 70
     0
  9
$REGENMODE
 70
     1
  9
$FILLMODE
 70
     1
  9
$QTEXTMODE
 70
     0
  9
$MIRRTEXT
 70
     0
  9
$LTSCALE
 40
3.2
  9
$ATTMODE
 70
     1
  9
$TEXTSIZE
 40
0.1
  9
$TRACEWID
 40
0.05
  9
$TEXTSTYLE
  7
STANDARD
  9
$CLAYER
  8
D
  9
$CELTYPE
  6
BYLAYER
  9
$CECOLOR
 62
   256
  9
$CELTSCALE
 40
1.0
  9
$DISPSILH
 70
     0
  9
$DIMSCALE
 40
0.4
  9
$DIMASZ
 40
0.12
  9
$DIMEXO
 40
0.1
  9
$DIMDLI
 40
0.22
  9
$DIMRND
 40
0.0
  9
$DIMDLE
 40
0.0
  9
$DIMEXE
 40
0.12
  9
$DIMTP
 40
0.0
  9
$DIMTM
 40
0.0
  9
$DIMTXT
 40
0.1
  9
$DIMCEN
 40
0.0
  9
$DIMTSZ
 40
0.0
  9
$DIMTOL
 70
     0
  9
$DIMLIM
 70
     0
  9
$DIMTIH
 70
     0
  9
$DIMTOH
 70
     0
  9
$DIMSE1
 70
     0
  9
$DIMSE2
 70
     0
  9
$DIMTAD
 70
     0
  9
$DIMZIN
 70
     3
  9
$DIMBLK
  1

  9
$DIMASO
 70
     1
  9
$DIMSHO
 70
     0
  9
$DIMPOST
  1

  9
$DIMAPOST
  1

  9
$DIMALT
 70
     0
  9
$DIMALTD
 70
     2
  9
$DIMALTF
 40
25.4
  9
$DIMLFAC
 40
1.0
  9
$DIMTOFL
 70
     0
  9
$DIMTVP
 40
0.0
  9
$DIMTIX
 70
     0
  9
$DIMSOXD
 70
     0
  9
$DIMSAH
 70
     0
  9
$DIMBLK1
  1

  9
$DIMBLK2
  1

  9
$DIMSTYLE
  2
TPS3
  9
$DIMCLRD
 70
     0
  9
$DIMCLRE
 70
     0
  9
$DIMCLRT
 70
     0
  9
$DIMTFAC
 40
1.0
  9
$DIMGAP
 40
0.09
  9
$DIMJUST
 70
     0
  9
$DIMSD1
 70
     0
  9
$DIMSD2
 70
     0
  9
$DIMTOLJ
 70
     1
  9
$DIMTZIN
 70
     3
  9
$DIMALTZ
 70
     0
  9
$DIMALTTZ
 70
     0
  9
$DIMUPT
 70
     0
  9
$DIMDEC
 70
     3
  9
$DIMTDEC
 70
     3
  9
$DIMALTU
 70
     2
  9
$DIMALTTD
 70
     2
  9
$DIMTXSTY
  7
STANDARD
  9
$DIMAUNIT
 70
     0
  9
$DIMADEC
 70
     0
  9
$DIMALTRND
 40
0.0
  9
$DIMAZIN
 70
     0
  9
$DIMDSEP
 70
    46
  9
$DIMATFIT
 70
     3
  9
$DIMFRAC
 70
     0
  9
$DIMLDRBLK
  1

  9
$DIMLUNIT
 70
     2
  9
$DIMLWD
 70
    -2
  9
$DIMLWE
 70
    -2
  9
$DIMTMOVE
 70
     0
  9
$DIMFXL
 40
1.0
  9
$DIMFXLON
 70
     0
  9
$DIMJOGANG
 40
0.7853981633974483
  9
$DIMTFILL
 70
     0
  9
$DIMTFILLCLR
 70
     0
  9
$DIMARCSYM
 70
     0
  9
$DIMLTYPE
  6

  9
$DIMLTEX1
  6

  9
$DIMLTEX2
  6

  9
$LUNITS
 70
     2
  9
$LUPREC
 70
     3
  9
$SKETCHINC
 40
0.1
  9
$FILLETRAD
 40
0.0
  9
$AUNITS
 70
     0
  9
$AUPREC
 70
     1
  9
$MENU
  1
ACAD
  9
$ELEVATION
 40
0.0
  9
$PELEVATION
 40
0.0
  9
$THICKNESS
 40
0.0
  9
$LIMCHECK
 70
     0
  9
$CHAMFERA
 40
0.0
  9
$CHAMFERB
 40
0.0
  9
$CHAMFERC
 40
0.0
  9
$CHAMFERD
 40
0.0
  9
$SKPOLY
 70
     0
  9
$TDCREATE
 40
2455057.585952812
  9
$TDUCREATE
 40
2455057.752619480
  9
$TDUPDATE
 40
2455849.024974780
  9
$TDUUPDATE
 40
2455849.191641447
  9
$TDINDWG
 40
11.7852204977
  9
$TDUSRTIMER
 40
11.7852204977
  9
$USRTIMER
 70
     1
  9
$ANGBASE
 50
0.0
  9
$ANGDIR
 70
     0
  9
$PDMODE
 70
     3
  9
$PDSIZE
 40
0.02
  9
$PLINEWID
 40
0.0
  9
$SPLFRAME
 70
     0
  9
$SPLINETYPE
 70
     6
  9
$SPLINESEGS
 70
     8
  9
$HANDSEED
  5
1CC2
  9
$SURFTAB1
 70
     6
  9
$SURFTAB2
 70
     6
  9
$SURFTYPE
 70
     6
  9
$SURFU
 70
     6
  9
$SURFV
 70
     6
  9
$UCSBASE
  2

  9
$UCSNAME
  2

  9
$UCSORG
 10
217.0637956006614
 20
-1.390165411011395
 30
0.0
  9
$UCSXDIR
 10
1.0
 20
0.0
 30
0.0
  9
$UCSYDIR
 10
0.0
 20
1.0
 30
0.0
  9
$UCSORTHOREF
  2

  9
$UCSORTHOVIEW
 70
     0
  9
$UCSORGTOP
 10
0.0
 20
0.0
 30
0.0
  9
$UCSORGBOTTOM
 10
0.0
 20
0.0
 30
0.0
  9
$UCSORGLEFT
 10
0.0
 20
0.0
 30
0.0
  9
$UCSORGRIGHT
 10
0.0
 20
0.0
 30
0.0
  9
$UCSORGFRONT
 10
0.0
 20
0.0
 30
0.0
  9
$UCSORGBACK
 10
0.0
 20
0.0
 30
0.0
  9
$PUCSBASE
  2

  9
$PUCSNAME
  2

  9
$PUCSORG
 10
0.0
 20
0.0
 30
0.0
  9
$PUCSXDIR
 10
1.0
 20
0.0
 30
0.0
  9
$PUCSYDIR
 10
0.0
 20
1.0
 30
0.0
  9
$PUCSORTHOREF
  2

  9
$PUCSORTHOVIEW
 70
     0
  9
$PUCSORGTOP
 10
0.0
 20
0.0
 30
0.0
  9
$PUCSORGBOTTOM
 10
0.0
 20
0.0
 30
0.0
  9
$PUCSORGLEFT
 10
0.0
 20
0.0
 30
0.0
  9
$PUCSORGRIGHT
 10
0.0
 20
0.0
 30
0.0
  9
$PUCSORGFRONT
 10
0.0
 20
0.0
 30
0.0
  9
$PUCSORGBACK
 10
0.0
 20
0.0
 30
0.0
  9
$USERI1
 70
     0
  9
$USERI2
 70
     0
  9
$USERI3
 70
     0
  9
$USERI4
 70
     0
  9
$USERI5
 70
     0
  9
$USERR1
 40
0.0
  9
$USERR2
 40
0.0
  9
$USERR3
 40
0.0
  9
$USERR4
 40
0.0
  9
$USERR5
 40
0.0
  9
$WORLDVIEW
 70
     1
  9
$SHADEDGE
 70
     3
  9
$SHADEDIF
 70
    70
  9
$TILEMODE
 70
     1
  9
$MAXACTVP
 70
    16
  9
$PINSBASE
 10
0.0
 20
0.0
 30
0.0
  9
$PLIMCHECK
 70
     0
  9
$PEXTMIN
 10
1.000000000000000E+20
 20
1.000000000000000E+20
 30
1.000000000000000E+20
  9
$PEXTMAX
 10
-1.000000000000000E+20
 20
-1.000000000000000E+20
 30
-1.000000000000000E+20
  9
$PLIMMIN
 10
0.0
 20
0.0
  9
$PLIMMAX
 10
12.0
 20
9.0
  9
$UNITMODE
 70
     0
  9
$VISRETAIN
 70
     0
  9
$PLINEGEN
 70
     0
  9
$PSLTSCALE
 70
     0
  9
$TREEDEPTH
 70
  3020
  9
$CMLSTYLE
  2
STANDARD
  9
$CMLJUST
 70
     0
  9
$CMLSCALE
 40
1.0
  9
$PROXYGRAPHICS
 70
     1
  9
$MEASUREMENT
 70
     0
  9
$CELWEIGHT
370
    -1
  9
$ENDCAPS
280
     0
  9
$JOINSTYLE
280
     0
  9
$LWDISPLAY
290
     0
  9
$INSUNITS
 70
     0
  9
$HYPERLINKBASE
  1

  9
$STYLESHEET
  1
tps-s1_BLACK.ctb
  9
$XEDIT
290
     1
  9
$CEPSNTYPE
380
     0
  9
$PSTYLEMODE
290
     1
  9
$FINGERPRINTGUID
  2
{AF1BFB27-CCE5-11D3-9728-005004AD2079}
  9
$VERSIONGUID
  2
{B5F07CD9-9999-489D-BAB6-9CA8A3CC025E}
  9
$EXTNAMES
290
     1
  9
$PSVPSCALE
 40
0.0
  9
$OLESTARTUP
290
     0
  9
$SORTENTS
280
   127
  9
$INDEXCTL
280
     0
  9
$HIDETEXT
280
     0
  9
$XCLIPFRAME
290
     0
  9
$HALOGAP
280
     0
  9
$OBSCOLOR
 70
   257
  9
$OBSLTYPE
280
     0
  9
$INTERSECTIONDISPLAY
280
     0
  9
$INTERSECTIONCOLOR
 70
   257
  9
$DIMASSOC
280
     1
  9
$PROJECTNAME
  1

  9
$CAMERADISPLAY
290
     0
  9
$LENSLENGTH
 40
50.0
  9
$CAMERAHEIGHT
 40
0.0
  9
$STEPSPERSEC
 40
2.0
  9
$STEPSIZE
 40
6.0
  9
$3DDWFPREC
 40
2.0
  9
$PSOLWIDTH
 40
0.25
  9
$PSOLHEIGHT
 40
4.0
  9
$LOFTANG1
 40
1.570796326794896
  9
$LOFTANG2
 40
1.570796326794896
  9
$LOFTMAG1
 40
0.0
  9
$LOFTMAG2
 40
0.0
  9
$LOFTPARAM
 70
     7
  9
$LOFTNORMALS
280
     1
  9
$LATITUDE
 40
37.795
  9
$LONGITUDE
 40
-122.394
  9
$NORTHDIRECTION
 40
0.0
  9
$TIMEZONE
 70
 -8000
  9
$LIGHTGLYPHDISPLAY
280
     1
  9
$TILEMODELIGHTSYNCH
280
     1
  9
$CMATERIAL
347
1C17
  9
$SOLIDHIST
280
     1
  9
$SHOWHIST
280
     1
  9
$DWFFRAME
280
     2
  9
$DGNFRAME
280
     0
  9
$REALWORLDSCALE
290
     1
  9
$INTERFERECOLOR
 62
     1
  9
$INTERFEREOBJVS
345
1C39
  9
$INTERFEREVPVS
346
1C36
  9
$CSHADOW
280
     0
  9
$SHADOWPLANELOCATION
 40
0.0
  0
ENDSEC
  0
SECTION
  2
CLASSES
  0
CLASS
  1
ACDBDICTIONARYWDFLT
  2
AcDbDictionaryWithDefault
  3
ObjectDBX Classes
 90
        0
 91
        1
280
     0
281
     0
  0
CLASS
  1
PLOTSETTINGS
  2
AcDbPlotSettings
  3
ObjectDBX Classes
 90
        0
 91
        2
280
     0
281
     0
  0
CLASS
  1
SORTENTSTABLE
  2
AcDbSortentsTable
  3
ObjectDBX Classes
 90
        0
 91
        1
280
     0
281
     0
  0
CLASS
  1
MATERIAL
  2
AcDbMaterial
  3
ObjectDBX Classes
 90
     1153
 91
        3
280
     0
281
     0
  0
CLASS
  1
VISUALSTYLE
  2
AcDbVisualStyle
  3
ObjectDBX Classes
 90
     4095
 91
       19
280
     0
281
     0
  0
CLASS
  1
TABLESTYLE
  2
AcDbTableStyle
  3
ObjectDBX Classes
 90
     4095
 91
        1
280
     0
281
     0
  0
CLASS
  1
SCALE
  2
AcDbScale
  3
ObjectDBX Classes
 90
     1153
 91
       33
280
     0
281
     0
  0
CLASS
  1
MLEADERSTYLE
  2
AcDbMLeaderStyle
  3
ACDB_MLEADERSTYLE_CLASS
 90
     4095
 91
        1
280
     0
281
     0
  0
CLASS
  1
DICTIONARYVAR
  2
AcDbDictionaryVar
  3
ObjectDBX Classes
 90
        0
 91
        8
280
     0
281
     0
  0
CLASS
  1
CELLSTYLEMAP
  2
AcDbCellStyleMap
  3
ObjectDBX Classes
 90
     1152
 91
        1
280
     0
281
     0
  0
ENDSEC
  0
SECTION
  2
TABLES
  0
TABLE
  2
VPORT
  5
8
330
0
100
AcDbSymbolTable
 70
     1
  0
VPORT
  5
1C14
330
8
100
AcDbSymbolTableRecord
100
AcDbViewportTableRecord
  2
*Active
 70
     0
 10
0.0
 20
0.0
 11
1.0
 21
1.0
 12
218.9921132055122
 22
-1.377342420474561
 13
0.0
 23
0.0
 14
1.0
 24
1.0
 15
0.0
 25
0.0
 16
0.0
 26
0.0
 36
1.0
 17
0.0
 27
0.0
 37
0.0
 40
5.635364808513627
 41
1.85287610619469
 42
0.0
 43
0.0
 44
0.0
 50
0.0
 51
0.0
 71
     0
 72
   100
 73
     1
 74
     0
 75
     0
 76
     0
 77
     0
 78
     2
281
     0
 65
     1
110
217.0637956006614
120
-1.390165411011395
130
0.0
111
1.0
121
0.0
131
0.0
112
0.0
122
1.0
132
0.0
 79
     0
146
0.0
348
1C35
 60
     3
 61
     5
292
     1
282
     1
141
0.0
142
0.0
 63
   250
421
  3355443
  0
ENDTAB
  0
TABLE
  2
LTYPE
  5
5
330
0
100
AcDbSymbolTable
 70
     4
  0
LTYPE
  5
12
330
5
100
AcDbSymbolTableRecord
100
AcDbLinetypeTableRecord
  2
BYBLOCK
 70
     0
  3

 72
    65
 73
     0
 40
0.0
  0
LTYPE
  5
13
330
5
100
AcDbSymbolTableRecord
100
AcDbLinetypeTableRecord
  2
BYLAYER
 70
     0
  3

 72
    65
 73
     0
 40
0.0
  0
LTYPE
  5
14
330
5
100
AcDbSymbolTableRecord
100
AcDbLinetypeTableRecord
  2
CONTINUOUS
 70
     0
  3
Solid line
 72
    65
 73
     0
 40
0.0
  0
LTYPE
  5
1D
330
5
100
AcDbSymbolTableRecord
100
AcDbLinetypeTableRecord
  2
H
 70
     0
  3
_ _ _ _ _ _ _ _ _ _ _ _ _ _ _ _ _ _ _ _ _ _ _
 72
    65
 73
     2
 40
0.375
 49
0.25
 74
     0
 49
-0.125
 74
     0
  0
LTYPE
  5
1E
330
5
100
AcDbSymbolTableRecord
100
AcDbLinetypeTableRecord
  2
C
 70
     0
  3
____ _ ____ _ ____ _ ____ _ ____ _ ____ _ ____
 72
    65
 73
     4
 40
2.0
 49
1.25
 74
     0
 49
-0.25
 74
     0
 49
0.25
 74
     0
 49
-0.25
 74
     0
  0
LTYPE
  5
726
330
5
100
AcDbSymbolTableRecord
100
AcDbLinetypeTableRecord
  2
ACAD_ISO08W100
 70
     0
  3
ISO long-dash short-dash ____ __ ____ __ ____ _
 72
    65
 73
     4
 40
36.0
 49
24.0
 74
     0
 49
-3.0
 74
     0
 49
6.0
 74
     0
 49
-3.0
 74
     0
  0
ENDTAB
  0
TABLE
  2
LAYER
  5
2
330
0
100
AcDbSymbolTable
 70
    17
  0
LAYER
  5
F
102
{ACAD_XDICTIONARY
360
1C71
102
}
330
2
100
AcDbSymbolTableRecord
100
AcDbLayerTableRecord
  2
0
 70
     0
 62
     7
  6
CONTINUOUS
370
    -3
390
106
347
1C27
  0
LAYER
  5
24
102
{ACAD_XDICTIONARY
360
1C73
102
}
330
2
100
AcDbSymbolTableRecord
100
AcDbLayerTableRecord
  2
H
 70
     0
 62
     1
  6
H
370
    -3
390
106
347
1C27
  0
LAYER
  5
25
102
{ACAD_XDICTIONARY
360
1C75
102
}
330
2
100
AcDbSymbolTableRecord
100
AcDbLayerTableRecord
  2
C
 70
     0
 62
     1
  6
C
370
    -3
390
106
347
1C27
  0
LAYER
  5
26
102
{ACAD_XDICTIONARY
360
1C77
102
}
330
2
100
AcDbSymbolTableRecord
100
AcDbLayerTableRecord
  2
BORDER
 70
     0
 62
     3
  6
CONTINUOUS
370
    -3
390
106
347
1C27
  0
LAYER
  5
27
102
{ACAD_XDICTIONARY
360
1C79
102
}
330
2
100
AcDbSymbolTableRecord
100
AcDbLayerTableRecord
  2
X
 70
     0
 62
     1
  6
CONTINUOUS
370
    -3
390
106
347
1C27
  0
LAYER
  5
28
102
{ACAD_XDICTIONARY
360
1C7B
102
}
330
2
100
AcDbSymbolTableRecord
100
AcDbLayerTableRecord
  2
T
 70
     0
 62
    50
  6
CONTINUOUS
370
    -3
390
106
347
1C27
  0
LAYER
  5
2A
102
{ACAD_XDICTIONARY
360
1C7D
102
}
330
2
100
AcDbSymbolTableRecord
100
AcDbLayerTableRecord
  2
D
 70
     0
 62
     7
  6
CONTINUOUS
370
    -3
390
106
347
1C27
  0
LAYER
  5
371
102
{ACAD_XDICTIONARY
360
1C7F
102
}
330
2
100
AcDbSymbolTableRecord
100
AcDbLayerTableRecord
  2
FRAME 070
 70
     0
 62
     5
  6
CONTINUOUS
370
    -3
390
106
347
1C27
  0
LAYER
  5
372
102
{ACAD_XDICTIONARY
360
1C81
102
}
330
2
100
AcDbSymbolTableRecord
100
AcDbLayerTableRecord
  2
SECTION
 70
     0
 62
     6
  6
ACAD_ISO08W100
370
    -3
390
106
347
1C27
  0
LAYER
  5
373
102
{ACAD_XDICTIONARY
360
1C83
102
}
330
2
100
AcDbSymbolTableRecord
100
AcDbLayerTableRecord
  2
FRAME 025
 70
     0
 62
     7
  6
CONTINUOUS
370
    -3
390
106
347
1C27
  0
LAYER
  5
374
102
{ACAD_XDICTIONARY
360
1C85
102
}
330
2
100
AcDbSymbolTableRecord
100
AcDbLayerTableRecord
  2
Title Block
 70
     0
 62
    30
  6
CONTINUOUS
370
    -3
390
106
347
1C27
  0
LAYER
  5
496
102
{ACAD_XDICTIONARY
360
1C87
102
}
330
2
100
AcDbSymbolTableRecord
100
AcDbLayerTableRecord
  2
TITLE BLOCK TEXT
 70
     0
 62
   253
  6
CONTINUOUS
370
    -3
390
106
347
1C27
  0
LAYER
  5
4CC
330
2
100
AcDbSymbolTableRecord
100
AcDbLayerTableRecord
  2
Defpoints
 70
     0
 62
     7
  6
CONTINUOUS
290
     0
370
    -3
390
106
347
1C27
  0
LAYER
  5
4F0
102
{ACAD_XDICTIONARY
360
1C89
102
}
330
2
100
AcDbSymbolTableRecord
100
AcDbLayerTableRecord
  2
ti tubing 075
 70
     0
 62
    41
  6
CONTINUOUS
370
    -3
390
106
347
1C27
  0
LAYER
  5
504
102
{ACAD_XDICTIONARY
360
1C8B
102
}
330
2
100
AcDbSymbolTableRecord
100
AcDbLayerTableRecord
  2
ti tubing 2.0
 70
     0
 62
   101
  6
CONTINUOUS
370
    -3
390
106
347
1C27
  0
LAYER
  5
AF7
102
{ACAD_XDICTIONARY
360
AF8
102
}
330
2
100
AcDbSymbolTableRecord
100
AcDbLayerTableRecord
  2
Layer 1
 70
     0
 62
     7
  6
CONTINUOUS
370
    -3
390
106
347
1C27
  0
LAYER
  5
1197
102
{ACAD_XDICTIONARY
360
1C8E
102
}
330
2
100
AcDbSymbolTableRecord
100
AcDbLayerTableRecord
  2
PICK
 70
     0
 62
   211
  6
CONTINUOUS
370
    -3
390
106
347
1C27
  0
ENDTAB
  0
TABLE
  2
STYLE
  5
3
330
0
100
AcDbSymbolTable
 70
     6
  0
STYLE
  5
10
330
3
100
AcDbSymbolTableRecord
100
AcDbTextStyleTableRecord
  2
STANDARD
 70
     0
 40
0.0
 41
1.0
 50
0.0
 71
     0
 42
0.1
  3
txt
  4

  0
STYLE
  5
376
330
3
100
AcDbSymbolTableRecord
100
AcDbTextStyleTableRecord
  2
ISO Proportional
 70
     0
 40
0.0
 41
1.0
 50
0.0
 71
     0
 42
2.5
  3
isocp.shx
  4

  0
STYLE
  5
3D0
330
3
100
AcDbSymbolTableRecord
100
AcDbTextStyleTableRecord
  2
Roman
 70
     0
 40
0.0
 41
1.0
 50
0.0
 71
     0
 42
0.065
  3
romans
  4

  0
STYLE
  5
725
330
3
100
AcDbSymbolTableRecord
100
AcDbTextStyleTableRecord
  2

 70
     1
 40
0.0
 41
1.0
 50
0.0
 71
     0
 42
0.1
  3
ltypeshp.shx
  4

  0
STYLE
  5
A85
330
3
100
AcDbSymbolTableRecord
100
AcDbTextStyleTableRecord
  2
Annotative
 70
     0
 40
0.0
 41
1.0
 50
0.0
 71
     0
 42
0.2
  3
ARIAL.TTF
  4

1001
AcadAnnotative
1000
AnnotativeData
1002
{
1070
     1
1070
     1
1002
}
1001
ACAD
1000
Arial
1071
       34
  0
STYLE
  5
A86
330
3
100
AcDbSymbolTableRecord
100
AcDbTextStyleTableRecord
  2
small
 70
     0
 40
0.1
 41
1.0
 50
0.0
 71
     0
 42
0.2
  3
ARIAL.TTF
  4

1001
ACAD
1000
Arial
1071
       34
  0
ENDTAB
  0
TABLE
  2
VIEW
  5
6
330
0
100
AcDbSymbolTable
 70
     1
  0
VIEW
  5
20
330
6
100
AcDbSymbolTableRecord
100
AcDbViewTableRecord
  2
BORDER
 70
     0
 40
4.875
 10
218.9921132055122
 20
-1.75675378203411
 41
7.75
 11
0.0
 21
0.0
 31
1.0
 12
0.0
 22
0.0
 32
0.0
 42
0.0
 43
0.0
 44
0.0
 50
0.0
 71
     0
281
     0
 72
     0
 73
     0
348
1C35
  0
ENDTAB
  0
TABLE
  2
UCS
  5
7
330
0
100
AcDbSymbolTable
 70
     0
  0
ENDTAB
  0
TABLE
  2
APPID
  5
9
330
0
100
AcDbSymbolTable
 70
    11
  0
APPID
  5
11
330
9
100
AcDbSymbolTableRecord
100
AcDbRegAppTableRecord
  2
ACAD
 70
     0
  0
APPID
  5
175
330
9
100
AcDbSymbolTableRecord
100
AcDbRegAppTableRecord
  2
SI-MECH
 70
     0
  0
APPID
  5
29D
330
9
100
AcDbSymbolTableRecord
100
AcDbRegAppTableRecord
  2
DCO15
 70
     0
  0
APPID
  5
A8A
330
9
100
AcDbSymbolTableRecord
100
AcDbRegAppTableRecord
  2
AcadAnnoPO
 70
     0
  0
APPID
  5
A8B
330
9
100
AcDbSymbolTableRecord
100
AcDbRegAppTableRecord
  2
AcadAnnotative
 70
     0
  0
APPID
  5
A8C
330
9
100
AcDbSymbolTableRecord
100
AcDbRegAppTableRecord
  2
ACAD_DSTYLE_DIMJAG
 70
     0
  0
APPID
  5
A8D
330
9
100
AcDbSymbolTableRecord
100
AcDbRegAppTableRecord
  2
ACAD_DSTYLE_DIMTALN
 70
     0
  0
APPID
  5
A8E
330
9
100
AcDbSymbolTableRecord
100
AcDbRegAppTableRecord
  2
ACAD_MLEADERVER
 70
     0
  0
APPID
  5
A8F
330
9
100
AcDbSymbolTableRecord
100
AcDbRegAppTableRecord
  2
ACAD_DSTYLE_DIMBREAK
 70
     0
  0
APPID
  5
A90
330
9
100
AcDbSymbolTableRecord
100
AcDbRegAppTableRecord
  2
ACAD_EXEMPT_FROM_CAD_STANDARDS
 70
     0
  0
APPID
  5
A91
330
9
100
AcDbSymbolTableRecord
100
AcDbRegAppTableRecord
  2
ACAD_DSTYLE_DIMRADIAL_EXTENSION
 70
     0
  0
ENDTAB
  0
TABLE
  2
DIMSTYLE
  5
A
330
0
100
AcDbSymbolTable
 70
     5
100
AcDbDimStyleTable
 71
     2
340
49A
340
8C
  0
DIMSTYLE
105
8C
330
A
100
AcDbSymbolTableRecord
100
AcDbDimStyleTableRecord
  2
THREE
 70
     0
 41
0.12
 42
0.1
 43
0.22
 44
0.12
 73
     0
 78
     3
140
0.1
141
0.0
271
     3
272
     3
284
     3
340
10
  0
DIMSTYLE
105
49A
102
{ACAD_REACTORS
330
11A2
330
1AB6
330
1ABF
330
1AC8
330
1AD1
330
1ADA
330
1AE3
330
1AEC
330
1AF5
330
1B00
330
1B0B
330
1B16
330
1B21
330
1B2C
330
1B37
330
1B42
330
1B4B
330
1B54
330
1B5D
330
1B66
330
1B6F
330
1B78
330
1B81
330
1B8A
330
1BAC
330
1BD6
330
1BE1
330
1BEC
102
}
330
A
100
AcDbSymbolTableRecord
100
AcDbDimStyleTableRecord
  2
TPS3
 70
     0
 40
0.4
 41
0.12
 42
0.1
 43
0.22
 44
0.12
 73
     0
 74
     0
 78
     3
140
0.1
141
0.0
271
     3
272
     3
284
     3
340
10
  0
DIMSTYLE
105
A87
330
A
100
AcDbSymbolTableRecord
100
AcDbDimStyleTableRecord
  2
Standard
 70
     0
340
10
  0
DIMSTYLE
105
A88
330
A
100
AcDbSymbolTableRecord
100
AcDbDimStyleTableRecord
  2
Annotative
 70
     0
 40
0.0
340
10
1001
AcadAnnotative
1000
AnnotativeData
1002
{
1070
     1
1070
     1
1002
}
1001
ACAD_DSTYLE_DIMJAG
1070
   388
1040
1.5
1001
ACAD_DSTYLE_DIMTALN
1070
   392
1070
     0
  0
DIMSTYLE
105
A89
102
{ACAD_REACTORS
330
AA8
330
AAA
330
AAC
330
AAE
330
AB0
330
AB2
330
AB4
330
AB6
330
AB8
330
ABA
330
ABC
330
ABE
330
ACD
330
ACF
330
AD1
330
AD3
330
AD5
330
AD7
102
}
330
A
100
AcDbSymbolTableRecord
100
AcDbDimStyleTableRecord
  2
small
 70
     0
 41
0.075
140
0.1
175
     1
279
     1
340
A86
1001
ACAD_DSTYLE_DIMBREAK
1070
   391
1040
0.125
1001
ACAD_DSTYLE_DIMJAG
1070
   388
1040
1.5
1001
ACAD_DSTYLE_DIMTALN
1070
   392
1070
     0
  0
ENDTAB
  0
TABLE
  2
BLOCK_RECORD
  5
1
330
0
100
AcDbSymbolTable
 70
    50
  0
BLOCK_RECORD
  5
18
330
1
100
AcDbSymbolTableRecord
100
AcDbBlockTableRecord
  2
*MODEL_SPACE
340
109
 70
     0
280
     1
281
     0
  0
BLOCK_RECORD
  5
15
330
1
100
AcDbSymbolTableRecord
100
AcDbBlockTableRecord
  2
*PAPER_SPACE
340
10A
 70
     0
280
     1
281
     0
  0
BLOCK_RECORD
  5
9A4
102
{ACAD_XDICTIONARY
360
9AD
102
}
330
1
100
AcDbSymbolTableRecord
100
AcDbBlockTableRecord
  2
A$C0F5103D6
340
0
 70
     1
280
     1
281
     0
  0
BLOCK_RECORD
  5
9B1
330
1
100
AcDbSymbolTableRecord
100
AcDbBlockTableRecord
  2
*D1
340
0
 70
     0
280
     1
281
     0
  0
BLOCK_RECORD
  5
9BE
330
1
100
AcDbSymbolTableRecord
100
AcDbBlockTableRecord
  2
*D2
340
0
 70
     0
280
     1
281
     0
  0
BLOCK_RECORD
  5
9CC
330
1
100
AcDbSymbolTableRecord
100
AcDbBlockTableRecord
  2
*D3
340
0
 70
     0
280
     1
281
     0
  0
BLOCK_RECORD
  5
9D9
330
1
100
AcDbSymbolTableRecord
100
AcDbBlockTableRecord
  2
*D4
340
0
 70
     0
280
     1
281
     0
  0
BLOCK_RECORD
  5
9E5
330
1
100
AcDbSymbolTableRecord
100
AcDbBlockTableRecord
  2
*D5
340
0
 70
     0
280
     1
281
     0
  0
BLOCK_RECORD
  5
9EE
330
1
100
AcDbSymbolTableRecord
100
AcDbBlockTableRecord
  2
*D6
340
0
 70
     0
280
     1
281
     0
  0
BLOCK_RECORD
  5
9FB
330
1
100
AcDbSymbolTableRecord
100
AcDbBlockTableRecord
  2
*D7
340
0
 70
     0
280
     1
281
     0
  0
BLOCK_RECORD
  5
A07
330
1
100
AcDbSymbolTableRecord
100
AcDbBlockTableRecord
  2
*D8
340
0
 70
     0
280
     1
281
     0
  0
BLOCK_RECORD
  5
A12
330
1
100
AcDbSymbolTableRecord
100
AcDbBlockTableRecord
  2
*D9
340
0
 70
     0
280
     1
281
     0
  0
BLOCK_RECORD
  5
A1B
330
1
100
AcDbSymbolTableRecord
100
AcDbBlockTableRecord
  2
*D10
340
0
 70
     0
280
     1
281
     0
  0
BLOCK_RECORD
  5
A26
330
1
100
AcDbSymbolTableRecord
100
AcDbBlockTableRecord
  2
*D11
340
0
 70
     0
280
     1
281
     0
  0
BLOCK_RECORD
  5
A32
330
1
100
AcDbSymbolTableRecord
100
AcDbBlockTableRecord
  2
*D12
340
0
 70
     0
280
     1
281
     0
  0
BLOCK_RECORD
  5
A3B
330
1
100
AcDbSymbolTableRecord
100
AcDbBlockTableRecord
  2
*D13
340
0
 70
     0
280
     1
281
     0
  0
BLOCK_RECORD
  5
A47
330
1
100
AcDbSymbolTableRecord
100
AcDbBlockTableRecord
  2
*D14
340
0
 70
     0
280
     1
281
     0
  0
BLOCK_RECORD
  5
A54
330
1
100
AcDbSymbolTableRecord
100
AcDbBlockTableRecord
  2
*D15
340
0
 70
     0
280
     1
281
     0
  0
BLOCK_RECORD
  5
A60
330
1
100
AcDbSymbolTableRecord
100
AcDbBlockTableRecord
  2
*D16
340
0
 70
     0
280
     1
281
     0
  0
BLOCK_RECORD
  5
A6C
330
1
100
AcDbSymbolTableRecord
100
AcDbBlockTableRecord
  2
*D17
340
0
 70
     0
280
     1
281
     0
  0
BLOCK_RECORD
  5
A79
330
1
100
AcDbSymbolTableRecord
100
AcDbBlockTableRecord
  2
*D18
340
0
 70
     0
280
     1
281
     0
  0
BLOCK_RECORD
  5
A92
330
1
100
AcDbSymbolTableRecord
100
AcDbBlockTableRecord
  2
smaller diamond
340
0
 70
     0
280
     1
281
     0
  0
BLOCK_RECORD
  5
11A3
330
1
100
AcDbSymbolTableRecord
100
AcDbBlockTableRecord
  2
*D20
340
0
 70
     0
280
     1
281
     0
  0
BLOCK_RECORD
  5
17BC
330
1
100
AcDbSymbolTableRecord
100
AcDbBlockTableRecord
  2
A$C34542D0D
340
0
 70
     0
280
     1
281
     0
  0
BLOCK_RECORD
  5
1A8F
330
1
100
AcDbSymbolTableRecord
100
AcDbBlockTableRecord
  2
A$C38DA0378
340
0
 70
     0
280
     1
281
     0
  0
BLOCK_RECORD
  5
1AB7
330
1
100
AcDbSymbolTableRecord
100
AcDbBlockTableRecord
  2
*D23
340
0
 70
     0
280
     1
281
     0
  0
BLOCK_RECORD
  5
1AC0
330
1
100
AcDbSymbolTableRecord
100
AcDbBlockTableRecord
  2
*D24
340
0
 70
     0
280
     1
281
     0
  0
BLOCK_RECORD
  5
1AC9
330
1
100
AcDbSymbolTableRecord
100
AcDbBlockTableRecord
  2
*D25
340
0
 70
     0
280
     1
281
     0
  0
BLOCK_RECORD
  5
1AD2
330
1
100
AcDbSymbolTableRecord
100
AcDbBlockTableRecord
  2
*D26
340
0
 70
     0
280
     1
281
     0
  0
BLOCK_RECORD
  5
1ADB
330
1
100
AcDbSymbolTableRecord
100
AcDbBlockTableRecord
  2
*D27
340
0
 70
     0
280
     1
281
     0
  0
BLOCK_RECORD
  5
1AE4
330
1
100
AcDbSymbolTableRecord
100
AcDbBlockTableRecord
  2
*D28
340
0
 70
     0
280
     1
281
     0
  0
BLOCK_RECORD
  5
1AED
330
1
100
AcDbSymbolTableRecord
100
AcDbBlockTableRecord
  2
*D29
340
0
 70
     0
280
     1
281
     0
  0
BLOCK_RECORD
  5
1AF6
330
1
100
AcDbSymbolTableRecord
100
AcDbBlockTableRecord
  2
*D30
340
0
 70
     0
280
     1
281
     0
  0
BLOCK_RECORD
  5
1B01
330
1
100
AcDbSymbolTableRecord
100
AcDbBlockTableRecord
  2
*D31
340
0
 70
     0
280
     1
281
     0
  0
BLOCK_RECORD
  5
1B0C
330
1
100
AcDbSymbolTableRecord
100
AcDbBlockTableRecord
  2
*D32
340
0
 70
     0
280
     1
281
     0
  0
BLOCK_RECORD
  5
1B17
330
1
100
AcDbSymbolTableRecord
100
AcDbBlockTableRecord
  2
*D33
340
0
 70
     0
280
     1
281
     0
  0
BLOCK_RECORD
  5
1B22
330
1
100
AcDbSymbolTableRecord
100
AcDbBlockTableRecord
  2
*D34
340
0
 70
     0
280
     1
281
     0
  0
BLOCK_RECORD
  5
1B2D
330
1
100
AcDbSymbolTableRecord
100
AcDbBlockTableRecord
  2
*D35
340
0
 70
     0
280
     1
281
     0
  0
BLOCK_RECORD
  5
1B38
330
1
100
AcDbSymbolTableRecord
100
AcDbBlockTableRecord
  2
*D36
340
0
 70
     0
280
     1
281
     0
  0
BLOCK_RECORD
  5
1B43
330
1
100
AcDbSymbolTableRecord
100
AcDbBlockTableRecord
  2
*D37
340
0
 70
     0
280
     1
281
     0
  0
BLOCK_RECORD
  5
1B4C
330
1
100
AcDbSymbolTableRecord
100
AcDbBlockTableRecord
  2
*D38
340
0
 70
     0
280
     1
281
     0
  0
BLOCK_RECORD
  5
1B55
330
1
100
AcDbSymbolTableRecord
100
AcDbBlockTableRecord
  2
*D39
340
0
 70
     0
280
     1
281
     0
  0
BLOCK_RECORD
  5
1B5E
330
1
100
AcDbSymbolTableRecord
100
AcDbBlockTableRecord
  2
*D40
340
0
 70
     0
280
     1
281
     0
  0
BLOCK_RECORD
  5
1B67
330
1
100
AcDbSymbolTableRecord
100
AcDbBlockTableRecord
  2
*D41
340
0
 70
     0
280
     1
281
     0
  0
BLOCK_RECORD
  5
1B70
330
1
100
AcDbSymbolTableRecord
100
AcDbBlockTableRecord
  2
*D42
340
0
 70
     0
280
     1
281
     0
  0
BLOCK_RECORD
  5
1B79
330
1
100
AcDbSymbolTableRecord
100
AcDbBlockTableRecord
  2
*D43
340
0
 70
     0
280
     1
281
     0
  0
BLOCK_RECORD
  5
1B82
330
1
100
AcDbSymbolTableRecord
100
AcDbBlockTableRecord
  2
*D44
340
0
 70
     0
280
     1
281
     0
  0
BLOCK_RECORD
  5
1B8B
330
1
100
AcDbSymbolTableRecord
100
AcDbBlockTableRecord
  2
*D45
340
0
 70
     0
280
     1
281
     0
  0
BLOCK_RECORD
  5
1BAD
330
1
100
AcDbSymbolTableRecord
100
AcDbBlockTableRecord
  2
*D46
340
0
 70
     0
280
     1
281
     0
  0
BLOCK_RECORD
  5
1BD7
330
1
100
AcDbSymbolTableRecord
100
AcDbBlockTableRecord
  2
*D47
340
0
 70
     0
280
     1
281
     0
  0
BLOCK_RECORD
  5
1BE2
330
1
100
AcDbSymbolTableRecord
100
AcDbBlockTableRecord
  2
*D48
340
0
 70
     0
280
     1
281
     0
  0
BLOCK_RECORD
  5
1BED
330
1
100
AcDbSymbolTableRecord
100
AcDbBlockTableRecord
  2
*D49
340
0
 70
     0
280
     1
281
     0
  0
ENDTAB
  0
ENDSEC
  0
SECTION
  2
BLOCKS
  0
BLOCK
  5
2E
330
18
100
AcDbEntity
  8
0
100
AcDbBlockBegin
  2
*MODEL_SPACE
 70
     0
 10
0.0
 20
0.0
 30
0.0
  3
*MODEL_SPACE
  1

  0
ENDBLK
  5
2F
330
18
100
AcDbEntity
  8
0
100
AcDbBlockEnd
  0
BLOCK
  5
2C
330
15
100
AcDbEntity
 67
     1
  8
0
100
AcDbBlockBegin
  2
*PAPER_SPACE
 70
     0
 10
0.0
 20
0.0
 30
0.0
  3
*PAPER_SPACE
  1

  0
ENDBLK
  5
2D
330
15
100
AcDbEntity
 67
     1
  8
0
100
AcDbBlockEnd
  0
BLOCK
  5
9AF
330
9A4
100
AcDbEntity
  8
0
100
AcDbBlockBegin
  2
A$C0F5103D6
 70
     0
 10
0.0
 20
0.0
 30
0.0
  3
A$C0F5103D6
  1

  0
LINE
  5
9A5
330
9A4
100
AcDbEntity
  8
0
100
AcDbLine
 10
3.253499989579381
 20
0.0000000021285
 30
0.0
 11
0.3229999895793227
 21
0.0000000021285
 31
0.0
  0
LINE
  5
9A6
330
9A4
100
AcDbEntity
  8
0
100
AcDbLine
 10
3.253499989579381
 20
0.3110000021285
 30
0.0
 11
0.4719999895793308
 21
0.3110000021285
 31
0.0
  0
LINE
  5
9A7
330
9A4
100
AcDbEntity
  8
0
100
AcDbLine
 10
3.373999989579374
 20
0.1205000021285016
 30
0.0
 11
3.373999989579374
 21
0.1905000021285001
 31
0.0
  0
ARC
  5
9A8
330
9A4
100
AcDbEntity
  8
0
100
AcDbCircle
 10
0.5078057429737122
 20
-0.502315340256379
 30
0.0
 40
0.8141031250000029
100
AcDbArc
 50
92.52078695624824
 51
128.5913034829189
  0
ARC
  5
9A9
330
9A4
100
AcDbEntity
  8
0
100
AcDbCircle
 10
0.0118740707862202
 20
-0.0780302730723541
 30
0.0
 40
0.2123625000000159
100
AcDbArc
 50
43.07360366990042
 51
93.20531985652186
  0
ARC
  5
9AA
330
9A4
100
AcDbEntity
  8
0
100
AcDbCircle
 10
0.3160879185601928
 20
0.1990181651286154
 30
0.0
 40
0.1991381578947491
100
AcDbArc
 50
221.5250625290709
 51
271.989131899025
  0
ARC
  5
9AB
330
9A4
100
AcDbEntity
  8
0
100
AcDbCircle
 10
3.253499989579381
 20
0.1905000021285001
 30
0.0
 40
0.1204999999999998
100
AcDbArc
 50
0.0
 51
90.0
  0
ARC
  5
9AC
330
9A4
100
AcDbEntity
  8
0
100
AcDbCircle
 10
3.253499989579381
 20
0.1205000021284999
 30
0.0
 40
0.1204999999999998
100
AcDbArc
 50
270.0
 51
0.0000000000010178
  0
ENDBLK
  5
9B0
330
9A4
100
AcDbEntity
  8
0
100
AcDbBlockEnd
  0
BLOCK
  5
9BC
330
9B1
100
AcDbEntity
  8
0
100
AcDbBlockBegin
  2
*D1
 70
     1
 10
0.0
 20
0.0
 30
0.0
  3
*D1
  1

  0
LINE
  5
9B2
330
9B1
100
AcDbEntity
  8
0
 62
     0
370
    -2
100
AcDbLine
 10
24.37285187699105
 20
4.846800853362636
 30
0.0
 11
24.37285187699105
 21
5.142679484341527
 31
0.0
  0
LINE
  5
9B3
330
9B1
100
AcDbEntity
  8
0
 62
     0
370
    -2
100
AcDbLine
 10
21.57235591469699
 20
4.846800853362636
 30
0.0
 11
21.57235591469699
 21
5.142679484341527
 31
0.0
  0
LINE
  5
9B4
330
9B1
100
AcDbEntity
  8
0
 62
     0
370
    -2
100
AcDbLine
 10
24.29785187699105
 20
4.962679484341528
 30
0.0
 11
23.27140335014143
 21
4.962679484341528
 31
0.0
  0
LINE
  5
9B5
330
9B1
100
AcDbEntity
  8
0
 62
     0
370
    -2
100
AcDbLine
 10
21.64735591469698
 20
4.962679484341528
 30
0.0
 11
22.67380444154661
 21
4.962679484341528
 31
0.0
  0
SOLID
  5
9B6
330
9B1
100
AcDbEntity
  8
0
 62
     0
100
AcDbTrace
 10
24.29785187699105
 20
4.975179484341528
 30
0.0
 11
24.29785187699105
 21
4.950179484341528
 31
0.0
 12
24.37285187699105
 22
4.962679484341528
 32
0.0
 13
24.37285187699105
 23
4.962679484341528
 33
0.0
  0
SOLID
  5
9B7
330
9B1
100
AcDbEntity
  8
0
 62
     0
100
AcDbTrace
 10
21.64735591469698
 20
4.975179484341528
 30
0.0
 11
21.64735591469698
 21
4.950179484341528
 31
0.0
 12
21.57235591469699
 22
4.962679484341528
 32
0.0
 13
21.57235591469699
 23
4.962679484341528
 33
0.0
  0
MTEXT
  5
9B8
330
9B1
100
AcDbEntity
  8
0
 62
     0
100
AcDbMText
 10
22.97260389584402
 20
4.962679484341528
 30
0.0
 40
0.1
 41
0.0
 46
0.0
 71
     5
 72
     1
  1
\A1;2.8005
  7
small
 73
     1
 44
1.0
  0
POINT
  5
9B9
330
9B1
100
AcDbEntity
  8
Defpoints
 62
     0
100
AcDbPoint
 10
24.37285187699105
 20
4.784300853362636
 30
0.0
  0
POINT
  5
9BA
330
9B1
100
AcDbEntity
  8
Defpoints
 62
     0
100
AcDbPoint
 10
21.57235591469699
 20
4.784300853362636
 30
0.0
  0
POINT
  5
9BB
330
9B1
100
AcDbEntity
  8
Defpoints
 62
     0
100
AcDbPoint
 10
21.57235591469699
 20
4.962679484341528
 30
0.0
  0
ENDBLK
  5
9BD
330
9B1
100
AcDbEntity
  8
0
100
AcDbBlockEnd
  0
BLOCK
  5
9CA
330
9BE
100
AcDbEntity
  8
0
100
AcDbBlockBegin
  2
*D2
 70
     1
 10
0.0
 20
0.0
 30
0.0
  3
*D2
  1

  0
LINE
  5
9BF
330
9BE
100
AcDbEntity
  8
0
 62
     0
370
    -2
100
AcDbLine
 10
21.10035591469701
 20
4.669800853362635
 30
0.0
 11
21.10035591469701
 21
5.149449103713417
 31
0.0
  0
LINE
  5
9C0
330
9BE
100
AcDbEntity
  8
0
 62
     0
370
    -2
100
AcDbLine
 10
21.57235591469699
 20
5.025179484341528
 30
0.0
 11
21.57235591469699
 21
5.149449103713417
 31
0.0
  0
LINE
  5
9C1
330
9BE
100
AcDbEntity
  8
0
 62
     0
370
    -2
100
AcDbLine
 10
21.17535591469701
 20
4.969449103713417
 30
0.0
 11
21.49735591469699
 21
4.969449103713417
 31
0.0
  0
LINE
  5
9C2
330
9BE
100
AcDbEntity
  8
0
 62
     0
370
    -2
100
AcDbLine
 10
21.33635591469699
 20
4.969449103713417
 30
0.0
 11
21.33635591469699
 21
5.296563701257755
 31
0.0
  0
LINE
  5
9C3
330
9BE
100
AcDbEntity
  8
0
 62
     0
370
    -2
100
AcDbLine
 10
21.33635591469699
 20
5.296563701257755
 30
0.0
 11
21.516355914697
 21
5.296563701257755
 31
0.0
  0
MTEXT
  5
9C4
330
9BE
100
AcDbEntity
  8
0
 62
     0
100
AcDbMText
 10
21.81375700610218
 20
5.296563701257755
 30
0.0
 40
0.1
 41
0.0
 46
0.0
 71
     5
 72
     1
  1
\A1;0.4720
  7
small
 73
     1
 44
1.0
  0
SOLID
  5
9C5
330
9BE
100
AcDbEntity
  8
0
 62
     0
100
AcDbTrace
 10
21.17535591469701
 20
4.981949103713417
 30
0.0
 11
21.17535591469701
 21
4.956949103713417
 31
0.0
 12
21.10035591469701
 22
4.969449103713417
 32
0.0
 13
21.10035591469701
 23
4.969449103713417
 33
0.0
  0
SOLID
  5
9C6
330
9BE
100
AcDbEntity
  8
0
 62
     0
100
AcDbTrace
 10
21.49735591469699
 20
4.981949103713417
 30
0.0
 11
21.49735591469699
 21
4.956949103713417
 31
0.0
 12
21.57235591469699
 22
4.969449103713417
 32
0.0
 13
21.57235591469699
 23
4.969449103713417
 33
0.0
  0
POINT
  5
9C7
330
9BE
100
AcDbEntity
  8
Defpoints
 62
     0
100
AcDbPoint
 10
21.10035591469701
 20
4.607300853362635
 30
0.0
  0
POINT
  5
9C8
330
9BE
100
AcDbEntity
  8
Defpoints
 62
     0
100
AcDbPoint
 10
21.57235591469699
 20
4.962679484341528
 30
0.0
  0
POINT
  5
9C9
330
9BE
100
AcDbEntity
  8
Defpoints
 62
     0
100
AcDbPoint
 10
21.57235591469699
 20
4.969449103713417
 30
0.0
  0
ENDBLK
  5
9CB
330
9BE
100
AcDbEntity
  8
0
100
AcDbBlockEnd
  0
BLOCK
  5
9D7
330
9CC
100
AcDbEntity
  8
0
100
AcDbBlockBegin
  2
*D3
 70
     1
 10
0.0
 20
0.0
 30
0.0
  3
*D3
  1

  0
LINE
  5
9CD
330
9CC
100
AcDbEntity
  8
0
 62
     0
370
    -2
100
AcDbLine
 10
21.10035591469702
 20
4.151561370342107
 30
0.0
 11
21.10035591469702
 21
3.461678631460822
 31
0.0
  0
LINE
  5
9CE
330
9CC
100
AcDbEntity
  8
0
 62
     0
370
    -2
100
AcDbLine
 10
24.47435591469703
 20
4.151561370342107
 30
0.0
 11
24.47435591469703
 21
3.461678631460822
 31
0.0
  0
LINE
  5
9CF
330
9CC
100
AcDbEntity
  8
0
 62
     0
370
    -2
100
AcDbLine
 10
21.17535591469702
 20
3.641678631460822
 30
0.0
 11
22.48998892970385
 21
3.641678631460822
 31
0.0
  0
LINE
  5
9D0
330
9CC
100
AcDbEntity
  8
0
 62
     0
370
    -2
100
AcDbLine
 10
24.39935591469703
 20
3.641678631460822
 30
0.0
 11
23.0847228996902
 21
3.641678631460822
 31
0.0
  0
SOLID
  5
9D1
330
9CC
100
AcDbEntity
  8
0
 62
     0
100
AcDbTrace
 10
21.17535591469702
 20
3.654178631460822
 30
0.0
 11
21.17535591469702
 21
3.629178631460821
 31
0.0
 12
21.10035591469702
 22
3.641678631460822
 32
0.0
 13
21.10035591469702
 23
3.641678631460822
 33
0.0
  0
SOLID
  5
9D2
330
9CC
100
AcDbEntity
  8
0
 62
     0
100
AcDbTrace
 10
24.39935591469703
 20
3.654178631460822
 30
0.0
 11
24.39935591469703
 21
3.629178631460821
 31
0.0
 12
24.47435591469703
 22
3.641678631460822
 32
0.0
 13
24.47435591469703
 23
3.641678631460822
 33
0.0
  0
MTEXT
  5
9D3
330
9CC
100
AcDbEntity
  8
0
 62
     0
100
AcDbMText
 10
22.78735591469702
 20
3.641678631460822
 30
0.0
 40
0.1
 41
0.0
 46
0.0
 71
     5
 72
     1
  1
\A1;3.3740
  7
small
 73
     1
 44
1.0
  0
POINT
  5
9D4
330
9CC
100
AcDbEntity
  8
Defpoints
 62
     0
100
AcDbPoint
 10
21.10035591469702
 20
4.214061370342107
 30
0.0
  0
POINT
  5
9D5
330
9CC
100
AcDbEntity
  8
Defpoints
 62
     0
100
AcDbPoint
 10
24.47435591469703
 20
4.214061370342107
 30
0.0
  0
POINT
  5
9D6
330
9CC
100
AcDbEntity
  8
Defpoints
 62
     0
100
AcDbPoint
 10
24.47435591469703
 20
3.641678631460822
 30
0.0
  0
ENDBLK
  5
9D8
330
9CC
100
AcDbEntity
  8
0
100
AcDbBlockEnd
  0
BLOCK
  5
9E3
330
9D9
100
AcDbEntity
  8
0
100
AcDbBlockBegin
  2
*D4
 70
     1
 10
0.0
 20
0.0
 30
0.0
  3
*D4
  1

  0
LINE
  5
9DA
330
9D9
100
AcDbEntity
  8
0
 62
     0
370
    -2
100
AcDbLine
 10
21.10035591469702
 20
4.151561370342107
 30
0.0
 11
21.10035591469702
 21
3.899836661349624
 31
0.0
  0
LINE
  5
9DB
330
9D9
100
AcDbEntity
  8
0
 62
     0
370
    -2
100
AcDbLine
 10
21.26735591469703
 20
4.151561370342107
 30
0.0
 11
21.26735591469703
 21
3.899836661349624
 31
0.0
  0
LINE
  5
9DC
330
9D9
100
AcDbEntity
  8
0
 62
     0
370
    -2
100
AcDbLine
 10
21.18385591469703
 20
4.079836661349624
 30
0.0
 11
21.18385591469703
 21
3.701664765033116
 31
0.0
  0
LINE
  5
9DD
330
9D9
100
AcDbEntity
  8
0
 62
     0
370
    -2
100
AcDbLine
 10
21.18385591469703
 20
3.701664765033116
 30
0.0
 11
21.36385591469703
 21
3.701664765033116
 31
0.0
  0
MTEXT
  5
9DE
330
9D9
100
AcDbEntity
  8
0
 62
     0
100
AcDbMText
 10
21.66125700610221
 20
3.701664765033116
 30
0.0
 40
0.1
 41
0.0
 46
0.0
 71
     5
 72
     1
  1
\A1;0.1670
  7
small
 73
     1
 44
1.0
  0
LINE
  5
9DF
330
9D9
100
AcDbEntity
  8
0
 62
     0
370
    -2
100
AcDbLine
 10
21.10035591469702
 20
4.079836661349624
 30
0.0
 11
21.26735591469703
 21
4.079836661349624
 31
0.0
  0
POINT
  5
9E0
330
9D9
100
AcDbEntity
  8
Defpoints
 62
     0
100
AcDbPoint
 10
21.10035591469702
 20
4.214061370342107
 30
0.0
  0
POINT
  5
9E1
330
9D9
100
AcDbEntity
  8
Defpoints
 62
     0
100
AcDbPoint
 10
21.26735591469703
 20
4.214061370342107
 30
0.0
  0
POINT
  5
9E2
330
9D9
100
AcDbEntity
  8
Defpoints
 62
     0
100
AcDbPoint
 10
21.26735591469703
 20
4.079836661349624
 30
0.0
  0
ENDBLK
  5
9E4
330
9D9
100
AcDbEntity
  8
0
100
AcDbBlockEnd
  0
BLOCK
  5
9EC
330
9E5
100
AcDbEntity
  8
0
100
AcDbBlockBegin
  2
*D5
 70
     1
 10
0.0
 20
0.0
 30
0.0
  3
*D5
  1

  0
LINE
  5
9E6
330
9E5
100
AcDbEntity
  8
0
 62
     0
370
    -2
100
AcDbLine
 10
21.26735591469703
 20
4.151561370342107
 30
0.0
 11
21.26735591469703
 21
3.899836661349624
 31
0.0
  0
LINE
  5
9E7
330
9E5
100
AcDbEntity
  8
0
 62
     0
370
    -2
100
AcDbLine
 10
21.41645197859211
 20
4.151561370342107
 30
0.0
 11
21.41645197859211
 21
3.899836661349624
 31
0.0
  0
MTEXT
  5
9E8
330
9E5
100
AcDbEntity
  8
0
 62
     0
100
AcDbMText
 10
21.61190394664457
 20
3.803779362577455
 30
0.0
 40
0.1
 41
0.0
 46
0.0
 71
     5
 72
     1
  1
\A1;0.1491
  7
small
 73
     1
 44
1.0
  0
POINT
  5
9E9
330
9E5
100
AcDbEntity
  8
Defpoints
 62
     0
100
AcDbPoint
 10
21.26735591469703
 20
4.214061370342107
 30
0.0
  0
POINT
  5
9EA
330
9E5
100
AcDbEntity
  8
Defpoints
 62
     0
100
AcDbPoint
 10
21.41645197859211
 20
4.214061370342107
 30
0.0
  0
POINT
  5
9EB
330
9E5
100
AcDbEntity
  8
Defpoints
 62
     0
100
AcDbPoint
 10
21.41645197859211
 20
4.079836661349624
 30
0.0
  0
ENDBLK
  5
9ED
330
9E5
100
AcDbEntity
  8
0
100
AcDbBlockEnd
  0
BLOCK
  5
9F9
330
9EE
100
AcDbEntity
  8
0
100
AcDbBlockBegin
  2
*D6
 70
     1
 10
0.0
 20
0.0
 30
0.0
  3
*D6
  1

  0
LINE
  5
9EF
330
9EE
100
AcDbEntity
  8
0
 62
     0
370
    -2
100
AcDbLine
 10
21.41645197859211
 20
4.151561370342107
 30
0.0
 11
21.41645197859211
 21
3.899836661349624
 31
0.0
  0
LINE
  5
9F0
330
9EE
100
AcDbEntity
  8
0
 62
     0
370
    -2
100
AcDbLine
 10
24.35385591469704
 20
4.151561370342107
 30
0.0
 11
24.35385591469704
 21
3.899836661349624
 31
0.0
  0
LINE
  5
9F1
330
9EE
100
AcDbEntity
  8
0
 62
     0
370
    -2
100
AcDbLine
 10
21.49145197859211
 20
4.079836661349624
 30
0.0
 11
22.58693430135126
 21
4.079836661349624
 31
0.0
  0
LINE
  5
9F2
330
9EE
100
AcDbEntity
  8
0
 62
     0
370
    -2
100
AcDbLine
 10
24.27885591469704
 20
4.079836661349624
 30
0.0
 11
23.18337359193789
 21
4.079836661349624
 31
0.0
  0
SOLID
  5
9F3
330
9EE
100
AcDbEntity
  8
0
 62
     0
100
AcDbTrace
 10
21.49145197859211
 20
4.092336661349624
 30
0.0
 11
21.49145197859211
 21
4.067336661349624
 31
0.0
 12
21.41645197859211
 22
4.079836661349624
 32
0.0
 13
21.41645197859211
 23
4.079836661349624
 33
0.0
  0
SOLID
  5
9F4
330
9EE
100
AcDbEntity
  8
0
 62
     0
100
AcDbTrace
 10
24.27885591469704
 20
4.092336661349624
 30
0.0
 11
24.27885591469704
 21
4.067336661349624
 31
0.0
 12
24.35385591469704
 22
4.079836661349624
 32
0.0
 13
24.35385591469704
 23
4.079836661349624
 33
0.0
  0
MTEXT
  5
9F5
330
9EE
100
AcDbEntity
  8
0
 62
     0
100
AcDbMText
 10
22.88515394664457
 20
4.079836661349624
 30
0.0
 40
0.1
 41
0.0
 46
0.0
 71
     5
 72
     1
  1
\A1;2.9374
  7
small
 73
     1
 44
1.0
  0
POINT
  5
9F6
330
9EE
100
AcDbEntity
  8
Defpoints
 62
     0
100
AcDbPoint
 10
21.41645197859211
 20
4.214061370342107
 30
0.0
  0
POINT
  5
9F7
330
9EE
100
AcDbEntity
  8
Defpoints
 62
     0
100
AcDbPoint
 10
24.35385591469704
 20
4.214061370342107
 30
0.0
  0
POINT
  5
9F8
330
9EE
100
AcDbEntity
  8
Defpoints
 62
     0
100
AcDbPoint
 10
24.35385591469704
 20
4.079836661349624
 30
0.0
  0
ENDBLK
  5
9FA
330
9EE
100
AcDbEntity
  8
0
100
AcDbBlockEnd
  0
BLOCK
  5
A05
330
9FB
100
AcDbEntity
  8
0
100
AcDbBlockBegin
  2
*D7
 70
     1
 10
0.0
 20
0.0
 30
0.0
  3
*D7
  1

  0
LINE
  5
9FC
330
9FB
100
AcDbEntity
  8
0
 62
     0
370
    -2
100
AcDbLine
 10
24.35385591469704
 20
4.151561370342107
 30
0.0
 11
24.35385591469704
 21
3.899836661349624
 31
0.0
  0
LINE
  5
9FD
330
9FB
100
AcDbEntity
  8
0
 62
     0
370
    -2
100
AcDbLine
 10
24.47435591469703
 20
4.151561370342107
 30
0.0
 11
24.47435591469703
 21
3.899836661349624
 31
0.0
  0
LINE
  5
9FE
330
9FB
100
AcDbEntity
  8
0
 62
     0
370
    -2
100
AcDbLine
 10
24.41410591469703
 20
4.079836661349624
 30
0.0
 11
24.41410591469703
 21
3.701664765033116
 31
0.0
  0
LINE
  5
9FF
330
9FB
100
AcDbEntity
  8
0
 62
     0
370
    -2
100
AcDbLine
 10
24.41410591469703
 20
3.701664765033116
 30
0.0
 11
24.59410591469703
 21
3.701664765033116
 31
0.0
  0
MTEXT
  5
A00
330
9FB
100
AcDbEntity
  8
0
 62
     0
100
AcDbMText
 10
24.8920527086943
 20
3.701664765033116
 30
0.0
 40
0.1
 41
0.0
 46
0.0
 71
     5
 72
     1
  1
\A1;0.1205
  7
small
 73
     1
 44
1.0
  0
LINE
  5
A01
330
9FB
100
AcDbEntity
  8
0
 62
     0
370
    -2
100
AcDbLine
 10
24.35385591469704
 20
4.079836661349624
 30
0.0
 11
24.47435591469703
 21
4.079836661349624
 31
0.0
  0
POINT
  5
A02
330
9FB
100
AcDbEntity
  8
Defpoints
 62
     0
100
AcDbPoint
 10
24.35385591469704
 20
4.214061370342107
 30
0.0
  0
POINT
  5
A03
330
9FB
100
AcDbEntity
  8
Defpoints
 62
     0
100
AcDbPoint
 10
24.47435591469703
 20
4.214061370342107
 30
0.0
  0
POINT
  5
A04
330
9FB
100
AcDbEntity
  8
Defpoints
 62
     0
100
AcDbPoint
 10
24.47435591469703
 20
4.079836661349624
 30
0.0
  0
ENDBLK
  5
A06
330
9FB
100
AcDbEntity
  8
0
100
AcDbBlockEnd
  0
BLOCK
  5
A10
330
A07
100
AcDbEntity
  8
0
100
AcDbBlockBegin
  2
*D8
 70
     1
 10
0.0
 20
0.0
 30
0.0
  3
*D8
  1

  0
LINE
  5
A08
330
A07
100
AcDbEntity
  8
0
 62
     0
370
    -2
100
AcDbLine
 10
21.13464428649994
 20
4.84886860809507
 30
0.0
 11
21.20964428649994
 21
4.848868608095071
 31
0.0
  0
LINE
  5
A09
330
A07
100
AcDbEntity
  8
0
 62
     0
370
    -2
100
AcDbLine
 10
21.20964428649994
 20
4.848868608095071
 30
0.0
 11
21.24064595306892
 21
4.780575880298137
 31
0.0
  0
MTEXT
  5
A0A
330
A07
100
AcDbEntity
  8
0
 62
     0
100
AcDbMText
 10
20.79887348158862
 20
4.848868608095071
 30
0.0
 40
0.1
 41
0.0
 46
0.0
 71
     5
 72
     1
  1
\A1;R0.8141
  7
small
 73
     1
 44
1.0
  0
SOLID
  5
A0B
330
A07
100
AcDbEntity
  8
0
 62
     0
100
AcDbTrace
 10
21.25202807436841
 20
4.7857428247263
 30
0.0
 11
21.22926383176944
 21
4.775408935869975
 31
0.0
 12
21.2716476196379
 22
4.712283152501202
 32
0.0
 13
21.2716476196379
 23
4.712283152501202
 33
0.0
  0
LINE
  5
A0C
330
A07
100
AcDbEntity
  8
0
 62
     0
370
    -2
100
AcDbLine
 10
21.51816166809137
 20
3.970985510977759
 30
0.0
 11
21.69816166809137
 21
3.970985510977759
 31
0.0
  0
LINE
  5
A0D
330
A07
100
AcDbEntity
  8
0
 62
     0
370
    -2
100
AcDbLine
 10
21.60816166809136
 20
3.880985510977757
 30
0.0
 11
21.60816166809137
 21
4.060985510977758
 31
0.0
  0
POINT
  5
A0E
330
A07
100
AcDbEntity
  8
Defpoints
 62
     0
100
AcDbPoint
 10
21.2716476196379
 20
4.712283152501202
 30
0.0
  0
POINT
  5
A0F
330
A07
100
AcDbEntity
  8
Defpoints
 62
     0
100
AcDbPoint
 10
21.60816166809137
 20
3.970985510977759
 30
0.0
  0
ENDBLK
  5
A11
330
A07
100
AcDbEntity
  8
0
100
AcDbBlockEnd
  0
BLOCK
  5
A19
330
A12
100
AcDbEntity
  8
0
100
AcDbBlockBegin
  2
*D9
 70
     1
 10
0.0
 20
0.0
 30
0.0
  3
*D9
  1

  0
LINE
  5
A13
330
A12
100
AcDbEntity
  8
0
 62
     0
370
    -2
100
AcDbLine
 10
21.06100141366542
 20
4.452924728956475
 30
0.0
 11
21.13600141366542
 21
4.452924728956474
 31
0.0
  0
LINE
  5
A14
330
A12
100
AcDbEntity
  8
0
 62
     0
370
    -2
100
AcDbLine
 10
21.13600141366542
 20
4.452924728956474
 30
0.0
 11
21.16459000989098
 21
4.52226225246181
 31
0.0
  0
MTEXT
  5
A15
330
A12
100
AcDbEntity
  8
0
 62
     0
100
AcDbMText
 10
20.71578313262859
 20
4.452924728956477
 30
0.0
 40
0.1
 41
0.0
 46
0.0
 71
     5
 72
     1
  1
\A1;R0.2124
  7
small
 73
     1
 44
1.0
  0
SOLID
  5
A16
330
A12
100
AcDbEntity
  8
0
 62
     0
100
AcDbTrace
 10
21.15303375597342
 20
4.527027018499401
 30
0.0
 11
21.17614626380853
 21
4.517497486424217
 31
0.0
 12
21.19317860611653
 22
4.59159977596714
 32
0.0
 13
21.19317860611653
 23
4.59159977596714
 33
0.0
  0
POINT
  5
A17
330
A12
100
AcDbEntity
  8
Defpoints
 62
     0
100
AcDbPoint
 10
21.19317860611653
 20
4.59159977596714
 30
0.0
  0
POINT
  5
A18
330
A12
100
AcDbEntity
  8
Defpoints
 62
     0
100
AcDbPoint
 10
21.11222999590387
 20
4.395270578161784
 30
0.0
  0
ENDBLK
  5
A1A
330
A12
100
AcDbEntity
  8
0
100
AcDbBlockEnd
  0
BLOCK
  5
A24
330
A1B
100
AcDbEntity
  8
0
100
AcDbBlockBegin
  2
*D10
 70
     1
 10
0.0
 20
0.0
 30
0.0
  3
*D10
  1

  0
LINE
  5
A1C
330
A1B
100
AcDbEntity
  8
0
 62
     0
370
    -2
100
AcDbLine
 10
21.09159879520194
 20
4.300340056785728
 30
0.0
 11
21.16659879520194
 21
4.300340056785726
 31
0.0
  0
LINE
  5
A1D
330
A1B
100
AcDbEntity
  8
0
 62
     0
370
    -2
100
AcDbLine
 10
21.16659879520194
 20
4.300340056785726
 30
0.0
 11
21.26359286293479
 21
4.444748571665257
 31
0.0
  0
MTEXT
  5
A1E
330
A1B
100
AcDbEntity
  8
0
 62
     0
100
AcDbMText
 10
20.75582799029062
 20
4.30034005678573
 30
0.0
 40
0.1
 41
0.0
 46
0.0
 71
     5
 72
     1
  1
\A1;R0.1991
  7
small
 73
     1
 44
1.0
  0
SOLID
  5
A1F
330
A1B
100
AcDbEntity
  8
0
 62
     0
100
AcDbTrace
 10
21.25321623174794
 20
4.451718186088733
 30
0.0
 11
21.27396949412165
 21
4.437778957241784
 31
0.0
 12
21.30541054947565
 22
4.507008358786409
 32
0.0
 13
21.30541054947565
 23
4.507008358786409
 33
0.0
  0
LINE
  5
A20
330
A1B
100
AcDbEntity
  8
0
 62
     0
370
    -2
100
AcDbLine
 10
21.32644384367785
 20
4.672319016362749
 30
0.0
 11
21.50644384367784
 21
4.672319016362749
 31
0.0
  0
LINE
  5
A21
330
A1B
100
AcDbEntity
  8
0
 62
     0
370
    -2
100
AcDbLine
 10
21.41644384367785
 20
4.582319016362749
 30
0.0
 11
21.41644384367785
 21
4.76231901636275
 31
0.0
  0
POINT
  5
A22
330
A1B
100
AcDbEntity
  8
Defpoints
 62
     0
100
AcDbPoint
 10
21.30541054947565
 20
4.507008358786409
 30
0.0
  0
POINT
  5
A23
330
A1B
100
AcDbEntity
  8
Defpoints
 62
     0
100
AcDbPoint
 10
21.41644384367785
 20
4.672319016362749
 30
0.0
  0
ENDBLK
  5
A25
330
A1B
100
AcDbEntity
  8
0
100
AcDbBlockEnd
  0
BLOCK
  5
A30
330
A26
100
AcDbEntity
  8
0
100
AcDbBlockBegin
  2
*D11
 70
     1
 10
0.0
 20
0.0
 30
0.0
  3
*D11
  1

  0
LINE
  5
A27
330
A26
100
AcDbEntity
  8
0
 62
     0
370
    -2
100
AcDbLine
 10
25.05698916678668
 20
4.410800853362636
 30
0.0
 11
25.05698916678668
 21
4.127107797993598
 31
0.0
  0
LINE
  5
A28
330
A26
100
AcDbEntity
  8
0
 62
     0
370
    -2
100
AcDbLine
 10
25.08198916678668
 20
4.410800853362636
 30
0.0
 11
25.08198916678668
 21
4.127107797993598
 31
0.0
  0
LINE
  5
A29
330
A26
100
AcDbEntity
  8
0
 62
     0
370
    -2
100
AcDbLine
 10
25.06948916678668
 20
4.307107797993598
 30
0.0
 11
25.06948916678668
 21
3.877878602904921
 31
0.0
  0
LINE
  5
A2A
330
A26
100
AcDbEntity
  8
0
 62
     0
370
    -2
100
AcDbLine
 10
25.06948916678668
 20
3.877878602904921
 30
0.0
 11
25.24948916678668
 21
3.877878602904921
 31
0.0
  0
MTEXT
  5
A2B
330
A26
100
AcDbEntity
  8
0
 62
     0
100
AcDbMText
 10
25.54689025819186
 20
3.877878602904921
 30
0.0
 40
0.1
 41
0.0
 46
0.0
 71
     5
 72
     1
  1
\A1;0.0250
  7
small
 73
     1
 44
1.0
  0
LINE
  5
A2C
330
A26
100
AcDbEntity
  8
0
 62
     0
370
    -2
100
AcDbLine
 10
25.05698916678668
 20
4.307107797993598
 30
0.0
 11
25.08198916678668
 21
4.307107797993598
 31
0.0
  0
POINT
  5
A2D
330
A26
100
AcDbEntity
  8
Defpoints
 62
     0
100
AcDbPoint
 10
25.05698916678668
 20
4.473300853362636
 30
0.0
  0
POINT
  5
A2E
330
A26
100
AcDbEntity
  8
Defpoints
 62
     0
100
AcDbPoint
 10
25.08198916678668
 20
4.473300853362636
 30
0.0
  0
POINT
  5
A2F
330
A26
100
AcDbEntity
  8
Defpoints
 62
     0
100
AcDbPoint
 10
25.08198916678668
 20
4.307107797993598
 30
0.0
  0
ENDBLK
  5
A31
330
A26
100
AcDbEntity
  8
0
100
AcDbBlockEnd
  0
BLOCK
  5
A39
330
A32
100
AcDbEntity
  8
0
100
AcDbBlockBegin
  2
*D12
 70
     1
 10
0.0
 20
0.0
 30
0.0
  3
*D12
  1

  0
LINE
  5
A33
330
A32
100
AcDbEntity
  8
0
 62
     0
370
    -2
100
AcDbLine
 10
25.14448916678668
 20
4.784300853362636
 30
0.0
 11
25.48691055815882
 21
4.784300853362636
 31
0.0
  0
LINE
  5
A34
330
A32
100
AcDbEntity
  8
0
 62
     0
370
    -2
100
AcDbLine
 10
25.14448916678668
 20
4.473300853362636
 30
0.0
 11
25.48691055815882
 21
4.473300853362636
 31
0.0
  0
MTEXT
  5
A35
330
A32
100
AcDbEntity
  8
0
 62
     0
100
AcDbMText
 10
25.30691055815883
 20
4.62880085336264
 30
0.0
 40
0.1
 41
0.0
 46
0.0
 71
     5
 72
     1
  1
\A1;0.3110
  7
small
 73
     1
 44
1.0
  0
POINT
  5
A36
330
A32
100
AcDbEntity
  8
Defpoints
 62
     0
100
AcDbPoint
 10
25.08198916678668
 20
4.784300853362636
 30
0.0
  0
POINT
  5
A37
330
A32
100
AcDbEntity
  8
Defpoints
 62
     0
100
AcDbPoint
 10
25.08198916678668
 20
4.473300853362636
 30
0.0
  0
POINT
  5
A38
330
A32
100
AcDbEntity
  8
Defpoints
 62
     0
100
AcDbPoint
 10
25.30691055815883
 20
4.473300853362636
 30
0.0
  0
ENDBLK
  5
A3A
330
A32
100
AcDbEntity
  8
0
100
AcDbBlockEnd
  0
BLOCK
  5
A45
330
A3B
100
AcDbEntity
  8
0
100
AcDbBlockBegin
  2
*D13
 70
     1
 10
0.0
 20
0.0
 30
0.0
  3
*D13
  1

  0
LINE
  5
A3C
330
A3B
100
AcDbEntity
  8
0
 62
     0
370
    -2
100
AcDbLine
 10
21.10035591469701
 20
6.126165382729726
 30
0.0
 11
21.10035591469701
 21
6.535825291628722
 31
0.0
  0
LINE
  5
A3D
330
A3B
100
AcDbEntity
  8
0
 62
     0
370
    -2
100
AcDbLine
 10
21.0563558915612
 20
6.120165382729719
 30
0.0
 11
21.0563558915612
 21
6.535825291628722
 31
0.0
  0
LINE
  5
A3E
330
A3B
100
AcDbEntity
  8
0
 62
     0
370
    -2
100
AcDbLine
 10
21.07835590312911
 20
6.355825291628723
 30
0.0
 11
21.07835590312911
 21
6.682939889173061
 31
0.0
  0
LINE
  5
A3F
330
A3B
100
AcDbEntity
  8
0
 62
     0
370
    -2
100
AcDbLine
 10
21.07835590312911
 20
6.682939889173061
 30
0.0
 11
21.25835590312911
 21
6.682939889173061
 31
0.0
  0
MTEXT
  5
A40
330
A3B
100
AcDbEntity
  8
0
 62
     0
100
AcDbMText
 10
21.55575699453429
 20
6.682939889173061
 30
0.0
 40
0.1
 41
0.0
 46
0.0
 71
     5
 72
     1
  1
\A1;0.0440
  7
small
 73
     1
 44
1.0
  0
LINE
  5
A41
330
A3B
100
AcDbEntity
  8
0
 62
     0
370
    -2
100
AcDbLine
 10
21.10035591469701
 20
6.355825291628723
 30
0.0
 11
21.0563558915612
 21
6.355825291628723
 31
0.0
  0
POINT
  5
A42
330
A3B
100
AcDbEntity
  8
Defpoints
 62
     0
100
AcDbPoint
 10
21.10035591469701
 20
6.063665382729726
 30
0.0
  0
POINT
  5
A43
330
A3B
100
AcDbEntity
  8
Defpoints
 62
     0
100
AcDbPoint
 10
21.0563558915612
 20
6.057665382729719
 30
0.0
  0
POINT
  5
A44
330
A3B
100
AcDbEntity
  8
Defpoints
 62
     0
100
AcDbPoint
 10
21.0563558915612
 20
6.355825291628723
 30
0.0
  0
ENDBLK
  5
A46
330
A3B
100
AcDbEntity
  8
0
100
AcDbBlockEnd
  0
BLOCK
  5
A52
330
A47
100
AcDbEntity
  8
0
100
AcDbBlockBegin
  2
*D14
 70
     1
 10
0.0
 20
0.0
 30
0.0
  3
*D14
  1

  0
LINE
  5
A48
330
A47
100
AcDbEntity
  8
0
 62
     0
370
    -2
100
AcDbLine
 10
21.0563558915612
 20
6.120165382729719
 30
0.0
 11
21.0563558915612
 21
6.535825291628722
 31
0.0
  0
LINE
  5
A49
330
A47
100
AcDbEntity
  8
0
 62
     0
370
    -2
100
AcDbLine
 10
19.9263558915612
 20
6.06816538272972
 30
0.0
 11
19.9263558915612
 21
6.535825291628722
 31
0.0
  0
LINE
  5
A4A
330
A47
100
AcDbEntity
  8
0
 62
     0
370
    -2
100
AcDbLine
 10
20.9813558915612
 20
6.355825291628723
 30
0.0
 11
20.78405029810963
 21
6.355825291628723
 31
0.0
  0
LINE
  5
A4B
330
A47
100
AcDbEntity
  8
0
 62
     0
370
    -2
100
AcDbLine
 10
20.0013558915612
 20
6.355825291628723
 30
0.0
 11
20.19866148501277
 21
6.355825291628723
 31
0.0
  0
SOLID
  5
A4C
330
A47
100
AcDbEntity
  8
0
 62
     0
100
AcDbTrace
 10
20.9813558915612
 20
6.368325291628723
 30
0.0
 11
20.9813558915612
 21
6.343325291628723
 31
0.0
 12
21.0563558915612
 22
6.355825291628723
 32
0.0
 13
21.0563558915612
 23
6.355825291628723
 33
0.0
  0
SOLID
  5
A4D
330
A47
100
AcDbEntity
  8
0
 62
     0
100
AcDbTrace
 10
20.0013558915612
 20
6.368325291628723
 30
0.0
 11
20.0013558915612
 21
6.343325291628723
 31
0.0
 12
19.9263558915612
 22
6.355825291628723
 32
0.0
 13
19.9263558915612
 23
6.355825291628723
 33
0.0
  0
MTEXT
  5
A4E
330
A47
100
AcDbEntity
  8
0
 62
     0
100
AcDbMText
 10
20.4913558915612
 20
6.355825291628723
 30
0.0
 40
0.1
 41
0.0
 46
0.0
 71
     5
 72
     1
  1
\A1;1.1300
  7
small
 73
     1
 44
1.0
  0
POINT
  5
A4F
330
A47
100
AcDbEntity
  8
Defpoints
 62
     0
100
AcDbPoint
 10
21.0563558915612
 20
6.057665382729719
 30
0.0
  0
POINT
  5
A50
330
A47
100
AcDbEntity
  8
Defpoints
 62
     0
100
AcDbPoint
 10
19.9263558915612
 20
6.00566538272972
 30
0.0
  0
POINT
  5
A51
330
A47
100
AcDbEntity
  8
Defpoints
 62
     0
100
AcDbPoint
 10
19.9263558915612
 20
6.355825291628723
 30
0.0
  0
ENDBLK
  5
A53
330
A47
100
AcDbEntity
  8
0
100
AcDbBlockEnd
  0
BLOCK
  5
A5E
330
A54
100
AcDbEntity
  8
0
100
AcDbBlockBegin
  2
*D15
 70
     1
 10
0.0
 20
0.0
 30
0.0
  3
*D15
  1

  0
LINE
  5
A55
330
A54
100
AcDbEntity
  8
0
 62
     0
370
    -2
100
AcDbLine
 10
19.9263558915612
 20
6.06816538272972
 30
0.0
 11
19.9263558915612
 21
6.535825291628722
 31
0.0
  0
LINE
  5
A56
330
A54
100
AcDbEntity
  8
0
 62
     0
370
    -2
100
AcDbLine
 10
19.8833558915612
 20
6.108165382729719
 30
0.0
 11
19.8833558915612
 21
6.535825291628722
 31
0.0
  0
LINE
  5
A57
330
A54
100
AcDbEntity
  8
0
 62
     0
370
    -2
100
AcDbLine
 10
19.9048558915612
 20
6.355825291628723
 30
0.0
 11
19.9048558915612
 21
6.683008101997072
 31
0.0
  0
LINE
  5
A58
330
A54
100
AcDbEntity
  8
0
 62
     0
370
    -2
100
AcDbLine
 10
19.9048558915612
 20
6.683008101997072
 30
0.0
 11
20.0848558915612
 21
6.683008101997072
 31
0.0
  0
MTEXT
  5
A59
330
A54
100
AcDbEntity
  8
0
 62
     0
100
AcDbMText
 10
20.38225698296638
 20
6.683008101997072
 30
0.0
 40
0.1
 41
0.0
 46
0.0
 71
     5
 72
     1
  1
\A1;0.0430
  7
small
 73
     1
 44
1.0
  0
LINE
  5
A5A
330
A54
100
AcDbEntity
  8
0
 62
     0
370
    -2
100
AcDbLine
 10
19.9263558915612
 20
6.355825291628723
 30
0.0
 11
19.8833558915612
 21
6.355825291628723
 31
0.0
  0
POINT
  5
A5B
330
A54
100
AcDbEntity
  8
Defpoints
 62
     0
100
AcDbPoint
 10
19.9263558915612
 20
6.00566538272972
 30
0.0
  0
POINT
  5
A5C
330
A54
100
AcDbEntity
  8
Defpoints
 62
     0
100
AcDbPoint
 10
19.8833558915612
 20
6.045665382729719
 30
0.0
  0
POINT
  5
A5D
330
A54
100
AcDbEntity
  8
Defpoints
 62
     0
100
AcDbPoint
 10
19.8833558915612
 20
6.355825291628723
 30
0.0
  0
ENDBLK
  5
A5F
330
A54
100
AcDbEntity
  8
0
100
AcDbBlockEnd
  0
BLOCK
  5
A6A
330
A60
100
AcDbEntity
  8
0
100
AcDbBlockBegin
  2
*D16
 70
     1
 10
0.0
 20
0.0
 30
0.0
  3
*D16
  1

  0
LINE
  5
A61
330
A60
100
AcDbEntity
  8
0
 62
     0
370
    -2
100
AcDbLine
 10
19.8833558915612
 20
6.108165382729719
 30
0.0
 11
19.8833558915612
 21
6.535825291628722
 31
0.0
  0
LINE
  5
A62
330
A60
100
AcDbEntity
  8
0
 62
     0
370
    -2
100
AcDbLine
 10
19.8113558915612
 20
6.02716538272972
 30
0.0
 11
19.8113558915612
 21
6.535825291628722
 31
0.0
  0
LINE
  5
A63
330
A60
100
AcDbEntity
  8
0
 62
     0
370
    -2
100
AcDbLine
 10
19.8473558915612
 20
6.355825291628723
 30
0.0
 11
19.8473558915612
 21
6.829906241439856
 31
0.0
  0
LINE
  5
A64
330
A60
100
AcDbEntity
  8
0
 62
     0
370
    -2
100
AcDbLine
 10
19.8473558915612
 20
6.829906241439856
 30
0.0
 11
20.0273558915612
 21
6.829906241439856
 31
0.0
  0
MTEXT
  5
A65
330
A60
100
AcDbEntity
  8
0
 62
     0
100
AcDbMText
 10
20.32475698296638
 20
6.829906241439856
 30
0.0
 40
0.1
 41
0.0
 46
0.0
 71
     5
 72
     1
  1
\A1;0.0720
  7
small
 73
     1
 44
1.0
  0
LINE
  5
A66
330
A60
100
AcDbEntity
  8
0
 62
     0
370
    -2
100
AcDbLine
 10
19.8833558915612
 20
6.355825291628723
 30
0.0
 11
19.8113558915612
 21
6.355825291628723
 31
0.0
  0
POINT
  5
A67
330
A60
100
AcDbEntity
  8
Defpoints
 62
     0
100
AcDbPoint
 10
19.8833558915612
 20
6.045665382729719
 30
0.0
  0
POINT
  5
A68
330
A60
100
AcDbEntity
  8
Defpoints
 62
     0
100
AcDbPoint
 10
19.8113558915612
 20
5.96466538272972
 30
0.0
  0
POINT
  5
A69
330
A60
100
AcDbEntity
  8
Defpoints
 62
     0
100
AcDbPoint
 10
19.8113558915612
 20
6.355825291628723
 30
0.0
  0
ENDBLK
  5
A6B
330
A60
100
AcDbEntity
  8
0
100
AcDbBlockEnd
  0
BLOCK
  5
A77
330
A6C
100
AcDbEntity
  8
0
100
AcDbBlockBegin
  2
*D17
 70
     1
 10
0.0
 20
0.0
 30
0.0
  3
*D17
  1

  0
LINE
  5
A6D
330
A6C
100
AcDbEntity
  8
0
 62
     0
370
    -2
100
AcDbLine
 10
19.8113558915612
 20
5.90216538272972
 30
0.0
 11
19.8113558915612
 21
5.676820102778353
 31
0.0
  0
LINE
  5
A6E
330
A6C
100
AcDbEntity
  8
0
 62
     0
370
    -2
100
AcDbLine
 10
21.30351002174753
 20
5.90216538272972
 30
0.0
 11
21.30351002174753
 21
5.676820102778353
 31
0.0
  0
LINE
  5
A6F
330
A6C
100
AcDbEntity
  8
0
 62
     0
370
    -2
100
AcDbLine
 10
19.8863558915612
 20
5.856820102778352
 30
0.0
 11
20.26507961422599
 21
5.856820102778352
 31
0.0
  0
LINE
  5
A70
330
A6C
100
AcDbEntity
  8
0
 62
     0
370
    -2
100
AcDbLine
 10
21.22851002174753
 20
5.856820102778352
 30
0.0
 11
20.84978629908274
 21
5.856820102778352
 31
0.0
  0
SOLID
  5
A71
330
A6C
100
AcDbEntity
  8
0
 62
     0
100
AcDbTrace
 10
19.8863558915612
 20
5.869320102778353
 30
0.0
 11
19.8863558915612
 21
5.844320102778352
 31
0.0
 12
19.8113558915612
 22
5.856820102778352
 32
0.0
 13
19.8113558915612
 23
5.856820102778352
 33
0.0
  0
SOLID
  5
A72
330
A6C
100
AcDbEntity
  8
0
 62
     0
100
AcDbTrace
 10
21.22851002174753
 20
5.869320102778353
 30
0.0
 11
21.22851002174753
 21
5.844320102778352
 31
0.0
 12
21.30351002174753
 22
5.856820102778352
 32
0.0
 13
21.30351002174753
 23
5.856820102778352
 33
0.0
  0
MTEXT
  5
A73
330
A6C
100
AcDbEntity
  8
0
 62
     0
100
AcDbMText
 10
20.55743295665437
 20
5.856820102778352
 30
0.0
 40
0.1
 41
0.0
 46
0.0
 71
     5
 72
     1
  1
\A1;1.4922
  7
small
 73
     1
 44
1.0
  0
POINT
  5
A74
330
A6C
100
AcDbEntity
  8
Defpoints
 62
     0
100
AcDbPoint
 10
19.8113558915612
 20
5.96466538272972
 30
0.0
  0
POINT
  5
A75
330
A6C
100
AcDbEntity
  8
Defpoints
 62
     0
100
AcDbPoint
 10
21.30351002174753
 20
5.96466538272972
 30
0.0
  0
POINT
  5
A76
330
A6C
100
AcDbEntity
  8
Defpoints
 62
     0
100
AcDbPoint
 10
21.30351002174753
 20
5.856820102778352
 30
0.0
  0
ENDBLK
  5
A78
330
A6C
100
AcDbEntity
  8
0
100
AcDbBlockEnd
  0
BLOCK
  5
A83
330
A79
100
AcDbEntity
  8
0
100
AcDbBlockBegin
  2
*D18
 70
     1
 10
0.0
 20
0.0
 30
0.0
  3
*D18
  1

  0
LINE
  5
A7A
330
A79
100
AcDbEntity
  8
0
 62
     0
370
    -2
100
AcDbLine
 10
19.8208558915612
 20
6.045665382729719
 30
0.0
 11
19.53950007245248
 21
6.045665382729719
 31
0.0
  0
LINE
  5
A7B
330
A79
100
AcDbEntity
  8
0
 62
     0
370
    -2
100
AcDbLine
 10
19.7488558915612
 20
5.96466538272972
 30
0.0
 11
19.53950007245248
 21
5.96466538272972
 31
0.0
  0
LINE
  5
A7C
330
A79
100
AcDbEntity
  8
0
 62
     0
370
    -2
100
AcDbLine
 10
19.71950007245248
 20
6.005165382729719
 30
0.0
 11
19.39238547490814
 21
6.005165382729719
 31
0.0
  0
LINE
  5
A7D
330
A79
100
AcDbEntity
  8
0
 62
     0
370
    -2
100
AcDbLine
 10
19.39238547490814
 20
6.005165382729719
 30
0.0
 11
19.21238547490814
 21
6.005165382729719
 31
0.0
  0
MTEXT
  5
A7E
330
A79
100
AcDbEntity
  8
0
 62
     0
100
AcDbMText
 10
18.91498438350296
 20
6.005165382729723
 30
0.0
 40
0.1
 41
0.0
 46
0.0
 71
     5
 72
     1
  1
\A1;0.0810
  7
small
 73
     1
 44
1.0
  0
LINE
  5
A7F
330
A79
100
AcDbEntity
  8
0
 62
     0
370
    -2
100
AcDbLine
 10
19.71950007245248
 20
6.045665382729719
 30
0.0
 11
19.71950007245248
 21
5.96466538272972
 31
0.0
  0
POINT
  5
A80
330
A79
100
AcDbEntity
  8
Defpoints
 62
     0
100
AcDbPoint
 10
19.8833558915612
 20
6.045665382729719
 30
0.0
  0
POINT
  5
A81
330
A79
100
AcDbEntity
  8
Defpoints
 62
     0
100
AcDbPoint
 10
19.8113558915612
 20
5.96466538272972
 30
0.0
  0
POINT
  5
A82
330
A79
100
AcDbEntity
  8
Defpoints
 62
     0
100
AcDbPoint
 10
19.71950007245248
 20
5.96466538272972
 30
0.0
  0
ENDBLK
  5
A84
330
A79
100
AcDbEntity
  8
0
100
AcDbBlockEnd
  0
BLOCK
  5
AD8
330
A92
100
AcDbEntity
  8
0
100
AcDbBlockBegin
  2
smaller diamond
 70
     0
 10
0.0
 20
0.0
 30
0.0
  3
smaller diamond
  1

  0
LINE
  5
A93
330
A92
100
AcDbEntity
  8
0
100
AcDbLine
 10
24.35385591469704
 20
4.473300853362636
 30
0.0
 11
21.42335591469698
 21
4.473300853362636
 31
0.0
  0
LINE
  5
A94
330
A92
100
AcDbEntity
  8
0
100
AcDbLine
 10
24.35385591469704
 20
4.784300853362636
 30
0.0
 11
21.57235591469699
 21
4.784300853362636
 31
0.0
  0
LINE
  5
A95
330
A92
100
AcDbEntity
  8
0
100
AcDbLine
 10
24.47435591469703
 20
4.593800853362638
 30
0.0
 11
24.47435591469703
 21
4.663800853362636
 31
0.0
  0
ARC
  5
A96
330
A92
100
AcDbEntity
  8
0
100
AcDbCircle
 10
21.60816166809137
 20
3.970985510977757
 30
0.0
 40
0.8141031250000029
100
AcDbArc
 50
92.5207869562482
 51
128.5913034829189
  0
ARC
  5
A97
330
A92
100
AcDbEntity
  8
0
100
AcDbCircle
 10
21.11222999590387
 20
4.395270578161782
 30
0.0
 40
0.2123625000000159
100
AcDbArc
 50
43.07360366990042
 51
93.20531985652186
  0
ARC
  5
A98
330
A92
100
AcDbEntity
  8
0
100
AcDbCircle
 10
21.41644384367785
 20
4.672319016362751
 30
0.0
 40
0.1991381578947491
100
AcDbArc
 50
221.5250625290709
 51
271.989131899025
  0
ARC
  5
A99
330
A92
100
AcDbEntity
  8
0
100
AcDbCircle
 10
24.35385591469704
 20
4.663800853362636
 30
0.0
 40
0.1204999999999998
100
AcDbArc
 50
0.0
 51
90.0
  0
ARC
  5
A9A
330
A92
100
AcDbEntity
  8
0
100
AcDbCircle
 10
24.35385591469704
 20
4.593800853362636
 30
0.0
 40
0.1204999999999998
100
AcDbArc
 50
270.0
 51
0.0000000000010178
  0
LINE
  5
A9B
330
A92
100
AcDbEntity
  8
0
100
AcDbLine
 10
25.08198916678668
 20
4.473300853362636
 30
0.0
 11
25.05698916678668
 21
4.473300853362636
 31
0.0
  0
LINE
  5
A9C
330
A92
100
AcDbEntity
  8
0
100
AcDbLine
 10
25.08198916678668
 20
4.784300853362636
 30
0.0
 11
25.05698916678668
 21
4.784300853362636
 31
0.0
  0
LINE
  5
A9D
330
A92
100
AcDbEntity
  8
0
100
AcDbLine
 10
25.08198916678668
 20
4.473300853362636
 30
0.0
 11
25.08198916678668
 21
4.784300853362636
 31
0.0
  0
LINE
  5
A9E
330
A92
100
AcDbEntity
  8
0
100
AcDbLine
 10
25.05698916678668
 20
4.593800853362636
 30
0.0
 11
25.08198916678668
 21
4.593800853362636
 31
0.0
  0
LINE
  5
A9F
330
A92
100
AcDbEntity
  8
0
100
AcDbLine
 10
25.05698916678668
 20
4.663800853362642
 30
0.0
 11
25.08198916678668
 21
4.663800853362642
 31
0.0
  0
LINE
  5
AA0
330
A92
100
AcDbEntity
  8
0
100
AcDbLine
 10
25.05698916678668
 20
4.473300853362636
 30
0.0
 11
25.05698916678668
 21
4.784300853362636
 31
0.0
  0
LINE
  5
AA1
330
A92
100
AcDbEntity
  8
0
100
AcDbLine
 10
21.10035591469702
 20
4.239061370342107
 30
0.0
 11
21.10035591469702
 21
4.214061370342107
 31
0.0
  0
LINE
  5
AA2
330
A92
100
AcDbEntity
  8
0
100
AcDbLine
 10
24.47435591469703
 20
4.239061370342107
 30
0.0
 11
24.47435591469703
 21
4.214061370342107
 31
0.0
  0
LINE
  5
AA3
330
A92
100
AcDbEntity
  8
0
100
AcDbLine
 10
24.47435591469703
 20
4.239061370342107
 30
0.0
 11
21.10035591469702
 21
4.239061370342107
 31
0.0
  0
LINE
  5
AA4
330
A92
100
AcDbEntity
  8
0
100
AcDbLine
 10
24.47435591469703
 20
4.214061370342107
 30
0.0
 11
21.10035591469702
 21
4.214061370342107
 31
0.0
  0
LINE
  5
AA5
330
A92
100
AcDbEntity
  8
0
100
AcDbLine
 10
24.35385591469704
 20
4.214061370342107
 30
0.0
 11
24.35385591469704
 21
4.239061370342107
 31
0.0
  0
LINE
  5
AA6
330
A92
100
AcDbEntity
  8
0
100
AcDbLine
 10
21.41645197859211
 20
4.214061370342107
 30
0.0
 11
21.41645197859211
 21
4.239061370342107
 31
0.0
  0
LINE
  5
AA7
330
A92
100
AcDbEntity
  8
0
100
AcDbLine
 10
21.26735591469703
 20
4.214061370342107
 30
0.0
 11
21.26735591469703
 21
4.239061370342107
 31
0.0
  0
DIMENSION
  5
AA8
102
{ACAD_XDICTIONARY
360
AA9
102
}
330
A92
100
AcDbEntity
  8
0
100
AcDbDimension
  2
*D1
 10
21.57235591469699
 20
4.962679484341528
 30
0.0
 11
22.97260389584402
 21
4.962679484341528
 31
0.0
 70
    32
 71
     5
 42
2.800495962294064
 73
     0
 74
     0
 75
     0
  3
small
100
AcDbAlignedDimension
 13
24.37285187699105
 23
4.784300853362636
 33
0.0
 14
21.57235591469699
 24
4.784300853362636
 34
0.0
100
AcDbRotatedDimension
  0
DIMENSION
  5
AAA
102
{ACAD_XDICTIONARY
360
AAB
102
}
330
A92
100
AcDbEntity
  8
0
100
AcDbDimension
  2
*D2
 10
21.57235591469699
 20
4.969449103713417
 30
0.0
 11
21.60635591469699
 21
5.296563701257755
 31
0.0
 70
    32
 71
     5
 42
0.4719999999999765
 73
     0
 74
     0
 75
     0
  3
small
100
AcDbAlignedDimension
 13
21.10035591469701
 23
4.607300853362635
 33
0.0
 14
21.57235591469699
 24
4.962679484341528
 34
0.0
100
AcDbRotatedDimension
  0
DIMENSION
  5
AAC
102
{ACAD_XDICTIONARY
360
AAD
102
}
330
A92
100
AcDbEntity
  8
0
100
AcDbDimension
  2
*D3
 10
24.47435591469703
 20
3.641678631460822
 30
0.0
 11
22.78735591469702
 21
3.641678631460822
 31
0.0
 70
    32
 71
     5
 42
3.374000000000009
 73
     0
 74
     0
 75
     0
  3
small
100
AcDbAlignedDimension
 13
21.10035591469702
 23
4.214061370342107
 33
0.0
 14
24.47435591469703
 24
4.214061370342107
 34
0.0
100
AcDbRotatedDimension
  0
DIMENSION
  5
AAE
102
{ACAD_XDICTIONARY
360
AAF
102
}
330
A92
100
AcDbEntity
  8
0
100
AcDbDimension
  2
*D4
 10
21.26735591469703
 20
4.079836661349624
 30
0.0
 11
21.45385591469703
 21
3.701664765033116
 31
0.0
 70
   160
 71
     5
 42
0.1670000000000158
 73
     0
 74
     0
 75
     0
  3
small
100
AcDbAlignedDimension
 13
21.10035591469702
 23
4.214061370342107
 33
0.0
 14
21.26735591469703
 24
4.214061370342107
 34
0.0
100
AcDbRotatedDimension
  0
DIMENSION
  5
AB0
102
{ACAD_XDICTIONARY
360
AB1
102
}
330
A92
100
AcDbEntity
  8
0
100
AcDbDimension
  2
*D5
 10
21.41645197859211
 20
4.079836661349624
 30
0.0
 11
21.61190394664457
 21
3.803779362577455
 31
0.0
 70
   160
 71
     5
 42
0.1490960638950725
 73
     0
 74
     0
 75
     0
  3
small
100
AcDbAlignedDimension
 13
21.26735591469703
 23
4.214061370342107
 33
0.0
 14
21.41645197859211
 24
4.214061370342107
 34
0.0
100
AcDbRotatedDimension
  0
DIMENSION
  5
AB2
102
{ACAD_XDICTIONARY
360
AB3
102
}
330
A92
100
AcDbEntity
  8
0
100
AcDbDimension
  2
*D6
 10
24.35385591469704
 20
4.079836661349624
 30
0.0
 11
22.88515394664457
 21
4.079836661349624
 31
0.0
 70
    32
 71
     5
 42
2.937403936104928
 73
     0
 74
     0
 75
     0
  3
small
100
AcDbAlignedDimension
 13
21.41645197859211
 23
4.214061370342107
 33
0.0
 14
24.35385591469704
 24
4.214061370342107
 34
0.0
100
AcDbRotatedDimension
  0
DIMENSION
  5
AB4
102
{ACAD_XDICTIONARY
360
AB5
102
}
330
A92
100
AcDbEntity
  8
0
100
AcDbDimension
  2
*D7
 10
24.47435591469703
 20
4.079836661349624
 30
0.0
 11
24.68410591469703
 21
3.701664765033116
 31
0.0
 70
   160
 71
     5
 42
0.1204999999999927
 73
     0
 74
     0
 75
     0
  3
small
100
AcDbAlignedDimension
 13
24.35385591469704
 23
4.214061370342107
 33
0.0
 14
24.47435591469703
 24
4.214061370342107
 34
0.0
100
AcDbRotatedDimension
  0
DIMENSION
  5
AB6
102
{ACAD_XDICTIONARY
360
AB7
102
}
330
A92
100
AcDbEntity
  8
0
100
AcDbDimension
  2
*D8
 10
21.60816166809137
 20
3.970985510977759
 30
0.0
 11
20.79887348158862
 21
4.848868608095071
 31
0.0
 70
    36
 71
     5
 42
0.8141031250000008
 73
     0
 74
     0
 75
     0
  3
small
100
AcDbRadialDimension
 15
21.2716476196379
 25
4.712283152501202
 35
0.0
 40
0.0
1001
ACAD
1000
DSTYLE
1002
{
1070
   288
1070
     1
1002
}
1001
ACAD_DSTYLE_DIMRADIAL_EXTENSION
1070
   387
1070
     1
1070
   388
1040
1.614792358922754
1070
   390
1040
2.244341635208187
  0
DIMENSION
  5
AB8
102
{ACAD_XDICTIONARY
360
AB9
102
}
330
A92
100
AcDbEntity
  8
0
100
AcDbDimension
  2
*D9
 10
21.11222999590387
 20
4.395270578161784
 30
0.0
 11
21.13600141366542
 21
4.452924728956477
 31
0.0
 70
   164
 71
     5
 42
0.2123625000000153
 73
     0
 74
     0
 75
     0
  3
small
100
AcDbRadialDimension
 15
21.19317860611653
 25
4.59159977596714
 35
0.0
 40
0.0
1001
ACAD
1000
DSTYLE
1002
{
1070
   288
1070
     1
1002
}
1001
ACAD_DSTYLE_DIMRADIAL_EXTENSION
1070
   387
1070
     1
1070
   388
1040
0.7517762047388752
1070
   390
1040
1.626739711870755
  0
DIMENSION
  5
ABA
102
{ACAD_XDICTIONARY
360
ABB
102
}
330
A92
100
AcDbEntity
  8
0
100
AcDbDimension
  2
*D10
 10
21.41644384367785
 20
4.672319016362749
 30
0.0
 11
21.16659879520194
 21
4.300340056785728
 31
0.0
 70
   164
 71
     5
 42
0.1991381578947493
 73
     0
 74
     0
 75
     0
  3
small
100
AcDbRadialDimension
 15
21.30541054947565
 25
4.507008358786409
 35
0.0
 40
0.0
1001
ACAD
1000
DSTYLE
1002
{
1070
   288
1070
     1
1002
}
1001
ACAD_DSTYLE_DIMRADIAL_EXTENSION
1070
   387
1070
     1
1070
   388
1040
3.866341716818602
1070
   390
1040
4.747105881279122
  0
DIMENSION
  5
ABC
102
{ACAD_XDICTIONARY
360
ABD
102
}
330
A92
100
AcDbEntity
  8
0
100
AcDbDimension
  2
*D11
 10
25.08198916678668
 20
4.307107797993598
 30
0.0
 11
25.33948916678668
 21
3.877878602904921
 31
0.0
 70
    32
 71
     5
 42
0.0249999999999986
 73
     0
 74
     0
 75
     0
  3
small
100
AcDbAlignedDimension
 13
25.05698916678668
 23
4.473300853362636
 33
0.0
 14
25.08198916678668
 24
4.473300853362636
 34
0.0
100
AcDbRotatedDimension
  0
DIMENSION
  5
ABE
102
{ACAD_XDICTIONARY
360
ABF
102
}
330
A92
100
AcDbEntity
  8
0
100
AcDbDimension
  2
*D12
 10
25.30691055815883
 20
4.473300853362636
 30
0.0
 11
25.30691055815883
 21
4.62880085336264
 31
0.0
 70
    32
 71
     5
 42
0.3109999999999999
 73
     0
 74
     0
 75
     0
  3
small
100
AcDbAlignedDimension
 13
25.08198916678668
 23
4.784300853362636
 33
0.0
 14
25.08198916678668
 24
4.473300853362636
 34
0.0
 50
90.0
100
AcDbRotatedDimension
  0
XLINE
  5
AC0
330
A92
100
AcDbEntity
  8
0
100
AcDbXline
 10
21.10035591469701
 20
4.607300853362635
 30
0.0
 11
0.0
 21
1.0
 31
0.0
  0
LINE
  5
AC1
330
A92
100
AcDbEntity
  8
0
100
AcDbLine
 10
24.353855914697
 20
5.929665382729721
 30
0.0
 11
21.42335591469695
 21
5.929665382729721
 31
0.0
  0
LINE
  5
AC2
330
A92
100
AcDbEntity
  8
0
100
AcDbLine
 10
24.353855914697
 20
6.240665382729721
 30
0.0
 11
21.57235591469695
 21
6.240665382729721
 31
0.0
  0
LINE
  5
AC3
330
A92
100
AcDbEntity
  8
0
100
AcDbLine
 10
24.474355914697
 20
6.050165382729723
 30
0.0
 11
24.474355914697
 21
6.120165382729721
 31
0.0
  0
ARC
  5
AC4
330
A92
100
AcDbEntity
  8
0
100
AcDbCircle
 10
21.60816166809134
 20
5.427350040344842
 30
0.0
 40
0.8141031250000029
100
AcDbArc
 50
92.52078695624824
 51
128.5913034829189
  0
ARC
  5
AC5
330
A92
100
AcDbEntity
  8
0
100
AcDbCircle
 10
21.41644384367781
 20
6.128683545729836
 30
0.0
 40
0.1991381578947491
100
AcDbArc
 50
235.4508548306223
 51
271.989131899025
  0
ARC
  5
AC6
330
A92
100
AcDbEntity
  8
0
100
AcDbCircle
 10
24.353855914697
 20
6.120165382729721
 30
0.0
 40
0.1204999999999998
100
AcDbArc
 50
0.0
 51
90.0
  0
ARC
  5
AC7
330
A92
100
AcDbEntity
  8
0
100
AcDbCircle
 10
24.353855914697
 20
6.050165382729721
 30
0.0
 40
0.1204999999999998
100
AcDbArc
 50
270.0
 51
0.0000000000010178
  0
LINE
  5
AC8
330
A92
100
AcDbEntity
  8
0
100
AcDbLine
 10
19.8113558915612
 20
5.96466538272972
 30
0.0
 11
21.30351002174753
 21
5.96466538272972
 31
0.0
  0
LINE
  5
AC9
330
A92
100
AcDbEntity
  8
0
100
AcDbLine
 10
21.0563558915612
 20
6.057665382729719
 30
0.0
 11
21.10035591469701
 21
6.063665382729721
 31
0.0
  0
LINE
  5
ACA
330
A92
100
AcDbEntity
  8
0
100
AcDbLine
 10
19.9263558915612
 20
6.00566538272972
 30
0.0
 11
21.0563558915612
 21
6.057665382729719
 31
0.0
  0
LINE
  5
ACB
330
A92
100
AcDbEntity
  8
0
100
AcDbLine
 10
19.9263558915612
 20
6.00566538272972
 30
0.0
 11
19.8833558915612
 21
6.045665382729719
 31
0.0
  0
LINE
  5
ACC
330
A92
100
AcDbEntity
  8
0
100
AcDbLine
 10
19.8833558915612
 20
6.045665382729719
 30
0.0
 11
19.8113558915612
 21
5.96466538272972
 31
0.0
  0
DIMENSION
  5
ACD
102
{ACAD_XDICTIONARY
360
ACE
102
}
330
A92
100
AcDbEntity
  8
0
100
AcDbDimension
  2
*D13
 10
21.0563558915612
 20
6.355825291628723
 30
0.0
 11
21.34835590312911
 21
6.682939889173061
 31
0.0
 70
    32
 71
     5
 42
0.0440000231358049
 73
     0
 74
     0
 75
     0
  3
small
100
AcDbAlignedDimension
 13
21.10035591469701
 23
6.063665382729726
 33
0.0
 14
21.0563558915612
 24
6.057665382729719
 34
0.0
100
AcDbRotatedDimension
  0
DIMENSION
  5
ACF
102
{ACAD_XDICTIONARY
360
AD0
102
}
330
A92
100
AcDbEntity
  8
0
100
AcDbDimension
  2
*D14
 10
19.9263558915612
 20
6.355825291628723
 30
0.0
 11
20.4913558915612
 21
6.355825291628723
 31
0.0
 70
    32
 71
     5
 42
1.130000000000002
 73
     0
 74
     0
 75
     0
  3
small
100
AcDbAlignedDimension
 13
21.0563558915612
 23
6.057665382729719
 33
0.0
 14
19.9263558915612
 24
6.00566538272972
 34
0.0
100
AcDbRotatedDimension
  0
DIMENSION
  5
AD1
102
{ACAD_XDICTIONARY
360
AD2
102
}
330
A92
100
AcDbEntity
  8
0
100
AcDbDimension
  2
*D15
 10
19.8833558915612
 20
6.355825291628723
 30
0.0
 11
20.1748558915612
 21
6.683008101997072
 31
0.0
 70
    32
 71
     5
 42
0.0429999999999993
 73
     0
 74
     0
 75
     0
  3
small
100
AcDbAlignedDimension
 13
19.9263558915612
 23
6.00566538272972
 33
0.0
 14
19.8833558915612
 24
6.045665382729719
 34
0.0
100
AcDbRotatedDimension
  0
DIMENSION
  5
AD3
102
{ACAD_XDICTIONARY
360
AD4
102
}
330
A92
100
AcDbEntity
  8
0
100
AcDbDimension
  2
*D16
 10
19.8113558915612
 20
6.355825291628723
 30
0.0
 11
20.1173558915612
 21
6.829906241439856
 31
0.0
 70
   160
 71
     5
 42
0.0719999999999992
 73
     0
 74
     0
 75
     0
  3
small
100
AcDbAlignedDimension
 13
19.8833558915612
 23
6.045665382729719
 33
0.0
 14
19.8113558915612
 24
5.96466538272972
 34
0.0
100
AcDbRotatedDimension
  0
DIMENSION
  5
AD5
102
{ACAD_XDICTIONARY
360
AD6
102
}
330
A92
100
AcDbEntity
  8
0
100
AcDbDimension
  2
*D17
 10
21.30351002174753
 20
5.856820102778352
 30
0.0
 11
20.55743295665437
 21
5.856820102778352
 31
0.0
 70
    32
 71
     5
 42
1.492154130186328
 73
     0
 74
     0
 75
     0
  3
small
100
AcDbAlignedDimension
 13
19.8113558915612
 23
5.96466538272972
 33
0.0
 14
21.30351002174753
 24
5.96466538272972
 34
0.0
100
AcDbRotatedDimension
  0
DIMENSION
  5
AD7
330
A92
100
AcDbEntity
  8
0
100
AcDbDimension
  2
*D18
 10
19.71950007245248
 20
5.96466538272972
 30
0.0
 11
19.12238547490814
 21
6.005165382729723
 31
0.0
 70
    32
 71
     5
 42
0.0809999999999995
 73
     0
 74
     0
 75
     0
  3
small
100
AcDbAlignedDimension
 13
19.8833558915612
 23
6.045665382729719
 33
0.0
 14
19.8113558915612
 24
5.96466538272972
 34
0.0
 50
90.0
100
AcDbRotatedDimension
  0
ENDBLK
  5
AD9
330
A92
100
AcDbEntity
  8
0
100
AcDbBlockEnd
  0
BLOCK
  5
11AE
330
11A3
100
AcDbEntity
  8
0
100
AcDbBlockBegin
  2
*D20
 70
     1
 10
0.0
 20
0.0
 30
0.0
  3
*D20
  1

  0
LINE
  5
1BF7
330
11A3
100
AcDbEntity
  8
D
 62
     0
370
    -2
100
AcDbLine
 10
215.9664550908254
 20
-1.229665411011402
 30
0.0
 11
215.9664550908254
 21
-1.025153340859391
 31
0.0
  0
LINE
  5
1BF8
330
11A3
100
AcDbEntity
  8
D
 62
     0
370
    -2
100
AcDbLine
 10
215.9464550908254
 20
-1.229665411011402
 30
0.0
 11
215.9464550908254
 21
-1.025153340859391
 31
0.0
  0
LINE
  5
1BF9
330
11A3
100
AcDbEntity
  8
D
 62
     0
370
    -2
100
AcDbLine
 10
216.0144550908254
 20
-1.073153340859391
 30
0.0
 11
216.0624550908254
 21
-1.073153340859391
 31
0.0
  0
LINE
  5
1BFA
330
11A3
100
AcDbEntity
  8
D
 62
     0
370
    -2
100
AcDbLine
 10
215.8984550908254
 20
-1.073153340859391
 30
0.0
 11
215.8504550908254
 21
-1.073153340859391
 31
0.0
  0
SOLID
  5
1BFB
330
11A3
100
AcDbEntity
  8
D
 62
     0
100
AcDbTrace
 10
216.0144550908254
 20
-1.065153340859391
 30
0.0
 11
216.0144550908254
 21
-1.081153340859391
 31
0.0
 12
215.9664550908254
 22
-1.073153340859391
 32
0.0
 13
215.9664550908254
 23
-1.073153340859391
 33
0.0
  0
SOLID
  5
1BFC
330
11A3
100
AcDbEntity
  8
D
 62
     0
100
AcDbTrace
 10
215.8984550908254
 20
-1.065153340859391
 30
0.0
 11
215.8984550908254
 21
-1.081153340859391
 31
0.0
 12
215.9464550908254
 22
-1.073153340859391
 32
0.0
 13
215.9464550908254
 23
-1.073153340859391
 33
0.0
  0
MTEXT
  5
1BFD
330
11A3
100
AcDbEntity
  8
D
 62
     0
100
AcDbMText
 10
215.6644550908254
 20
-1.073153340859391
 30
0.0
 40
0.04
 41
0.0
 46
0.0
 71
     5
 72
     1
  1
\A1;0.020 REF
 73
     1
 44
1.0
  0
POINT
  5
1BFE
330
11A3
100
AcDbEntity
  8
Defpoints
 62
     0
100
AcDbPoint
 10
215.9664550908254
 20
-1.269665411011402
 30
0.0
  0
POINT
  5
1BFF
330
11A3
100
AcDbEntity
  8
Defpoints
 62
     0
100
AcDbPoint
 10
215.9464550908254
 20
-1.269665411011402
 30
0.0
  0
POINT
  5
1C00
330
11A3
100
AcDbEntity
  8
Defpoints
 62
     0
100
AcDbPoint
 10
215.9464550908254
 20
-1.073153340859391
 30
0.0
  0
ENDBLK
  5
11AF
330
11A3
100
AcDbEntity
  8
0
100
AcDbBlockEnd
  0
BLOCK
  5
17C8
330
17BC
100
AcDbEntity
  8
0
100
AcDbBlockBegin
  2
A$C34542D0D
 70
     0
 10
0.0
 20
0.0
 30
0.0
  3
A$C34542D0D
  1

  0
LINE
  5
17BD
330
17BC
100
AcDbEntity
  8
PICK
100
AcDbLine
 10
-216.94329554644
 20
1.701165359667051
 30
0.0
 11
-214.1617955464399
 21
1.701165359667051
 31
0.0
  0
LINE
  5
17BE
330
17BC
100
AcDbEntity
  8
PICK
100
AcDbLine
 10
-216.94329554644
 20
1.390165359667051
 30
0.0
 11
-214.0127955464399
 21
1.390165359667051
 31
0.0
  0
ARC
  5
17BF
330
17BC
100
AcDbEntity
  8
PICK
100
AcDbCircle
 10
-216.94329554644
 20
1.510665359667051
 30
0.0
 40
0.1204999999999998
100
AcDbArc
 50
179.999999999999
 51
270.0
  0
ARC
  5
17C0
330
17BC
100
AcDbEntity
  8
PICK
100
AcDbCircle
 10
-216.94329554644
 20
1.580665359667051
 30
0.0
 40
0.1204999999999998
100
AcDbArc
 50
90.0
 51
180.0
  0
LINE
  5
17C1
330
17BC
100
AcDbEntity
  8
PICK
100
AcDbLine
 10
-217.0637955464399
 20
1.510665359667052
 30
0.0
 11
-217.0637955464399
 21
1.580665359667051
 31
0.0
  0
ARC
  5
17C2
330
17BC
100
AcDbEntity
  8
PICK
100
AcDbCircle
 10
-212.487795611509
 20
1.446165359667041
 30
0.0
 40
0.08
100
AcDbArc
 50
333.2563160495975
 51
166.4768393495838
  0
LINE
  5
17C3
330
17BC
100
AcDbEntity
  8
PICK
100
AcDbLine
 10
-212.416353327111
 20
1.410165359667042
 30
0.0
 11
-213.9186567407245
 21
1.410165359667042
 31
0.0
  0
LINE
  5
17C4
330
17BC
100
AcDbEntity
  8
PICK
100
AcDbLine
 10
-212.5655776495433
 20
1.46487243210568
 30
0.0
 11
-213.645795611509
 21
1.519165359667042
 31
0.0
  0
LINE
  5
17C5
330
17BC
100
AcDbEntity
  8
PICK
100
AcDbLine
 10
-213.645795611509
 20
1.519165359667042
 30
0.0
 11
-213.689795611509
 21
1.524165359667042
 31
0.0
  0
ARC
  5
17C6
330
17BC
100
AcDbEntity
  8
PICK
100
AcDbCircle
 10
-214.0058834754207
 20
1.589183522667166
 30
0.0
 40
0.1991381578947491
100
AcDbArc
 50
268.0108681009747
 51
295.9776938598455
  0
ARC
  5
17C7
330
17BC
100
AcDbEntity
  8
PICK
100
AcDbCircle
 10
-214.1976012998343
 20
0.8878500172821723
 30
0.0
 40
0.8141031250000029
100
AcDbArc
 50
51.40869651708102
 51
87.47921304375257
  0
ENDBLK
  5
17C9
330
17BC
100
AcDbEntity
  8
0
100
AcDbBlockEnd
  0
BLOCK
  5
1A9D
330
1A8F
100
AcDbEntity
  8
0
100
AcDbBlockBegin
  2
A$C38DA0378
 70
     0
 10
0.0
 20
0.0
 30
0.0
  3
A$C38DA0378
  1

  0
LINE
  5
1A90
330
1A8F
100
AcDbEntity
  8
0
100
AcDbLine
 10
4.542500057335765
 20
-0.0000000056211746
 30
0.0
 11
1.612000057335709
 21
-0.0000000056211746
 31
0.0
  0
LINE
  5
1A91
330
1A8F
100
AcDbEntity
  8
0
100
AcDbLine
 10
4.542500057335765
 20
0.3109999943788253
 30
0.0
 11
1.761000057335717
 21
0.3109999943788253
 31
0.0
  0
LINE
  5
1A92
330
1A8F
100
AcDbEntity
  8
0
100
AcDbLine
 10
4.663000057335764
 20
0.120499994378827
 30
0.0
 11
4.663000057335761
 21
0.1904999943788255
 31
0.0
  0
ARC
  5
1A93
330
1A8F
100
AcDbEntity
  8
0
100
AcDbCircle
 10
1.796805810730099
 20
-0.5023153480060536
 30
0.0
 40
0.8141031250000029
100
AcDbArc
 50
92.52078695624824
 51
128.5913034829189
  0
ARC
  5
1A94
330
1A8F
100
AcDbEntity
  8
0
100
AcDbCircle
 10
1.300874138542607
 20
-0.0780302808220288
 30
0.0
 40
0.2123625000000159
100
AcDbArc
 50
43.07360366990046
 51
93.20531985652186
  0
ARC
  5
1A95
330
1A8F
100
AcDbEntity
  8
0
100
AcDbCircle
 10
1.605087986316579
 20
0.1990181573789407
 30
0.0
 40
0.1991381578947491
100
AcDbArc
 50
221.5250625290709
 51
271.989131899025
  0
ARC
  5
1A96
330
1A8F
100
AcDbEntity
  8
0
100
AcDbCircle
 10
4.542500057335765
 20
0.1904999943788255
 30
0.0
 40
0.1204999999999998
100
AcDbArc
 50
0.0
 51
90.0
  0
ARC
  5
1A97
330
1A8F
100
AcDbEntity
  8
0
100
AcDbCircle
 10
4.542500057335765
 20
0.1204999943788252
 30
0.0
 40
0.1204999999999998
100
AcDbArc
 50
270.0
 51
0.0000000000010178
  0
LINE
  5
1A98
330
1A8F
100
AcDbEntity
  8
0
100
AcDbLine
 10
0.0000000341999673
 20
0.0349999943788237
 30
0.0
 11
1.492154164386295
 21
0.0349999943788237
 31
0.0
  0
LINE
  5
1A99
330
1A8F
100
AcDbEntity
  8
0
100
AcDbLine
 10
1.245000034199968
 20
0.1279999943788237
 30
0.0
 11
1.289000057335769
 21
0.1339999943788257
 31
0.0
  0
LINE
  5
1A9A
330
1A8F
100
AcDbEntity
  8
0
100
AcDbLine
 10
0.1150000341999657
 20
0.0759999943788241
 30
0.0
 11
1.245000034199968
 21
0.1279999943788237
 31
0.0
  0
LINE
  5
1A9B
330
1A8F
100
AcDbEntity
  8
0
100
AcDbLine
 10
0.1150000341999657
 20
0.0759999943788241
 30
0.0
 11
0.0720000341999665
 21
0.1159999943788232
 31
0.0
  0
LINE
  5
1A9C
330
1A8F
100
AcDbEntity
  8
0
100
AcDbLine
 10
0.0720000341999665
 20
0.1159999943788232
 30
0.0
 11
0.0000000341999673
 21
0.0349999943788237
 31
0.0
  0
ENDBLK
  5
1A9E
330
1A8F
100
AcDbEntity
  8
0
100
AcDbBlockEnd
  0
BLOCK
  5
1ABD
330
1AB7
100
AcDbEntity
  8
0
100
AcDbBlockBegin
  2
*D23
 70
     1
 10
0.0
 20
0.0
 30
0.0
  3
*D23
  1

  0
LINE
  5
1AB8
330
1AB7
100
AcDbEntity
  8
D
 62
     0
370
    -2
100
AcDbLine
 10
217.0637956006614
 20
-1.350165411011395
 30
0.0
 11
217.0637956006614
 21
-1.100772213719722
 31
0.0
  0
MTEXT
  5
1AB9
330
1AB7
100
AcDbEntity
  8
D
 62
     0
100
AcDbMText
 10
217.0637956006614
 20
-0.9981055470530204
 30
0.0
 40
0.04
 41
0.0
 46
0.0
 71
     5
 72
     1
  1
\A1;0.000
 11
0.0000000000000001
 21
1.0
 31
0.0
 73
     1
 44
1.0
  0
POINT
  5
1ABA
330
1AB7
100
AcDbEntity
  8
Defpoints
 62
     0
100
AcDbPoint
 10
217.0637956006614
 20
-1.390165411011395
 30
0.0
  0
POINT
  5
1ABB
330
1AB7
100
AcDbEntity
  8
Defpoints
 62
     0
100
AcDbPoint
 10
217.0637956006614
 20
-1.100772213719722
 30
0.0
  0
POINT
  5
1ABC
330
1AB7
100
AcDbEntity
  8
Defpoints
 62
     0
100
AcDbPoint
 10
217.0637956006614
 20
-1.390165411011395
 30
0.0
  0
ENDBLK
  5
1ABE
330
1AB7
100
AcDbEntity
  8
0
100
AcDbBlockEnd
  0
BLOCK
  5
1AC6
330
1AC0
100
AcDbEntity
  8
0
100
AcDbBlockBegin
  2
*D24
 70
     1
 10
0.0
 20
0.0
 30
0.0
  3
*D24
  1

  0
LINE
  5
1AC1
330
1AC0
100
AcDbEntity
  8
D
 62
     0
370
    -2
100
AcDbLine
 10
217.0237956006614
 20
-1.390165411011395
 30
0.0
 11
216.8297528583969
 21
-1.390165411011395
 31
0.0
  0
MTEXT
  5
1AC2
330
1AC0
100
AcDbEntity
  8
D
 62
     0
100
AcDbMText
 10
216.7270861917303
 20
-1.390165411011395
 30
0.0
 40
0.04
 41
0.0
 46
0.0
 71
     5
 72
     1
  1
\A1;0.000
 73
     1
 44
1.0
  0
POINT
  5
1AC3
330
1AC0
100
AcDbEntity
  8
Defpoints
 62
     0
100
AcDbPoint
 10
217.0637956006614
 20
-1.390165411011395
 30
0.0
  0
POINT
  5
1AC4
330
1AC0
100
AcDbEntity
  8
Defpoints
 62
     0
100
AcDbPoint
 10
216.8297528583969
 20
-1.390165411011395
 30
0.0
  0
POINT
  5
1AC5
330
1AC0
100
AcDbEntity
  8
Defpoints
 62
     0
100
AcDbPoint
 10
217.0637956006614
 20
-1.390165411011395
 30
0.0
  0
ENDBLK
  5
1AC7
330
1AC0
100
AcDbEntity
  8
0
100
AcDbBlockEnd
  0
BLOCK
  5
1ACF
330
1AC9
100
AcDbEntity
  8
0
100
AcDbBlockBegin
  2
*D25
 70
     1
 10
0.0
 20
0.0
 30
0.0
  3
*D25
  1

  0
LINE
  5
1ACA
330
1AC9
100
AcDbEntity
  8
D
 62
     0
370
    -2
100
AcDbLine
 10
217.1842956006615
 20
-1.229665411011395
 30
0.0
 11
217.1842956006615
 21
-0.9968259991570107
 31
0.0
  0
MTEXT
  5
1ACB
330
1AC9
100
AcDbEntity
  8
D
 62
     0
100
AcDbMText
 10
217.1842956006615
 20
-0.8974926658236425
 30
0.0
 40
0.04
 41
0.0
 46
0.0
 71
     5
 72
     1
  1
\A1;0.121
 11
0.0000000000000001
 21
1.0
 31
0.0
 73
     1
 44
1.0
  0
POINT
  5
1ACC
330
1AC9
100
AcDbEntity
  8
Defpoints
 62
     0
100
AcDbPoint
 10
217.1842956006615
 20
-1.269665411011395
 30
0.0
  0
POINT
  5
1ACD
330
1AC9
100
AcDbEntity
  8
Defpoints
 62
     0
100
AcDbPoint
 10
217.1842956006615
 20
-0.9968259991570107
 30
0.0
  0
POINT
  5
1ACE
330
1AC9
100
AcDbEntity
  8
Defpoints
 62
     0
100
AcDbPoint
 10
217.0637956006614
 20
-1.390165411011395
 30
0.0
  0
ENDBLK
  5
1AD0
330
1AC9
100
AcDbEntity
  8
0
100
AcDbBlockEnd
  0
BLOCK
  5
1AD8
330
1AD2
100
AcDbEntity
  8
0
100
AcDbBlockBegin
  2
*D26
 70
     1
 10
0.0
 20
0.0
 30
0.0
  3
*D26
  1

  0
LINE
  5
1AD3
330
1AD2
100
AcDbEntity
  8
D
 62
     0
370
    -2
100
AcDbLine
 10
217.1442956006615
 20
-1.269665411011395
 30
0.0
 11
216.8066342913252
 21
-1.269665411011395
 31
0.0
  0
MTEXT
  5
1AD4
330
1AD2
100
AcDbEntity
  8
D
 62
     0
100
AcDbMText
 10
216.7073009579918
 20
-1.269665411011395
 30
0.0
 40
0.04
 41
0.0
 46
0.0
 71
     5
 72
     1
  1
\A1;0.121
 73
     1
 44
1.0
  0
POINT
  5
1AD5
330
1AD2
100
AcDbEntity
  8
Defpoints
 62
     0
100
AcDbPoint
 10
217.1842956006615
 20
-1.269665411011395
 30
0.0
  0
POINT
  5
1AD6
330
1AD2
100
AcDbEntity
  8
Defpoints
 62
     0
100
AcDbPoint
 10
216.8066342913252
 20
-1.269665411011395
 30
0.0
  0
POINT
  5
1AD7
330
1AD2
100
AcDbEntity
  8
Defpoints
 62
     0
100
AcDbPoint
 10
217.0637956006614
 20
-1.390165411011395
 30
0.0
  0
ENDBLK
  5
1AD9
330
1AD2
100
AcDbEntity
  8
0
100
AcDbBlockEnd
  0
BLOCK
  5
1AE1
330
1ADB
100
AcDbEntity
  8
0
100
AcDbBlockBegin
  2
*D27
 70
     1
 10
0.0
 20
0.0
 30
0.0
  3
*D27
  1

  0
LINE
  5
1ADC
330
1ADB
100
AcDbEntity
  8
D
 62
     0
370
    -2
100
AcDbLine
 10
219.9657956006615
 20
-1.229665411011395
 30
0.0
 11
219.9657956006615
 21
-1.054573824465876
 31
0.0
  0
MTEXT
  5
1ADD
330
1ADB
100
AcDbEntity
  8
D
 62
     0
100
AcDbMText
 10
219.9657956006615
 20
-0.9419071577991743
 30
0.0
 40
0.04
 41
0.0
 46
0.0
 71
     5
 72
     1
  1
\A1;2.902
 11
0.0000000000000001
 21
1.0
 31
0.0
 73
     1
 44
1.0
  0
POINT
  5
1ADE
330
1ADB
100
AcDbEntity
  8
Defpoints
 62
     0
100
AcDbPoint
 10
219.9657956006615
 20
-1.269665411011395
 30
0.0
  0
POINT
  5
1ADF
330
1ADB
100
AcDbEntity
  8
Defpoints
 62
     0
100
AcDbPoint
 10
219.9657956006615
 20
-1.054573824465876
 30
0.0
  0
POINT
  5
1AE0
330
1ADB
100
AcDbEntity
  8
Defpoints
 62
     0
100
AcDbPoint
 10
217.0637956006614
 20
-1.390165411011395
 30
0.0
  0
ENDBLK
  5
1AE2
330
1ADB
100
AcDbEntity
  8
0
100
AcDbBlockEnd
  0
BLOCK
  5
1AEA
330
1AE4
100
AcDbEntity
  8
0
100
AcDbBlockBegin
  2
*D28
 70
     1
 10
0.0
 20
0.0
 30
0.0
  3
*D28
  1

  0
LINE
  5
1AE5
330
1AE4
100
AcDbEntity
  8
D
 62
     0
370
    -2
100
AcDbLine
 10
220.4377956006614
 20
-1.406665411011394
 30
0.0
 11
220.4377956006614
 21
-1.236091362781763
 31
0.0
  0
MTEXT
  5
1AE6
330
1AE4
100
AcDbEntity
  8
D
 62
     0
100
AcDbMText
 10
220.4377956006614
 20
-1.120091362781728
 30
0.0
 40
0.04
 41
0.0
 46
0.0
 71
     5
 72
     1
  1
\A1;3.374
 11
0.0000000000000001
 21
1.0
 31
0.0
 73
     1
 44
1.0
  0
POINT
  5
1AE7
330
1AE4
100
AcDbEntity
  8
Defpoints
 62
     0
100
AcDbPoint
 10
220.4377956006614
 20
-1.446665411011395
 30
0.0
  0
POINT
  5
1AE8
330
1AE4
100
AcDbEntity
  8
Defpoints
 62
     0
100
AcDbPoint
 10
220.4377956006614
 20
-1.236091362781763
 30
0.0
  0
POINT
  5
1AE9
330
1AE4
100
AcDbEntity
  8
Defpoints
 62
     0
100
AcDbPoint
 10
217.0637956006614
 20
-1.390165411011395
 30
0.0
  0
ENDBLK
  5
1AEB
330
1AE4
100
AcDbEntity
  8
0
100
AcDbBlockEnd
  0
BLOCK
  5
1AF3
330
1AED
100
AcDbEntity
  8
0
100
AcDbBlockBegin
  2
*D29
 70
     1
 10
0.0
 20
0.0
 30
0.0
  3
*D29
  1

  0
LINE
  5
1AEE
330
1AED
100
AcDbEntity
  8
D
 62
     0
370
    -2
100
AcDbLine
 10
221.6117956237972
 20
-1.464665411011396
 30
0.0
 11
221.6117956237972
 21
-1.319230187483597
 31
0.0
  0
MTEXT
  5
1AEF
330
1AED
100
AcDbEntity
  8
D
 62
     0
100
AcDbMText
 10
221.6117956237972
 20
-1.203230187483561
 30
0.0
 40
0.04
 41
0.0
 46
0.0
 71
     5
 72
     1
  1
\A1;4.548
 11
0.0000000000000001
 21
1.0
 31
0.0
 73
     1
 44
1.0
  0
POINT
  5
1AF0
330
1AED
100
AcDbEntity
  8
Defpoints
 62
     0
100
AcDbPoint
 10
221.6117956237972
 20
-1.504665411011396
 30
0.0
  0
POINT
  5
1AF1
330
1AED
100
AcDbEntity
  8
Defpoints
 62
     0
100
AcDbPoint
 10
221.6117956237972
 20
-1.319230187483597
 30
0.0
  0
POINT
  5
1AF2
330
1AED
100
AcDbEntity
  8
Defpoints
 62
     0
100
AcDbPoint
 10
217.0637956006614
 20
-1.390165411011395
 30
0.0
  0
ENDBLK
  5
1AF4
330
1AED
100
AcDbEntity
  8
0
100
AcDbBlockEnd
  0
BLOCK
  5
1AFE
330
1AF6
100
AcDbEntity
  8
0
100
AcDbBlockBegin
  2
*D30
 70
     1
 10
0.0
 20
0.0
 30
0.0
  3
*D30
  1

  0
LINE
  5
1AF7
330
1AF6
100
AcDbEntity
  8
D
 62
     0
370
    -2
100
AcDbLine
 10
221.6547956237973
 20
-1.424665411011397
 30
0.0
 11
221.6547956237973
 21
-1.368665411011397
 31
0.0
  0
LINE
  5
1AF8
330
1AF6
100
AcDbEntity
  8
D
 62
     0
370
    -2
100
AcDbLine
 10
221.6547956237973
 20
-1.368665411011397
 30
0.0
 11
221.721417711826
 21
-1.29636670836852
 31
0.0
  0
LINE
  5
1AF9
330
1AF6
100
AcDbEntity
  8
D
 62
     0
370
    -2
100
AcDbLine
 10
221.721417711826
 20
-1.29636670836852
 30
0.0
 11
221.721417711826
 21
-1.20036670836852
 31
0.0
  0
MTEXT
  5
1AFA
330
1AF6
100
AcDbEntity
  8
D
 62
     0
100
AcDbMText
 10
221.721417711826
 20
-1.091033375035151
 30
0.0
 40
0.04
 41
0.0
 46
0.0
 71
     5
 72
     1
  1
\A1;4.591
 11
0.0000000000000001
 21
1.0
 31
0.0
 73
     1
 44
1.0
  0
POINT
  5
1AFB
330
1AF6
100
AcDbEntity
  8
Defpoints
 62
     0
100
AcDbPoint
 10
221.6547956237973
 20
-1.464665411011397
 30
0.0
  0
POINT
  5
1AFC
330
1AF6
100
AcDbEntity
  8
Defpoints
 62
     0
100
AcDbPoint
 10
221.721417711826
 20
-1.20036670836852
 30
0.0
  0
POINT
  5
1AFD
330
1AF6
100
AcDbEntity
  8
Defpoints
 62
     0
100
AcDbPoint
 10
217.0637956006614
 20
-1.390165411011395
 30
0.0
  0
ENDBLK
  5
1AFF
330
1AF6
100
AcDbEntity
  8
0
100
AcDbBlockEnd
  0
BLOCK
  5
1B09
330
1B01
100
AcDbEntity
  8
0
100
AcDbBlockBegin
  2
*D31
 70
     1
 10
0.0
 20
0.0
 30
0.0
  3
*D31
  1

  0
LINE
  5
1B02
330
1B01
100
AcDbEntity
  8
D
 62
     0
370
    -2
100
AcDbLine
 10
221.7267956237972
 20
-1.505665411011396
 30
0.0
 11
221.7267956237972
 21
-1.425648405116696
 31
0.0
  0
LINE
  5
1B03
330
1B01
100
AcDbEntity
  8
D
 62
     0
370
    -2
100
AcDbLine
 10
221.7267956237972
 20
-1.425648405116696
 30
0.0
 11
221.8118296146135
 21
-1.329648405116696
 31
0.0
  0
LINE
  5
1B04
330
1B01
100
AcDbEntity
  8
D
 62
     0
370
    -2
100
AcDbLine
 10
221.8118296146135
 20
-1.329648405116696
 30
0.0
 11
221.8118296146135
 21
-1.233648405116696
 31
0.0
  0
MTEXT
  5
1B05
330
1B01
100
AcDbEntity
  8
D
 62
     0
100
AcDbMText
 10
221.8118296146135
 20
-1.11764840511666
 30
0.0
 40
0.04
 41
0.0
 46
0.0
 71
     5
 72
     1
  1
\A1;4.663
 11
0.0000000000000001
 21
1.0
 31
0.0
 73
     1
 44
1.0
  0
POINT
  5
1B06
330
1B01
100
AcDbEntity
  8
Defpoints
 62
     0
100
AcDbPoint
 10
221.7267956237972
 20
-1.545665411011396
 30
0.0
  0
POINT
  5
1B07
330
1B01
100
AcDbEntity
  8
Defpoints
 62
     0
100
AcDbPoint
 10
221.8118296146135
 20
-1.233648405116696
 30
0.0
  0
POINT
  5
1B08
330
1B01
100
AcDbEntity
  8
Defpoints
 62
     0
100
AcDbPoint
 10
217.0637956006614
 20
-1.390165411011395
 30
0.0
  0
ENDBLK
  5
1B0A
330
1B01
100
AcDbEntity
  8
0
100
AcDbBlockEnd
  0
BLOCK
  5
1B14
330
1B0C
100
AcDbEntity
  8
0
100
AcDbBlockBegin
  2
*D32
 70
     1
 10
0.0
 20
0.0
 30
0.0
  3
*D32
  1

  0
LINE
  5
1B0D
330
1B0C
100
AcDbEntity
  8
D
 62
     0
370
    -2
100
AcDbLine
 10
221.5717956237972
 20
-1.504665411011396
 30
0.0
 11
221.5157956237972
 21
-1.504665411011396
 31
0.0
  0
LINE
  5
1B0E
330
1B0C
100
AcDbEntity
  8
D
 62
     0
370
    -2
100
AcDbLine
 10
221.5157956237972
 20
-1.504665411011396
 30
0.0
 11
221.4510120883406
 21
-1.38579379599119
 31
0.0
  0
LINE
  5
1B0F
330
1B0C
100
AcDbEntity
  8
D
 62
     0
370
    -2
100
AcDbLine
 10
221.4510120883406
 20
-1.38579379599119
 30
0.0
 11
221.3550120883406
 21
-1.38579379599119
 31
0.0
  0
MTEXT
  5
1B10
330
1B0C
100
AcDbEntity
  8
D
 62
     0
100
AcDbMText
 10
221.2556787550072
 20
-1.38579379599119
 30
0.0
 40
0.04
 41
0.0
 46
0.0
 71
     5
 72
     1
  1
\A1;0.115
 73
     1
 44
1.0
  0
POINT
  5
1B11
330
1B0C
100
AcDbEntity
  8
Defpoints
 62
     0
100
AcDbPoint
 10
221.6117956237972
 20
-1.504665411011396
 30
0.0
  0
POINT
  5
1B12
330
1B0C
100
AcDbEntity
  8
Defpoints
 62
     0
100
AcDbPoint
 10
221.3550120883406
 20
-1.38579379599119
 30
0.0
  0
POINT
  5
1B13
330
1B0C
100
AcDbEntity
  8
Defpoints
 62
     0
100
AcDbPoint
 10
217.0637956006614
 20
-1.390165411011395
 30
0.0
  0
ENDBLK
  5
1B15
330
1B0C
100
AcDbEntity
  8
0
100
AcDbBlockEnd
  0
BLOCK
  5
1B1F
330
1B17
100
AcDbEntity
  8
0
100
AcDbBlockBegin
  2
*D33
 70
     1
 10
0.0
 20
0.0
 30
0.0
  3
*D33
  1

  0
LINE
  5
1B18
330
1B17
100
AcDbEntity
  8
D
 62
     0
370
    -2
100
AcDbLine
 10
221.6147956237973
 20
-1.464665411011397
 30
0.0
 11
221.5587956237972
 21
-1.464665411011397
 31
0.0
  0
LINE
  5
1B19
330
1B17
100
AcDbEntity
  8
D
 62
     0
370
    -2
100
AcDbLine
 10
221.5587956237972
 20
-1.464665411011397
 30
0.0
 11
221.5414237609277
 21
-1.300212013624289
 31
0.0
  0
LINE
  5
1B1A
330
1B17
100
AcDbEntity
  8
D
 62
     0
370
    -2
100
AcDbLine
 10
221.5414237609277
 20
-1.300212013624289
 30
0.0
 11
221.4454237609277
 21
-1.300212013624289
 31
0.0
  0
MTEXT
  5
1B1B
330
1B17
100
AcDbEntity
  8
D
 62
     0
100
AcDbMText
 10
221.3360904275944
 20
-1.300212013624289
 30
0.0
 40
0.04
 41
0.0
 46
0.0
 71
     5
 72
     1
  1
\A1;0.075
 73
     1
 44
1.0
  0
POINT
  5
1B1C
330
1B17
100
AcDbEntity
  8
Defpoints
 62
     0
100
AcDbPoint
 10
221.6547956237973
 20
-1.464665411011397
 30
0.0
  0
POINT
  5
1B1D
330
1B17
100
AcDbEntity
  8
Defpoints
 62
     0
100
AcDbPoint
 10
221.4454237609277
 20
-1.300212013624289
 30
0.0
  0
POINT
  5
1B1E
330
1B17
100
AcDbEntity
  8
Defpoints
 62
     0
100
AcDbPoint
 10
217.0637956006614
 20
-1.390165411011395
 30
0.0
  0
ENDBLK
  5
1B20
330
1B17
100
AcDbEntity
  8
0
100
AcDbBlockEnd
  0
BLOCK
  5
1B2A
330
1B22
100
AcDbEntity
  8
0
100
AcDbBlockBegin
  2
*D34
 70
     1
 10
0.0
 20
0.0
 30
0.0
  3
*D34
  1

  0
LINE
  5
1B23
330
1B22
100
AcDbEntity
  8
D
 62
     0
370
    -2
100
AcDbLine
 10
221.7667956237972
 20
-1.545665411011396
 30
0.0
 11
221.8227956237972
 21
-1.545665411011396
 31
0.0
  0
LINE
  5
1B24
330
1B22
100
AcDbEntity
  8
D
 62
     0
370
    -2
100
AcDbLine
 10
221.8227956237972
 20
-1.545665411011396
 30
0.0
 11
221.9156870809326
 21
-1.614011667291691
 31
0.0
  0
LINE
  5
1B25
330
1B22
100
AcDbEntity
  8
D
 62
     0
370
    -2
100
AcDbLine
 10
221.9156870809326
 20
-1.614011667291691
 30
0.0
 11
222.0116870809326
 21
-1.614011667291691
 31
0.0
  0
MTEXT
  5
1B26
330
1B22
100
AcDbEntity
  8
D
 62
     0
100
AcDbMText
 10
222.1176870809326
 20
-1.614011667291691
 30
0.0
 40
0.04
 41
0.0
 46
0.0
 71
     5
 72
     1
  1
\A1;0.156
 73
     1
 44
1.0
  0
POINT
  5
1B27
330
1B22
100
AcDbEntity
  8
Defpoints
 62
     0
100
AcDbPoint
 10
221.7267956237972
 20
-1.545665411011396
 30
0.0
  0
POINT
  5
1B28
330
1B22
100
AcDbEntity
  8
Defpoints
 62
     0
100
AcDbPoint
 10
222.0116870809326
 20
-1.614011667291691
 30
0.0
  0
POINT
  5
1B29
330
1B22
100
AcDbEntity
  8
Defpoints
 62
     0
100
AcDbPoint
 10
217.0637956006614
 20
-1.390165411011395
 30
0.0
  0
ENDBLK
  5
1B2B
330
1B22
100
AcDbEntity
  8
0
100
AcDbBlockEnd
  0
BLOCK
  5
1B35
330
1B2D
100
AcDbEntity
  8
0
100
AcDbBlockBegin
  2
*D35
 70
     1
 10
0.0
 20
0.0
 30
0.0
  3
*D35
  1

  0
LINE
  5
1B2E
330
1B2D
100
AcDbEntity
  8
D
 62
     0
370
    -2
100
AcDbLine
 10
220.2346414936109
 20
-1.585665411011397
 30
0.0
 11
220.2346414936109
 21
-1.641665411011397
 31
0.0
  0
LINE
  5
1B2F
330
1B2D
100
AcDbEntity
  8
D
 62
     0
370
    -2
100
AcDbLine
 10
220.2346414936109
 20
-1.641665411011397
 30
0.0
 11
220.2838541160184
 21
-1.708894880042709
 31
0.0
  0
LINE
  5
1B30
330
1B2D
100
AcDbEntity
  8
D
 62
     0
370
    -2
100
AcDbLine
 10
220.2838541160184
 20
-1.708894880042709
 30
0.0
 11
220.2838541160184
 21
-1.804894880042709
 31
0.0
  0
MTEXT
  5
1B31
330
1B2D
100
AcDbEntity
  8
D
 62
     0
100
AcDbMText
 10
220.2838541160184
 20
-1.907561546709341
 30
0.0
 40
0.04
 41
0.0
 46
0.0
 71
     5
 72
     1
  1
\A1;3.171
 11
0.0000000000000001
 21
1.0
 31
0.0
 73
     1
 44
1.0
  0
POINT
  5
1B32
330
1B2D
100
AcDbEntity
  8
Defpoints
 62
     0
100
AcDbPoint
 10
220.2346414936109
 20
-1.545665411011396
 30
0.0
  0
POINT
  5
1B33
330
1B2D
100
AcDbEntity
  8
Defpoints
 62
     0
100
AcDbPoint
 10
220.2838541160184
 20
-1.804894880042709
 30
0.0
  0
POINT
  5
1B34
330
1B2D
100
AcDbEntity
  8
Defpoints
 62
     0
100
AcDbPoint
 10
217.0637956006614
 20
-1.390165411011395
 30
0.0
  0
ENDBLK
  5
1B36
330
1B2D
100
AcDbEntity
  8
0
100
AcDbBlockEnd
  0
BLOCK
  5
1B40
330
1B38
100
AcDbEntity
  8
0
100
AcDbBlockBegin
  2
*D36
 70
     1
 10
0.0
 20
0.0
 30
0.0
  3
*D36
  1

  0
LINE
  5
1B39
330
1B38
100
AcDbEntity
  8
D
 62
     0
370
    -2
100
AcDbLine
 10
220.2746414936109
 20
-1.545665411011396
 30
0.0
 11
220.3306414936109
 21
-1.545665411011396
 31
0.0
  0
LINE
  5
1B3A
330
1B38
100
AcDbEntity
  8
D
 62
     0
370
    -2
100
AcDbLine
 10
220.3306414936109
 20
-1.545665411011396
 30
0.0
 11
220.4019874609466
 21
-1.643240509744188
 31
0.0
  0
LINE
  5
1B3B
330
1B38
100
AcDbEntity
  8
D
 62
     0
370
    -2
100
AcDbLine
 10
220.4019874609466
 20
-1.643240509744188
 30
0.0
 11
220.4979874609466
 21
-1.643240509744188
 31
0.0
  0
MTEXT
  5
1B3C
330
1B38
100
AcDbEntity
  8
D
 62
     0
100
AcDbMText
 10
220.6039874609466
 20
-1.643240509744188
 30
0.0
 40
0.04
 41
0.0
 46
0.0
 71
     5
 72
     1
  1
\A1;0.156
 73
     1
 44
1.0
  0
POINT
  5
1B3D
330
1B38
100
AcDbEntity
  8
Defpoints
 62
     0
100
AcDbPoint
 10
220.2346414936109
 20
-1.545665411011396
 30
0.0
  0
POINT
  5
1B3E
330
1B38
100
AcDbEntity
  8
Defpoints
 62
     0
100
AcDbPoint
 10
220.4979874609466
 20
-1.643240509744188
 30
0.0
  0
POINT
  5
1B3F
330
1B38
100
AcDbEntity
  8
Defpoints
 62
     0
100
AcDbPoint
 10
217.0637956006614
 20
-1.390165411011395
 30
0.0
  0
ENDBLK
  5
1B41
330
1B38
100
AcDbEntity
  8
0
100
AcDbBlockEnd
  0
BLOCK
  5
1B49
330
1B43
100
AcDbEntity
  8
0
100
AcDbBlockBegin
  2
*D37
 70
     1
 10
0.0
 20
0.0
 30
0.0
  3
*D37
  1

  0
LINE
  5
1B44
330
1B43
100
AcDbEntity
  8
D
 62
     0
370
    -2
100
AcDbLine
 10
220.1147956006615
 20
-1.620665411011395
 30
0.0
 11
220.1147956006615
 21
-1.819158510437191
 31
0.0
  0
MTEXT
  5
1B45
330
1B43
100
AcDbEntity
  8
D
 62
     0
100
AcDbMText
 10
220.1147956006615
 20
-1.925158510437155
 30
0.0
 40
0.04
 41
0.0
 46
0.0
 71
     5
 72
     1
  1
\A1;3.051
 11
0.0000000000000001
 21
1.0
 31
0.0
 73
     1
 44
1.0
  0
POINT
  5
1B46
330
1B43
100
AcDbEntity
  8
Defpoints
 62
     0
100
AcDbPoint
 10
220.1147956006615
 20
-1.580665411011395
 30
0.0
  0
POINT
  5
1B47
330
1B43
100
AcDbEntity
  8
Defpoints
 62
     0
100
AcDbPoint
 10
220.1147956006615
 20
-1.819158510437191
 30
0.0
  0
POINT
  5
1B48
330
1B43
100
AcDbEntity
  8
Defpoints
 62
     0
100
AcDbPoint
 10
217.0637956006614
 20
-1.390165411011395
 30
0.0
  0
ENDBLK
  5
1B4A
330
1B43
100
AcDbEntity
  8
0
100
AcDbBlockEnd
  0
BLOCK
  5
1B52
330
1B4C
100
AcDbEntity
  8
0
100
AcDbBlockBegin
  2
*D38
 70
     1
 10
0.0
 20
0.0
 30
0.0
  3
*D38
  1

  0
LINE
  5
1B4D
330
1B4C
100
AcDbEntity
  8
D
 62
     0
370
    -2
100
AcDbLine
 10
217.1842956006615
 20
-1.620665411011395
 30
0.0
 11
217.1842956006615
 21
-1.793919954010647
 31
0.0
  0
MTEXT
  5
1B4E
330
1B4C
100
AcDbEntity
  8
D
 62
     0
100
AcDbMText
 10
217.1842956006615
 20
-1.893253287343945
 30
0.0
 40
0.04
 41
0.0
 46
0.0
 71
     5
 72
     1
  1
\A1;0.121
 11
0.0000000000000001
 21
1.0
 31
0.0
 73
     1
 44
1.0
  0
POINT
  5
1B4F
330
1B4C
100
AcDbEntity
  8
Defpoints
 62
     0
100
AcDbPoint
 10
217.1842956006615
 20
-1.580665411011395
 30
0.0
  0
POINT
  5
1B50
330
1B4C
100
AcDbEntity
  8
Defpoints
 62
     0
100
AcDbPoint
 10
217.1842956006615
 20
-1.793919954010647
 30
0.0
  0
POINT
  5
1B51
330
1B4C
100
AcDbEntity
  8
Defpoints
 62
     0
100
AcDbPoint
 10
217.0637956006614
 20
-1.390165411011395
 30
0.0
  0
ENDBLK
  5
1B53
330
1B4C
100
AcDbEntity
  8
0
100
AcDbBlockEnd
  0
BLOCK
  5
1B5B
330
1B55
100
AcDbEntity
  8
0
100
AcDbBlockBegin
  2
*D39
 70
     1
 10
0.0
 20
0.0
 30
0.0
  3
*D39
  1

  0
LINE
  5
1B56
330
1B55
100
AcDbEntity
  8
D
 62
     0
370
    -2
100
AcDbLine
 10
217.1442956006615
 20
-1.580665411011395
 30
0.0
 11
216.9570322781201
 21
-1.580665411011395
 31
0.0
  0
MTEXT
  5
1B57
330
1B55
100
AcDbEntity
  8
D
 62
     0
100
AcDbMText
 10
216.8576989447868
 20
-1.580665411011395
 30
0.0
 40
0.04
 41
0.0
 46
0.0
 71
     5
 72
     1
  1
\A1;0.191
 73
     1
 44
1.0
  0
POINT
  5
1B58
330
1B55
100
AcDbEntity
  8
Defpoints
 62
     0
100
AcDbPoint
 10
217.1842956006615
 20
-1.580665411011395
 30
0.0
  0
POINT
  5
1B59
330
1B55
100
AcDbEntity
  8
Defpoints
 62
     0
100
AcDbPoint
 10
216.9570322781201
 20
-1.580665411011395
 30
0.0
  0
POINT
  5
1B5A
330
1B55
100
AcDbEntity
  8
Defpoints
 62
     0
100
AcDbPoint
 10
217.0637956006614
 20
-1.390165411011395
 30
0.0
  0
ENDBLK
  5
1B5C
330
1B55
100
AcDbEntity
  8
0
100
AcDbBlockEnd
  0
BLOCK
  5
1B64
330
1B5E
100
AcDbEntity
  8
0
100
AcDbBlockBegin
  2
*D40
 70
     1
 10
0.0
 20
0.0
 30
0.0
  3
*D40
  1

  0
LINE
  5
1B5F
330
1B5E
100
AcDbEntity
  8
D
 62
     0
370
    -2
100
AcDbLine
 10
217.0237956006614
 20
-1.460165411011393
 30
0.0
 11
216.8188878593065
 21
-1.460165411011393
 31
0.0
  0
MTEXT
  5
1B60
330
1B5E
100
AcDbEntity
  8
D
 62
     0
100
AcDbMText
 10
216.7128878593065
 20
-1.460165411011393
 30
0.0
 40
0.04
 41
0.0
 46
0.0
 71
     5
 72
     1
  1
\A1;0.070
 73
     1
 44
1.0
  0
POINT
  5
1B61
330
1B5E
100
AcDbEntity
  8
Defpoints
 62
     0
100
AcDbPoint
 10
217.0637956006614
 20
-1.460165411011393
 30
0.0
  0
POINT
  5
1B62
330
1B5E
100
AcDbEntity
  8
Defpoints
 62
     0
100
AcDbPoint
 10
216.8188878593065
 20
-1.460165411011393
 30
0.0
  0
POINT
  5
1B63
330
1B5E
100
AcDbEntity
  8
Defpoints
 62
     0
100
AcDbPoint
 10
217.0637956006614
 20
-1.390165411011395
 30
0.0
  0
ENDBLK
  5
1B65
330
1B5E
100
AcDbEntity
  8
0
100
AcDbBlockEnd
  0
BLOCK
  5
1B6D
330
1B67
100
AcDbEntity
  8
0
100
AcDbBlockBegin
  2
*D41
 70
     1
 10
0.0
 20
0.0
 30
0.0
  3
*D41
  1

  0
LINE
  5
1B68
330
1B67
100
AcDbEntity
  8
D
 62
     0
370
    -2
100
AcDbLine
 10
216.9466626530863
 20
-1.17282117174895
 30
0.0
 11
217.0599585491438
 21
-1.276444051452628
 31
0.0
  0
MTEXT
  5
1B69
330
1B67
100
AcDbEntity
  8
D
 62
     0
100
AcDbMText
 10
216.8586059479562
 20
-1.092282602565774
 30
0.0
 40
0.04
 41
0.0
 46
0.0
 71
     5
 72
     1
  1
\A1;R0.121
 11
0.737905350252342
 21
-0.6749042110321795
 31
0.0
 73
     1
 44
1.0
  0
SOLID
  5
1B6A
330
1B67
100
AcDbEntity
  8
D
 62
     0
100
AcDbTrace
 10
217.065357782832
 20
-1.270540808650608
 30
0.0
 11
217.0545593154555
 21
-1.282347294254662
 31
0.0
 12
217.0953780059559
 22
-1.30883945358218
 32
0.0
 13
217.0953780059559
 23
-1.30883945358218
 33
0.0
  0
POINT
  5
1B6B
330
1B67
100
AcDbEntity
  8
Defpoints
 62
     0
100
AcDbPoint
 10
217.0953780059559
 20
-1.30883945358218
 30
0.0
  0
POINT
  5
1B6C
330
1B67
100
AcDbEntity
  8
Defpoints
 62
     0
100
AcDbPoint
 10
217.1842956006611
 20
-1.390165411011395
 30
0.0
  0
ENDBLK
  5
1B6E
330
1B67
100
AcDbEntity
  8
0
100
AcDbBlockEnd
  0
BLOCK
  5
1B76
330
1B70
100
AcDbEntity
  8
0
100
AcDbBlockBegin
  2
*D42
 70
     1
 10
0.0
 20
0.0
 30
0.0
  3
*D42
  1

  0
LINE
  5
1B71
330
1B70
100
AcDbEntity
  8
D
 62
     0
370
    -2
100
AcDbLine
 10
220.2550768227224
 20
-1.062230432392418
 30
0.0
 11
220.191603922016
 21
-1.261530892462538
 31
0.0
  0
MTEXT
  5
1B72
330
1B70
100
AcDbEntity
  8
D
 62
     0
100
AcDbMText
 10
220.2933128207862
 20
-0.942172078030623
 30
0.0
 40
0.04
 41
0.0
 46
0.0
 71
     5
 72
     1
  1
\A1;R0.814
 11
0.3034603020943371
 21
0.9528440822363403
 31
0.0
 73
     1
 44
1.0
  0
SOLID
  5
1B73
330
1B70
100
AcDbEntity
  8
D
 62
     0
100
AcDbTrace
 10
220.1839811693581
 20
-1.259103210045779
 30
0.0
 11
220.1992266746739
 21
-1.263958574879296
 31
0.0
 12
220.1770378275155
 22
-1.307267408409884
 32
0.0
 13
220.1770378275155
 23
-1.307267408409884
 33
0.0
  0
POINT
  5
1B74
330
1B70
100
AcDbEntity
  8
Defpoints
 62
     0
100
AcDbPoint
 10
220.1770378275155
 20
-1.307267408409884
 30
0.0
  0
POINT
  5
1B75
330
1B70
100
AcDbEntity
  8
Defpoints
 62
     0
100
AcDbPoint
 10
219.929989847267
 20
-2.082980753396256
 30
0.0
  0
ENDBLK
  5
1B77
330
1B70
100
AcDbEntity
  8
0
100
AcDbBlockEnd
  0
BLOCK
  5
1B7F
330
1B79
100
AcDbEntity
  8
0
100
AcDbBlockBegin
  2
*D43
 70
     1
 10
0.0
 20
0.0
 30
0.0
  3
*D43
  1

  0
LINE
  5
1B7A
330
1B79
100
AcDbEntity
  8
D
 62
     0
370
    -2
100
AcDbLine
 10
220.3162858718709
 20
-1.700571063515369
 30
0.0
 11
220.2504238575148
 21
-1.592619787911417
 31
0.0
  0
MTEXT
  5
1B7B
330
1B79
100
AcDbEntity
  8
D
 62
     0
100
AcDbMText
 10
220.3819100537183
 20
-1.808132519236622
 30
0.0
 40
0.04
 41
0.0
 46
0.0
 71
     5
 72
     1
  1
\A1;R0.199
 11
0.5208268400580835
 21
-0.853662346993887
 31
0.0
 73
     1
 44
1.0
  0
SOLID
  5
1B7C
330
1B79
100
AcDbEntity
  8
D
 62
     0
100
AcDbTrace
 10
220.2572531562907
 20
-1.588453173190956
 30
0.0
 11
220.2435945587388
 21
-1.596786402631892
 31
0.0
 12
220.225424169192
 22
-1.551643995255716
 32
0.0
 13
220.225424169192
 23
-1.551643995255716
 33
0.0
  0
POINT
  5
1B7D
330
1B79
100
AcDbEntity
  8
Defpoints
 62
     0
100
AcDbPoint
 10
220.225424169192
 20
-1.551643995255716
 30
0.0
  0
POINT
  5
1B7E
330
1B79
100
AcDbEntity
  8
Defpoints
 62
     0
100
AcDbPoint
 10
220.1217076716808
 20
-1.381647248011347
 30
0.0
  0
ENDBLK
  5
1B80
330
1B79
100
AcDbEntity
  8
0
100
AcDbBlockEnd
  0
BLOCK
  5
1B88
330
1B82
100
AcDbEntity
  8
0
100
AcDbBlockBegin
  2
*D44
 70
     1
 10
0.0
 20
0.0
 30
0.0
  3
*D44
  1

  0
LINE
  5
1B83
330
1B82
100
AcDbEntity
  8
D
 62
     0
370
    -2
100
AcDbLine
 10
217.017308126077
 20
-1.668569329924181
 30
0.0
 11
217.0789328164677
 21
-1.591660405999533
 31
0.0
  0
MTEXT
  5
1B84
330
1B82
100
AcDbEntity
  8
D
 62
     0
100
AcDbMText
 10
216.9426891809901
 20
-1.761695360004722
 30
0.0
 40
0.04
 41
0.0
 46
0.0
 71
     5
 72
     1
  1
\A1;R0.121
 11
0.625298422516012
 21
0.7803857269318724
 31
0.0
 73
     1
 44
1.0
  0
SOLID
  5
1B85
330
1B82
100
AcDbEntity
  8
D
 62
     0
100
AcDbTrace
 10
217.0726897306522
 20
-1.586658018619402
 30
0.0
 11
217.0851759022832
 21
-1.596662793379664
 31
0.0
 12
217.1089471407484
 22
-1.554201891106799
 32
0.0
 13
217.1089471407484
 23
-1.554201891106799
 33
0.0
  0
POINT
  5
1B86
330
1B82
100
AcDbEntity
  8
Defpoints
 62
     0
100
AcDbPoint
 10
217.1089471407484
 20
-1.554201891106799
 30
0.0
  0
POINT
  5
1B87
330
1B82
100
AcDbEntity
  8
Defpoints
 62
     0
100
AcDbPoint
 10
217.1842956006616
 20
-1.460165411011487
 30
0.0
  0
ENDBLK
  5
1B89
330
1B82
100
AcDbEntity
  8
0
100
AcDbBlockEnd
  0
BLOCK
  5
1B96
330
1B8B
100
AcDbEntity
  8
0
100
AcDbBlockBegin
  2
*D45
 70
     1
 10
0.0
 20
0.0
 30
0.0
  3
*D45
  1

  0
LINE
  5
1BA2
330
1B8B
100
AcDbEntity
  8
D
 62
     0
370
    -2
100
AcDbLine
 10
218.6132208051582
 20
-1.580665411011395
 30
0.0
 11
218.6522048599397
 21
-1.580665411011395
 31
0.0
  0
LINE
  5
1BA3
330
1B8B
100
AcDbEntity
  8
D
 62
     0
370
    -2
100
AcDbLine
 10
218.6132208051582
 20
-1.269665411011395
 30
0.0
 11
218.6522048599397
 21
-1.269665411011395
 31
0.0
  0
LINE
  5
1BA4
330
1B8B
100
AcDbEntity
  8
D
 62
     0
370
    -2
100
AcDbLine
 10
218.6042048599397
 20
-1.532665411011395
 30
0.0
 11
218.6042048599397
 21
-1.317665411011395
 31
0.0
  0
LINE
  5
1BA5
330
1B8B
100
AcDbEntity
  8
D
 62
     0
370
    -2
100
AcDbLine
 10
218.6042048599397
 20
-1.269665411011395
 30
0.0
 11
218.6042048599397
 21
-1.221665411011395
 31
0.0
  0
SOLID
  5
1BA6
330
1B8B
100
AcDbEntity
  8
D
 62
     0
100
AcDbTrace
 10
218.5962048599397
 20
-1.532665411011395
 30
0.0
 11
218.6122048599397
 21
-1.532665411011395
 31
0.0
 12
218.6042048599397
 22
-1.580665411011395
 32
0.0
 13
218.6042048599397
 23
-1.580665411011395
 33
0.0
  0
SOLID
  5
1BA7
330
1B8B
100
AcDbEntity
  8
D
 62
     0
100
AcDbTrace
 10
218.5962048599397
 20
-1.317665411011395
 30
0.0
 11
218.6122048599397
 21
-1.317665411011395
 31
0.0
 12
218.6042048599397
 22
-1.269665411011395
 32
0.0
 13
218.6042048599397
 23
-1.269665411011395
 33
0.0
  0
MTEXT
  5
1BA8
330
1B8B
100
AcDbEntity
  8
D
 62
     0
100
AcDbMText
 10
218.6042048599397
 20
-1.042332077678026
 30
0.0
 40
0.04
 41
0.0
 46
0.0
 71
     5
 72
     1
  1
\A1;0.311 REF
 11
0.0000000000000001
 21
1.0
 31
0.0
 73
     1
 44
1.0
  0
POINT
  5
1BA9
330
1B8B
100
AcDbEntity
  8
Defpoints
 62
     0
100
AcDbPoint
 10
218.5732208051582
 20
-1.580665411011395
 30
0.0
  0
POINT
  5
1BAA
330
1B8B
100
AcDbEntity
  8
Defpoints
 62
     0
100
AcDbPoint
 10
218.5732208051582
 20
-1.269665411011395
 30
0.0
  0
POINT
  5
1BAB
330
1B8B
100
AcDbEntity
  8
Defpoints
 62
     0
100
AcDbPoint
 10
218.6042048599397
 20
-1.269665411011395
 30
0.0
  0
ENDBLK
  5
1B97
330
1B8B
100
AcDbEntity
  8
0
100
AcDbBlockEnd
  0
BLOCK
  5
1BB8
330
1BAD
100
AcDbEntity
  8
0
100
AcDbBlockBegin
  2
*D46
 70
     1
 10
0.0
 20
0.0
 30
0.0
  3
*D46
  1

  0
LINE
  5
1BBA
330
1BAD
100
AcDbEntity
  8
D
 62
     0
370
    -2
100
AcDbLine
 10
221.7267956237972
 20
-1.585665411011397
 30
0.0
 11
221.7267956237972
 21
-2.238023006221864
 31
0.0
  0
LINE
  5
1BBB
330
1BAD
100
AcDbEntity
  8
D
 62
     0
370
    -2
100
AcDbLine
 10
217.0637956006614
 20
-1.500165411011393
 30
0.0
 11
217.0637956006614
 21
-2.238023006221864
 31
0.0
  0
LINE
  5
1BBC
330
1BAD
100
AcDbEntity
  8
D
 62
     0
370
    -2
100
AcDbLine
 10
221.6787956237972
 20
-2.190023006221863
 30
0.0
 11
219.5912956122294
 21
-2.190023006221863
 31
0.0
  0
LINE
  5
1BBD
330
1BAD
100
AcDbEntity
  8
D
 62
     0
370
    -2
100
AcDbLine
 10
217.1117956006614
 20
-2.190023006221863
 30
0.0
 11
219.1992956122294
 21
-2.190023006221863
 31
0.0
  0
SOLID
  5
1BBE
330
1BAD
100
AcDbEntity
  8
D
 62
     0
100
AcDbTrace
 10
221.6787956237972
 20
-2.182023006221863
 30
0.0
 11
221.6787956237972
 21
-2.198023006221863
 31
0.0
 12
221.7267956237972
 22
-2.190023006221863
 32
0.0
 13
221.7267956237972
 23
-2.190023006221863
 33
0.0
  0
SOLID
  5
1BBF
330
1BAD
100
AcDbEntity
  8
D
 62
     0
100
AcDbTrace
 10
217.1117956006614
 20
-2.182023006221863
 30
0.0
 11
217.1117956006614
 21
-2.198023006221863
 31
0.0
 12
217.0637956006614
 22
-2.190023006221863
 32
0.0
 13
217.0637956006614
 23
-2.190023006221863
 33
0.0
  0
MTEXT
  5
1BC0
330
1BAD
100
AcDbEntity
  8
D
 62
     0
100
AcDbMText
 10
219.3952956122294
 20
-2.190023006221863
 30
0.0
 40
0.04
 41
0.0
 46
0.0
 71
     5
 72
     1
  1
\A1;4.663 REF
 73
     1
 44
1.0
  0
POINT
  5
1BC1
330
1BAD
100
AcDbEntity
  8
Defpoints
 62
     0
100
AcDbPoint
 10
221.7267956237972
 20
-1.545665411011396
 30
0.0
  0
POINT
  5
1BC2
330
1BAD
100
AcDbEntity
  8
Defpoints
 62
     0
100
AcDbPoint
 10
217.0637956006614
 20
-1.460165411011393
 30
0.0
  0
POINT
  5
1BC3
330
1BAD
100
AcDbEntity
  8
Defpoints
 62
     0
100
AcDbPoint
 10
217.0637956006614
 20
-2.190023006221863
 30
0.0
  0
ENDBLK
  5
1BB9
330
1BAD
100
AcDbEntity
  8
0
100
AcDbBlockEnd
  0
BLOCK
  5
1BDF
330
1BD7
100
AcDbEntity
  8
0
100
AcDbBlockBegin
  2
*D47
 70
     1
 10
0.0
 20
0.0
 30
0.0
  3
*D47
  1

  0
LINE
  5
1BD8
330
1BD7
100
AcDbEntity
  8
D
 62
     0
370
    -2
100
AcDbLine
 10
220.4817956237973
 20
-1.412665411011396
 30
0.0
 11
220.4817956237973
 21
-1.356665411011396
 31
0.0
  0
LINE
  5
1BD9
330
1BD7
100
AcDbEntity
  8
D
 62
     0
370
    -2
100
AcDbLine
 10
220.4817956237973
 20
-1.356665411011396
 30
0.0
 11
220.5161700075654
 21
-1.315306851696121
 31
0.0
  0
LINE
  5
1BDA
330
1BD7
100
AcDbEntity
  8
D
 62
     0
370
    -2
100
AcDbLine
 10
220.5161700075654
 20
-1.315306851696121
 30
0.0
 11
220.5161700075654
 21
-1.219306851696121
 31
0.0
  0
MTEXT
  5
1BDB
330
1BD7
100
AcDbEntity
  8
D
 62
     0
100
AcDbMText
 10
220.5161700075654
 20
-1.109973518362752
 30
0.0
 40
0.04
 41
0.0
 46
0.0
 71
     5
 72
     1
  1
\A1;3.418
 11
0.0000000000000001
 21
1.0
 31
0.0
 73
     1
 44
1.0
  0
POINT
  5
1BDC
330
1BD7
100
AcDbEntity
  8
Defpoints
 62
     0
100
AcDbPoint
 10
220.4817956237973
 20
-1.452665411011397
 30
0.0
  0
POINT
  5
1BDD
330
1BD7
100
AcDbEntity
  8
Defpoints
 62
     0
100
AcDbPoint
 10
220.5161700075654
 20
-1.219306851696121
 30
0.0
  0
POINT
  5
1BDE
330
1BD7
100
AcDbEntity
  8
Defpoints
 62
     0
100
AcDbPoint
 10
217.0637956006614
 20
-1.390165411011395
 30
0.0
  0
ENDBLK
  5
1BE0
330
1BD7
100
AcDbEntity
  8
0
100
AcDbBlockEnd
  0
BLOCK
  5
1BEA
330
1BE2
100
AcDbEntity
  8
0
100
AcDbBlockBegin
  2
*D48
 70
     1
 10
0.0
 20
0.0
 30
0.0
  3
*D48
  1

  0
LINE
  5
1BE3
330
1BE2
100
AcDbEntity
  8
D
 62
     0
370
    -2
100
AcDbLine
 10
220.3977956006614
 20
-1.446665411011395
 30
0.0
 11
220.3417956006614
 21
-1.446665411011395
 31
0.0
  0
LINE
  5
1BE4
330
1BE2
100
AcDbEntity
  8
D
 62
     0
370
    -2
100
AcDbLine
 10
220.3417956006614
 20
-1.446665411011395
 30
0.0
 11
220.3314629916289
 21
-1.431219417918615
 31
0.0
  0
LINE
  5
1BE5
330
1BE2
100
AcDbEntity
  8
D
 62
     0
370
    -2
100
AcDbLine
 10
220.3314629916289
 20
-1.431219417918615
 30
0.0
 11
220.2354629916289
 21
-1.431219417918615
 31
0.0
  0
MTEXT
  5
1BE6
330
1BE2
100
AcDbEntity
  8
D
 62
     0
100
AcDbMText
 10
220.1261296582956
 20
-1.431219417918615
 30
0.0
 40
0.04
 41
0.0
 46
0.0
 71
     5
 72
     1
  1
\A1;0.057
 73
     1
 44
1.0
  0
POINT
  5
1BE7
330
1BE2
100
AcDbEntity
  8
Defpoints
 62
     0
100
AcDbPoint
 10
220.4377956006614
 20
-1.446665411011395
 30
0.0
  0
POINT
  5
1BE8
330
1BE2
100
AcDbEntity
  8
Defpoints
 62
     0
100
AcDbPoint
 10
220.2354629916289
 20
-1.431219417918615
 30
0.0
  0
POINT
  5
1BE9
330
1BE2
100
AcDbEntity
  8
Defpoints
 62
     0
100
AcDbPoint
 10
217.0637956006614
 20
-1.390165411011395
 30
0.0
  0
ENDBLK
  5
1BEB
330
1BE2
100
AcDbEntity
  8
0
100
AcDbBlockEnd
  0
BLOCK
  5
1BF5
330
1BED
100
AcDbEntity
  8
0
100
AcDbBlockBegin
  2
*D49
 70
     1
 10
0.0
 20
0.0
 30
0.0
  3
*D49
  1

  0
LINE
  5
1BEE
330
1BED
100
AcDbEntity
  8
D
 62
     0
370
    -2
100
AcDbLine
 10
220.5217956237973
 20
-1.452665411011397
 30
0.0
 11
220.5777956237973
 21
-1.452665411011397
 31
0.0
  0
LINE
  5
1BEF
330
1BED
100
AcDbEntity
  8
D
 62
     0
370
    -2
100
AcDbLine
 10
220.5777956237973
 20
-1.452665411011397
 30
0.0
 11
220.5807967791081
 21
-1.38291581849371
 31
0.0
  0
LINE
  5
1BF0
330
1BED
100
AcDbEntity
  8
D
 62
     0
370
    -2
100
AcDbLine
 10
220.5807967791081
 20
-1.38291581849371
 30
0.0
 11
220.6767967791081
 21
-1.38291581849371
 31
0.0
  0
MTEXT
  5
1BF1
330
1BED
100
AcDbEntity
  8
D
 62
     0
100
AcDbMText
 10
220.7861301124414
 20
-1.38291581849371
 30
0.0
 40
0.04
 41
0.0
 46
0.0
 71
     5
 72
     1
  1
\A1;0.063
 73
     1
 44
1.0
  0
POINT
  5
1BF2
330
1BED
100
AcDbEntity
  8
Defpoints
 62
     0
100
AcDbPoint
 10
220.4817956237973
 20
-1.452665411011397
 30
0.0
  0
POINT
  5
1BF3
330
1BED
100
AcDbEntity
  8
Defpoints
 62
     0
100
AcDbPoint
 10
220.6767967791081
 20
-1.38291581849371
 30
0.0
  0
POINT
  5
1BF4
330
1BED
100
AcDbEntity
  8
Defpoints
 62
     0
100
AcDbPoint
 10
217.0637956006614
 20
-1.390165411011395
 30
0.0
  0
ENDBLK
  5
1BF6
330
1BED
100
AcDbEntity
  8
0
100
AcDbBlockEnd
  0
ENDSEC
  0
SECTION
  2
ENTITIES
  0
TEXT
  5
45
330
18
100
AcDbEntity
  8
T
100
AcDbText
 10
15.48616755326692
 20
1.693507973140668
 30
0.0
 40
0.12
  1
 
100
AcDbText
  0
TEXT
  5
69
330
18
100
AcDbEntity
  8
D
100
AcDbText
 10
5.604806811939204
 20
5.027631219471905
 30
0.0
 40
0.1
  1

100
AcDbText
  0
LINE
  5
F5C
330
18
100
AcDbEntity
  8
Title Block
100
AcDbLine
 10
222.8671132055122
 20
0.6807462179658899
 30
0.0
 11
222.8671132055122
 21
-4.19425378203411
 31
0.0
  0
LINE
  5
F5D
330
18
100
AcDbEntity
  8
Title Block
100
AcDbLine
 10
215.1171132055122
 20
-4.19425378203411
 30
0.0
 11
215.1171132055122
 21
0.6807462179658899
 31
0.0
  0
LINE
  5
F5E
330
18
100
AcDbEntity
  8
Title Block
100
AcDbLine
 10
222.8671132055122
 20
-4.19425378203411
 30
0.0
 11
215.1171132055122
 21
-4.19425378203411
 31
0.0
  0
MTEXT
  5
F60
330
18
100
AcDbEntity
  8
TITLE BLOCK TEXT
100
AcDbMText
 10
220.3446099066594
 20
-4.035675370464758
 30
0.0
 40
0.036
 41
0.0
 46
0.0
 71
     4
 72
     1
  1
TOLERANCES:\PX.XXX +/- 0.005"\PFRACTIONS +/- 1/64"\PANGLES +/- 1/2
  7
Roman
 73
     1
 44
1.0
  0
LINE
  5
F61
330
18
100
AcDbEntity
  8
Title Block
100
AcDbLine
 10
220.2832050155143
 20
-3.859688787552666
 30
0.0
 11
221.9689509740086
 21
-3.859688787552283
 31
0.0
  0
LINE
  5
F62
330
18
100
AcDbEntity
  8
Title Block
100
AcDbLine
 10
220.2808159956285
 20
-3.594253782034109
 30
0.0
 11
222.867113205512
 21
-3.594253782034109
 31
0.0
  0
LINE
  5
F63
330
18
100
AcDbEntity
  8
Title Block
100
AcDbLine
 10
220.2808159956286
 20
-4.19425378203411
 30
0.0
 11
220.2808159956286
 21
-3.379762381082252
 31
0.0
  0
TEXT
  5
F65
330
18
100
AcDbEntity
  8
TITLE BLOCK TEXT
100
AcDbText
 10
221.8279701110593
 20
-4.145839862090286
 30
0.0
 40
0.067392
  1
ISON-1016-01-07
  7
Roman
100
AcDbText
  0
LINE
  5
F67
330
18
100
AcDbEntity
  8
Title Block
100
AcDbLine
 10
221.1129344065043
 20
-3.966253782034112
 30
0.0
 11
222.867113205512
 21
-3.966253782034112
 31
0.0
  0
LINE
  5
F68
330
18
100
AcDbEntity
  8
Title Block
100
AcDbLine
 10
221.9689509740085
 20
-3.966253782034112
 30
0.0
 11
221.9689509740086
 21
-3.594253782034178
 31
0.0
  0
LINE
  5
F69
330
18
100
AcDbEntity
  8
Title Block
100
AcDbLine
 10
221.1129344065044
 20
-4.19425378203411
 30
0.0
 11
221.1129344065042
 21
-3.379762381082252
 31
0.0
  0
LINE
  5
F6A
330
18
100
AcDbEntity
  8
Title Block
100
AcDbLine
 10
221.7583542112901
 20
-4.19425378203411
 30
0.0
 11
221.7583542112901
 21
-3.966253782034112
 31
0.0
  0
LINE
  5
F6B
330
18
100
AcDbEntity
  8
Title Block
100
AcDbLine
 10
221.5589703949634
 20
-4.19425378203411
 30
0.0
 11
221.5589703949634
 21
-3.966253782034112
 31
0.0
  0
TEXT
  5
F6C
330
18
100
AcDbEntity
  8
TITLE BLOCK TEXT
100
AcDbText
 10
221.3761493243485
 20
-4.145839862090286
 30
0.0
 40
0.048
  1
2:1
  7
Roman
100
AcDbText
  0
MTEXT
  5
F6D
330
18
100
AcDbEntity
  8
TITLE BLOCK TEXT
100
AcDbMText
 10
221.6084994779424
 20
-4.014697940828336
 30
0.0
 40
0.036
 41
0.0
 46
0.0
 71
     4
 72
     1
  1
REV.
  7
Roman
 73
     1
 44
1.0
  0
LINE
  5
F6E
330
18
100
AcDbEntity
  8
Title Block
100
AcDbLine
 10
221.3188540139814
 20
-4.19425378203411
 30
0.0
 11
221.3188540139814
 21
-3.966253782034112
 31
0.0
  0
TEXT
  5
F6F
330
18
100
AcDbEntity
  8
TITLE BLOCK TEXT
100
AcDbText
 10
221.1908273965526
 20
-4.145839862090286
 30
0.0
 40
0.048
  1
B
  7
Roman
100
AcDbText
  0
MTEXT
  5
F70
330
18
100
AcDbEntity
  8
TITLE BLOCK TEXT
100
AcDbMText
 10
221.1579325797837
 20
-4.014697940828336
 30
0.0
 40
0.036
 41
0.0
 46
0.0
 71
     4
 72
     1
  1
SIZE
  7
Roman
 73
     1
 44
1.0
  0
MTEXT
  5
F71
330
18
100
AcDbEntity
  8
TITLE BLOCK TEXT
100
AcDbMText
 10
221.1463230824977
 20
-3.725798926643472
 30
0.0
 40
0.048
 41
0.0
 46
0.0
 71
     4
 72
     1
  1
OPEN\PLOCK PICK SET\PPICK BLADE
  7
Roman
 73
     1
 44
1.0
  0
MTEXT
  5
F72
330
18
100
AcDbEntity
  8
TITLE BLOCK TEXT
100
AcDbMText
 10
221.3491514798801
 20
-4.014697940828336
 30
0.0
 40
0.036
 41
0.0
 46
0.0
 71
     4
 72
     1
  1
SCALE
  7
Roman
 73
     1
 44
1.0
  0
TEXT
  5
F73
330
18
100
AcDbEntity
  8
TITLE BLOCK TEXT
100
AcDbText
 10
221.8354072920479
 20
-4.034713782034117
 30
0.0
 40
0.039
  1
DWG NO.
  7
Roman
100
AcDbText
  0
LINE
  5
F74
330
18
100
AcDbEntity
  8
Title Block
100
AcDbLine
 10
215.1171132055122
 20
0.6807462179658899
 30
0.0
 11
222.8671132055122
 21
0.6807462179658899
 31
0.0
  0
TEXT
  5
F75
330
18
100
AcDbEntity
  8
TITLE BLOCK TEXT
100
AcDbText
 10
220.6963132055122
 20
0.5849262179658635
 30
0.0
 40
0.039
  1
DESCRIPTION
  7
Roman
100
AcDbText
  0
LINE
  5
F76
330
18
100
AcDbEntity
  8
Title Block
100
AcDbLine
 10
219.8671132055122
 20
0.5307462179658895
 30
0.0
 11
222.8671132055122
 21
0.5307462179658895
 31
0.0
  0
LINE
  5
F77
330
18
100
AcDbEntity
  8
Title Block
100
AcDbLine
 10
219.8671132055122
 20
0.6807462179658899
 30
0.0
 11
222.8671132055122
 21
0.6807462179658899
 31
0.0
  0
TEXT
  5
F78
330
18
100
AcDbEntity
  8
TITLE BLOCK TEXT
100
AcDbText
 10
219.9151732055121
 20
0.5849262179658635
 30
0.0
 40
0.039
  1
REV
  7
Roman
100
AcDbText
  0
LINE
  5
F79
330
18
100
AcDbEntity
  8
Title Block
100
AcDbLine
 10
219.8671132055122
 20
0.5307462179658895
 30
0.0
 11
219.8671132055122
 21
0.6807462179658899
 31
0.0
  0
LINE
  5
F7A
330
18
100
AcDbEntity
  8
Title Block
100
AcDbLine
 10
220.0951132055123
 20
0.5307462179658895
 30
0.0
 11
220.0951132055123
 21
0.6807462179658899
 31
0.0
  0
TEXT
  5
F7B
330
18
100
AcDbEntity
  8
TITLE BLOCK TEXT
100
AcDbText
 10
222.4119532055121
 20
0.5849262179658635
 30
0.0
 40
0.039
  1
APPROVED
  7
Roman
100
AcDbText
  0
LINE
  5
F7C
330
18
100
AcDbEntity
  8
Title Block
100
AcDbLine
 10
221.7391132055121
 20
0.5307462179658895
 30
0.0
 11
221.7391132055121
 21
0.6807462179658899
 31
0.0
  0
LINE
  5
F7D
330
18
100
AcDbEntity
  8
Title Block
100
AcDbLine
 10
222.2671132055122
 20
0.5307462179658895
 30
0.0
 11
222.2671132055122
 21
0.6807462179658899
 31
0.0
  0
TEXT
  5
F7E
330
18
100
AcDbEntity
  8
TITLE BLOCK TEXT
100
AcDbText
 10
221.9357332055122
 20
0.5849262179658635
 30
0.0
 40
0.039
  1
DATE
  7
Roman
100
AcDbText
  0
LINE
  5
119C
330
18
100
AcDbEntity
  8
PICK
100
AcDbLine
 10
215.9464550908254
 20
-1.580665411011395
 30
0.0
 11
215.9464550908254
 21
-1.269665411011402
 31
0.0
  0
LINE
  5
119D
330
18
100
AcDbEntity
  8
PICK
100
AcDbLine
 10
215.9664550908254
 20
-1.580665411011395
 30
0.0
 11
215.9664550908254
 21
-1.269665411011402
 31
0.0
  0
LINE
  5
119E
330
18
100
AcDbEntity
  8
PICK
100
AcDbLine
 10
214.836885864041
 20
-5.999676172326758
 30
0.0
 11
214.856885864041
 21
-5.999676172326758
 31
0.0
  0
LINE
  5
119F
330
18
100
AcDbEntity
  8
PICK
100
AcDbLine
 10
215.9664550908254
 20
-1.269665411011402
 30
0.0
 11
215.9464550908254
 21
-1.269665411011402
 31
0.0
  0
LINE
  5
11A0
330
18
100
AcDbEntity
  8
PICK
100
AcDbLine
 10
215.9464550908254
 20
-1.269665411011402
 30
0.0
 11
215.9664550908254
 21
-1.269665411011402
 31
0.0
  0
LINE
  5
11A1
330
18
100
AcDbEntity
  8
PICK
100
AcDbLine
 10
215.9464550908254
 20
-1.580665411011395
 30
0.0
 11
215.9664550908254
 21
-1.580665411011395
 31
0.0
  0
DIMENSION
  5
11A2
330
18
100
AcDbEntity
  8
D
100
AcDbDimension
  2
*D20
 10
215.9464550908254
 20
-1.073153340859391
 30
0.0
 11
215.6644550908254
 21
-1.073153340859391
 31
0.0
 70
    32
  1
<> REF
 71
     5
 42
0.0199999999999818
 73
     0
 74
     0
 75
     0
  3
TPS3
100
AcDbAlignedDimension
 13
215.9664550908254
 23
-1.269665411011402
 33
0.0
 14
215.9464550908254
 24
-1.269665411011402
 34
0.0
100
AcDbRotatedDimension
  0
LINE
  5
123E
330
18
100
AcDbEntity
  8
Title Block
100
AcDbLine
 10
218.3670431001213
 20
-3.194056640204962
 30
0.0
 11
215.1171132055122
 21
-3.194056640204962
 31
0.0
  0
MTEXT
  5
1240
330
18
100
AcDbEntity
  8
D
100
AcDbMText
 10
216.6536727265738
 20
-3.963035119641034
 30
0.0
 40
0.04
 41
0.0
 46
0.0
 71
     5
 72
     1
  1
*****THIS VIEW IS 1:1 ONLY WHEN PRINTED \PON 11X17 PAPER.*****
 73
     1
 44
1.0
  0
LINE
  5
1241
330
18
100
AcDbEntity
  8
Title Block
100
AcDbLine
 10
218.3670431001213
 20
-4.19425378203411
 30
0.0
 11
218.3670431001213
 21
-3.194056640204962
 31
0.0
  0
LINE
  5
12AA
330
18
100
AcDbEntity
  8
Title Block
100
AcDbLine
 10
220.2808159956285
 20
-3.379762381082252
 30
0.0
 11
221.1129344065042
 21
-3.379762381082251
 31
0.0
  0
MTEXT
  5
137A
330
18
100
AcDbEntity
  8
D
100
AcDbMText
 10
216.6536727265738
 20
-3.39668549162647
 30
0.0
 40
0.04
 41
0.0
 46
0.0
 71
     5
 72
     1
  1
*****THIS VIEW IS 1:1 ONLY WHEN PRINTED \PON 11X17 PAPER.*****
 73
     1
 44
1.0
  0
MTEXT
  5
17D9
330
18
100
AcDbEntity
  8
TITLE BLOCK TEXT
100
AcDbMText
 10
221.1561052303493
 20
-3.91012371801049
 30
0.0
 40
0.048
 41
0.0
 46
0.0
 71
     4
 72
     1
  1
DATE: 5-18-2011
  7
Roman
 73
     1
 44
1.0
  0
LINE
  5
1A82
330
18
100
AcDbEntity
  8
PICK
100
AcDbLine
 10
217.1842956006615
 20
-1.580665411011395
 30
0.0
 11
220.1147956006615
 21
-1.580665411011395
 31
0.0
  0
LINE
  5
1A83
330
18
100
AcDbEntity
  8
PICK
100
AcDbLine
 10
217.1842956006615
 20
-1.269665411011395
 30
0.0
 11
219.9657956006615
 21
-1.269665411011395
 31
0.0
  0
LINE
  5
1A84
330
18
100
AcDbEntity
  8
PICK
100
AcDbLine
 10
217.0637956006614
 20
-1.460165411011393
 30
0.0
 11
217.0637956006614
 21
-1.390165411011395
 31
0.0
  0
ARC
  5
1A85
330
18
100
AcDbEntity
  8
PICK
100
AcDbCircle
 10
219.9299898472671
 20
-2.082980753396274
 30
0.0
 40
0.8141031250000029
100
AcDbArc
 50
51.40869651708104
 51
87.47921304375259
  0
ARC
  5
1A87
330
18
100
AcDbEntity
  8
PICK
100
AcDbCircle
 10
220.1217076716806
 20
-1.38164724801128
 30
0.0
 40
0.1991381578947491
100
AcDbArc
 50
268.0108681009747
 51
304.5491451693777
  0
ARC
  5
1A88
330
18
100
AcDbEntity
  8
PICK
100
AcDbCircle
 10
217.1842956006615
 20
-1.390165411011395
 30
0.0
 40
0.1204999999999998
100
AcDbArc
 50
90.0
 51
180.0
  0
ARC
  5
1A89
330
18
100
AcDbEntity
  8
PICK
100
AcDbCircle
 10
217.1842956006615
 20
-1.460165411011395
 30
0.0
 40
0.1204999999999998
100
AcDbArc
 50
179.999999999999
 51
270.0
  0
LINE
  5
1A8A
330
18
100
AcDbEntity
  8
PICK
100
AcDbLine
 10
221.7267956237972
 20
-1.545665411011396
 30
0.0
 11
220.2346414936109
 21
-1.545665411011396
 31
0.0
  0
LINE
  5
1A8B
330
18
100
AcDbEntity
  8
PICK
100
AcDbLine
 10
220.4817956237973
 20
-1.452665411011397
 30
0.0
 11
220.4377956006614
 21
-1.446665411011395
 31
0.0
  0
LINE
  5
1A8C
330
18
100
AcDbEntity
  8
PICK
100
AcDbLine
 10
221.6117956237972
 20
-1.504665411011396
 30
0.0
 11
220.4817956237973
 21
-1.452665411011397
 31
0.0
  0
LINE
  5
1A8D
330
18
100
AcDbEntity
  8
PICK
100
AcDbLine
 10
221.6117956237972
 20
-1.504665411011396
 30
0.0
 11
221.6547956237973
 21
-1.464665411011397
 31
0.0
  0
LINE
  5
1A8E
330
18
100
AcDbEntity
  8
PICK
100
AcDbLine
 10
221.6547956237973
 20
-1.464665411011397
 30
0.0
 11
221.7267956237972
 21
-1.545665411011396
 31
0.0
  0
LINE
  5
1A9F
330
18
100
AcDbEntity
  8
Title Block
100
AcDbLine
 10
215.6540003541752
 20
-3.591049519725732
 30
0.0
 11
217.0447503541752
 21
-3.591049519725732
 31
0.0
  0
LINE
  5
1AA0
330
18
100
AcDbEntity
  8
Title Block
100
AcDbLine
 10
215.6540003541752
 20
-3.746549519725732
 30
0.0
 11
217.1192503541752
 21
-3.746549519725732
 31
0.0
  0
ARC
  5
1AA1
330
18
100
AcDbEntity
  8
Title Block
100
AcDbCircle
 10
215.6540003541752
 20
-3.686299519725732
 30
0.0
 40
0.0602499999999999
100
AcDbArc
 50
179.999999999999
 51
270.0
  0
ARC
  5
1AA2
330
18
100
AcDbEntity
  8
Title Block
100
AcDbCircle
 10
215.6540003541752
 20
-3.651299519725732
 30
0.0
 40
0.0602499999999999
100
AcDbArc
 50
90.0
 51
180.0
  0
LINE
  5
1AA3
330
18
100
AcDbEntity
  8
Title Block
100
AcDbLine
 10
215.5937503541752
 20
-3.686299519725731
 30
0.0
 11
215.5937503541752
 21
-3.651299519725732
 31
0.0
  0
LINE
  5
1AA4
330
18
100
AcDbEntity
  8
Title Block
100
AcDbLine
 10
217.8892503657431
 20
-3.688549519725733
 30
0.0
 11
217.9252503657431
 21
-3.729049519725733
 31
0.0
  0
LINE
  5
1AA5
330
18
100
AcDbEntity
  8
Title Block
100
AcDbLine
 10
217.8677503657431
 20
-3.708549519725733
 30
0.0
 11
217.8892503657431
 21
-3.688549519725733
 31
0.0
  0
LINE
  5
1AA6
330
18
100
AcDbEntity
  8
Title Block
100
AcDbLine
 10
217.8677503657431
 20
-3.708549519725733
 30
0.0
 11
217.3027503657431
 21
-3.682549519725733
 31
0.0
  0
LINE
  5
1AA7
330
18
100
AcDbEntity
  8
Title Block
100
AcDbLine
 10
217.3027503657431
 20
-3.682549519725733
 30
0.0
 11
217.2807503541752
 21
-3.679549519725732
 31
0.0
  0
LINE
  5
1AA8
330
18
100
AcDbEntity
  8
Title Block
100
AcDbLine
 10
217.9252503657431
 20
-3.729049519725733
 30
0.0
 11
217.1791733006499
 21
-3.729049519725733
 31
0.0
  0
ARC
  5
1AA9
330
18
100
AcDbEntity
  8
Title Block
100
AcDbCircle
 10
217.1227063896848
 20
-3.647040438225674
 30
0.0
 40
0.0995690789473746
100
AcDbArc
 50
268.0108681009747
 51
304.5491451693777
  0
ARC
  5
1AAA
330
18
100
AcDbEntity
  8
Title Block
100
AcDbCircle
 10
217.026847477478
 20
-3.997707190918172
 30
0.0
 40
0.4070515625000015
100
AcDbArc
 50
51.40869651708104
 51
87.47921304375259
  0
POINT
  5
1AAB
330
18
100
AcDbEntity
  8
D
100
AcDbPoint
 10
217.0637956006614
 20
-1.390165411011395
 30
0.0
  0
POINT
  5
1AAC
330
18
100
AcDbEntity
  8
D
100
AcDbPoint
 10
217.1842956006615
 20
-1.269665411011395
 30
0.0
  0
POINT
  5
1AAD
330
18
100
AcDbEntity
  8
D
100
AcDbPoint
 10
219.9657956006615
 20
-1.269665411011395
 30
0.0
  0
POINT
  5
1AAE
330
18
100
AcDbEntity
  8
D
100
AcDbPoint
 10
220.4377956006614
 20
-1.446665411011395
 30
0.0
  0
POINT
  5
1AAF
330
18
100
AcDbEntity
  8
D
100
AcDbPoint
 10
221.6117956237972
 20
-1.504665411011396
 30
0.0
  0
POINT
  5
1AB0
330
18
100
AcDbEntity
  8
D
100
AcDbPoint
 10
221.6547956237973
 20
-1.464665411011397
 30
0.0
  0
POINT
  5
1AB1
330
18
100
AcDbEntity
  8
D
100
AcDbPoint
 10
221.7267956237972
 20
-1.545665411011396
 30
0.0
  0
POINT
  5
1AB2
330
18
100
AcDbEntity
  8
D
100
AcDbPoint
 10
220.2346414936109
 20
-1.545665411011396
 30
0.0
  0
POINT
  5
1AB3
330
18
100
AcDbEntity
  8
D
100
AcDbPoint
 10
220.1147956006615
 20
-1.580665411011395
 30
0.0
  0
POINT
  5
1AB4
330
18
100
AcDbEntity
  8
D
100
AcDbPoint
 10
217.1842956006615
 20
-1.580665411011395
 30
0.0
  0
POINT
  5
1AB5
330
18
100
AcDbEntity
  8
D
100
AcDbPoint
 10
217.0637956006614
 20
-1.460165411011393
 30
0.0
  0
DIMENSION
  5
1AB6
330
18
100
AcDbEntity
  8
D
100
AcDbDimension
  2
*D23
 10
217.0637956006614
 20
-1.390165411011395
 30
0.0
 11
217.0637956006614
 21
-0.9981055470530204
 31
0.0
 70
   102
 71
     5
 42
0.0
 73
     0
 74
     0
 75
     0
  3
TPS3
100
AcDbOrdinateDimension
 13
217.0637956006614
 23
-1.390165411011395
 33
0.0
 14
217.0637956006614
 24
-1.100772213719722
 34
0.0
  0
DIMENSION
  5
1ABF
330
18
100
AcDbEntity
  8
D
100
AcDbDimension
  2
*D24
 10
217.0637956006614
 20
-1.390165411011395
 30
0.0
 11
216.7270861917303
 21
-1.390165411011395
 31
0.0
 70
    38
 71
     5
 42
0.0
 73
     0
 74
     0
 75
     0
  3
TPS3
100
AcDbOrdinateDimension
 13
217.0637956006614
 23
-1.390165411011395
 33
0.0
 14
216.8297528583969
 24
-1.390165411011395
 34
0.0
  0
DIMENSION
  5
1AC8
330
18
100
AcDbEntity
  8
D
100
AcDbDimension
  2
*D25
 10
217.0637956006614
 20
-1.390165411011395
 30
0.0
 11
217.1842956006615
 21
-0.8974926658236425
 31
0.0
 70
   102
 71
     5
 42
0.1204999999999927
 73
     0
 74
     0
 75
     0
  3
TPS3
100
AcDbOrdinateDimension
 13
217.1842956006615
 23
-1.269665411011395
 33
0.0
 14
217.1842956006615
 24
-0.9968259991570107
 34
0.0
  0
DIMENSION
  5
1AD1
330
18
100
AcDbEntity
  8
D
100
AcDbDimension
  2
*D26
 10
217.0637956006614
 20
-1.390165411011395
 30
0.0
 11
216.7073009579918
 21
-1.269665411011395
 31
0.0
 70
    38
 71
     5
 42
0.1204999999999998
 73
     0
 74
     0
 75
     0
  3
TPS3
100
AcDbOrdinateDimension
 13
217.1842956006615
 23
-1.269665411011395
 33
0.0
 14
216.8066342913252
 24
-1.269665411011395
 34
0.0
  0
DIMENSION
  5
1ADA
330
18
100
AcDbEntity
  8
D
100
AcDbDimension
  2
*D27
 10
217.0637956006614
 20
-1.390165411011395
 30
0.0
 11
219.9657956006615
 21
-0.9419071577991743
 31
0.0
 70
   102
 71
     5
 42
2.902000000000043
 73
     0
 74
     0
 75
     0
  3
TPS3
100
AcDbOrdinateDimension
 13
219.9657956006615
 23
-1.269665411011395
 33
0.0
 14
219.9657956006615
 24
-1.054573824465876
 34
0.0
  0
DIMENSION
  5
1AE3
330
18
100
AcDbEntity
  8
D
100
AcDbDimension
  2
*D28
 10
217.0637956006614
 20
-1.390165411011395
 30
0.0
 11
220.4377956006614
 21
-1.120091362781728
 31
0.0
 70
   102
 71
     5
 42
3.373999999999966
 73
     0
 74
     0
 75
     0
  3
TPS3
100
AcDbOrdinateDimension
 13
220.4377956006614
 23
-1.446665411011395
 33
0.0
 14
220.4377956006614
 24
-1.236091362781763
 34
0.0
  0
DIMENSION
  5
1AEC
330
18
100
AcDbEntity
  8
D
100
AcDbDimension
  2
*D29
 10
217.0637956006614
 20
-1.390165411011395
 30
0.0
 11
221.6117956237972
 21
-1.203230187483561
 31
0.0
 70
   102
 71
     5
 42
4.548000023135784
 73
     0
 74
     0
 75
     0
  3
TPS3
100
AcDbOrdinateDimension
 13
221.6117956237972
 23
-1.504665411011396
 33
0.0
 14
221.6117956237972
 24
-1.319230187483597
 34
0.0
  0
DIMENSION
  5
1AF5
330
18
100
AcDbEntity
  8
D
100
AcDbDimension
  2
*D30
 10
217.0637956006614
 20
-1.390165411011395
 30
0.0
 11
221.721417711826
 21
-1.091033375035151
 31
0.0
 70
   102
 71
     5
 42
4.591000023135791
 73
     0
 74
     0
 75
     0
  3
TPS3
100
AcDbOrdinateDimension
 13
221.6547956237973
 23
-1.464665411011397
 33
0.0
 14
221.721417711826
 24
-1.20036670836852
 34
0.0
  0
DIMENSION
  5
1B00
330
18
100
AcDbEntity
  8
D
100
AcDbDimension
  2
*D31
 10
217.0637956006614
 20
-1.390165411011395
 30
0.0
 11
221.8118296146135
 21
-1.11764840511666
 31
0.0
 70
   102
 71
     5
 42
4.663000023135793
 73
     0
 74
     0
 75
     0
  3
TPS3
100
AcDbOrdinateDimension
 13
221.7267956237972
 23
-1.545665411011396
 33
0.0
 14
221.8118296146135
 24
-1.233648405116696
 34
0.0
  0
DIMENSION
  5
1B0B
330
18
100
AcDbEntity
  8
D
100
AcDbDimension
  2
*D32
 10
217.0637956006614
 20
-1.390165411011395
 30
0.0
 11
221.2556787550072
 21
-1.38579379599119
 31
0.0
 70
    38
 71
     5
 42
0.1145000000000014
 73
     0
 74
     0
 75
     0
  3
TPS3
100
AcDbOrdinateDimension
 13
221.6117956237972
 23
-1.504665411011396
 33
0.0
 14
221.3550120883406
 24
-1.38579379599119
 34
0.0
  0
DIMENSION
  5
1B16
330
18
100
AcDbEntity
  8
D
100
AcDbDimension
  2
*D33
 10
217.0637956006614
 20
-1.390165411011395
 30
0.0
 11
221.3360904275944
 21
-1.300212013624289
 31
0.0
 70
    38
 71
     5
 42
0.0745000000000022
 73
     0
 74
     0
 75
     0
  3
TPS3
100
AcDbOrdinateDimension
 13
221.6547956237973
 23
-1.464665411011397
 33
0.0
 14
221.4454237609277
 24
-1.300212013624289
 34
0.0
  0
DIMENSION
  5
1B21
330
18
100
AcDbEntity
  8
D
100
AcDbDimension
  2
*D34
 10
217.0637956006614
 20
-1.390165411011395
 30
0.0
 11
222.1176870809326
 21
-1.614011667291691
 31
0.0
 70
    38
 71
     5
 42
0.1555000000000017
 73
     0
 74
     0
 75
     0
  3
TPS3
100
AcDbOrdinateDimension
 13
221.7267956237972
 23
-1.545665411011396
 33
0.0
 14
222.0116870809326
 24
-1.614011667291691
 34
0.0
  0
DIMENSION
  5
1B2C
330
18
100
AcDbEntity
  8
D
100
AcDbDimension
  2
*D35
 10
217.0637956006614
 20
-1.390165411011395
 30
0.0
 11
220.2838541160184
 21
-1.907561546709341
 31
0.0
 70
   102
 71
     5
 42
3.170845892949444
 73
     0
 74
     0
 75
     0
  3
TPS3
100
AcDbOrdinateDimension
 13
220.2346414936109
 23
-1.545665411011396
 33
0.0
 14
220.2838541160184
 24
-1.804894880042709
 34
0.0
  0
DIMENSION
  5
1B37
330
18
100
AcDbEntity
  8
D
100
AcDbDimension
  2
*D36
 10
217.0637956006614
 20
-1.390165411011395
 30
0.0
 11
220.6039874609466
 21
-1.643240509744188
 31
0.0
 70
    38
 71
     5
 42
0.1555000000000017
 73
     0
 74
     0
 75
     0
  3
TPS3
100
AcDbOrdinateDimension
 13
220.2346414936109
 23
-1.545665411011396
 33
0.0
 14
220.4979874609466
 24
-1.643240509744188
 34
0.0
  0
DIMENSION
  5
1B42
330
18
100
AcDbEntity
  8
D
100
AcDbDimension
  2
*D37
 10
217.0637956006614
 20
-1.390165411011395
 30
0.0
 11
220.1147956006615
 21
-1.925158510437155
 31
0.0
 70
   102
 71
     5
 42
3.051000000000044
 73
     0
 74
     0
 75
     0
  3
TPS3
100
AcDbOrdinateDimension
 13
220.1147956006615
 23
-1.580665411011395
 33
0.0
 14
220.1147956006615
 24
-1.819158510437191
 34
0.0
  0
DIMENSION
  5
1B4B
330
18
100
AcDbEntity
  8
D
100
AcDbDimension
  2
*D38
 10
217.0637956006614
 20
-1.390165411011395
 30
0.0
 11
217.1842956006615
 21
-1.893253287343945
 31
0.0
 70
   102
 71
     5
 42
0.1204999999999927
 73
     0
 74
     0
 75
     0
  3
TPS3
100
AcDbOrdinateDimension
 13
217.1842956006615
 23
-1.580665411011395
 33
0.0
 14
217.1842956006615
 24
-1.793919954010647
 34
0.0
  0
DIMENSION
  5
1B54
330
18
100
AcDbEntity
  8
D
100
AcDbDimension
  2
*D39
 10
217.0637956006614
 20
-1.390165411011395
 30
0.0
 11
216.8576989447868
 21
-1.580665411011395
 31
0.0
 70
    38
 71
     5
 42
0.1905000000000001
 73
     0
 74
     0
 75
     0
  3
TPS3
100
AcDbOrdinateDimension
 13
217.1842956006615
 23
-1.580665411011395
 33
0.0
 14
216.9570322781201
 24
-1.580665411011395
 34
0.0
  0
DIMENSION
  5
1B5D
330
18
100
AcDbEntity
  8
D
100
AcDbDimension
  2
*D40
 10
217.0637956006614
 20
-1.390165411011395
 30
0.0
 11
216.7128878593065
 21
-1.460165411011393
 31
0.0
 70
    38
 71
     5
 42
0.0699999999999981
 73
     0
 74
     0
 75
     0
  3
TPS3
100
AcDbOrdinateDimension
 13
217.0637956006614
 23
-1.460165411011393
 33
0.0
 14
216.8188878593065
 24
-1.460165411011393
 34
0.0
  0
DIMENSION
  5
1B66
330
18
100
AcDbEntity
  8
D
100
AcDbDimension
  2
*D41
 10
217.1842956006611
 20
-1.390165411011395
 30
0.0
 11
216.8586059479562
 21
-1.092282602565774
 31
0.0
 70
   164
 71
     5
 42
0.1204999999997653
 73
     0
 74
     0
 75
     0
  3
TPS3
100
AcDbRadialDimension
 15
217.0953780059559
 25
-1.30883945358218
 35
0.0
 40
0.0
1001
ACAD
1000
DSTYLE
1002
{
1070
   288
1070
     1
1002
}
  0
DIMENSION
  5
1B6F
330
18
100
AcDbEntity
  8
D
100
AcDbDimension
  2
*D42
 10
219.929989847267
 20
-2.082980753396256
 30
0.0
 11
220.2933128207862
 21
-0.942172078030623
 31
0.0
 70
   164
 71
     5
 42
0.8141031250000168
 73
     0
 74
     0
 75
     0
  3
TPS3
100
AcDbRadialDimension
 15
220.1770378275155
 25
-1.307267408409884
 35
0.0
 40
0.0
1001
ACAD
1000
DSTYLE
1002
{
1070
   288
1070
     1
1002
}
  0
DIMENSION
  5
1B78
330
18
100
AcDbEntity
  8
D
100
AcDbDimension
  2
*D43
 10
220.1217076716808
 20
-1.381647248011347
 30
0.0
 11
220.3819100537183
 21
-1.808132519236622
 31
0.0
 70
   164
 71
     5
 42
0.1991381578946232
 73
     0
 74
     0
 75
     0
  3
TPS3
100
AcDbRadialDimension
 15
220.225424169192
 25
-1.551643995255716
 35
0.0
 40
0.0
1001
ACAD
1000
DSTYLE
1002
{
1070
   288
1070
     1
1002
}
  0
DIMENSION
  5
1B81
330
18
100
AcDbEntity
  8
D
100
AcDbDimension
  2
*D44
 10
217.1842956006616
 20
-1.460165411011487
 30
0.0
 11
216.9426891809901
 21
-1.761695360004722
 31
0.0
 70
   164
 71
     5
 42
0.1205000000000211
 73
     0
 74
     0
 75
     0
  3
TPS3
100
AcDbRadialDimension
 15
217.1089471407484
 25
-1.554201891106799
 35
0.0
 40
0.0
1001
ACAD
1000
DSTYLE
1002
{
1070
   288
1070
     1
1002
}
  0
DIMENSION
  5
1B8A
330
18
100
AcDbEntity
  8
D
100
AcDbDimension
  2
*D45
 10
218.6042048599397
 20
-1.269665411011395
 30
0.0
 11
218.6042048599397
 21
-1.042332077678026
 31
0.0
 70
   160
  1
<> REF
 71
     5
 42
0.3109999999999999
 73
     0
 74
     0
 75
     0
  3
TPS3
100
AcDbAlignedDimension
 13
218.5732208051582
 23
-1.580665411011395
 33
0.0
 14
218.5732208051582
 24
-1.269665411011395
 34
0.0
 50
90.0
100
AcDbRotatedDimension
  0
DIMENSION
  5
1BAC
330
18
100
AcDbEntity
  8
D
100
AcDbDimension
  2
*D46
 10
217.0637956006614
 20
-2.190023006221863
 30
0.0
 11
219.3952956122294
 21
-2.190023006221863
 31
0.0
 70
    32
  1
<> REF
 71
     5
 42
4.663000023135793
 73
     0
 74
     0
 75
     0
  3
TPS3
100
AcDbAlignedDimension
 13
221.7267956237972
 23
-1.545665411011396
 33
0.0
 14
217.0637956006614
 24
-1.460165411011393
 34
0.0
100
AcDbRotatedDimension
  0
POINT
  5
1BD5
330
18
100
AcDbEntity
  8
D
100
AcDbPoint
 10
220.4817956237973
 20
-1.452665411011397
 30
0.0
  0
DIMENSION
  5
1BD6
330
18
100
AcDbEntity
  8
D
100
AcDbDimension
  2
*D47
 10
217.0637956006614
 20
-1.390165411011395
 30
0.0
 11
220.5161700075654
 21
-1.109973518362752
 31
0.0
 70
   102
 71
     5
 42
3.418000023135789
 73
     0
 74
     0
 75
     0
  3
TPS3
100
AcDbOrdinateDimension
 13
220.4817956237973
 23
-1.452665411011397
 33
0.0
 14
220.5161700075654
 24
-1.219306851696121
 34
0.0
  0
DIMENSION
  5
1BE1
330
18
100
AcDbEntity
  8
D
100
AcDbDimension
  2
*D48
 10
217.0637956006614
 20
-1.390165411011395
 30
0.0
 11
220.1261296582956
 21
-1.431219417918615
 31
0.0
 70
    38
 71
     5
 42
0.0564999999999998
 73
     0
 74
     0
 75
     0
  3
TPS3
100
AcDbOrdinateDimension
 13
220.4377956006614
 23
-1.446665411011395
 33
0.0
 14
220.2354629916289
 24
-1.431219417918615
 34
0.0
  0
DIMENSION
  5
1BEC
330
18
100
AcDbEntity
  8
D
100
AcDbDimension
  2
*D49
 10
217.0637956006614
 20
-1.390165411011395
 30
0.0
 11
220.7861301124414
 21
-1.38291581849371
 31
0.0
 70
    38
 71
     5
 42
0.0625000000000018
 73
     0
 74
     0
 75
     0
  3
TPS3
100
AcDbOrdinateDimension
 13
220.4817956237973
 23
-1.452665411011397
 33
0.0
 14
220.6767967791081
 24
-1.38291581849371
 34
0.0
  0
MTEXT
  5
1C08
330
18
100
AcDbEntity
  8
TITLE BLOCK TEXT
100
AcDbMText
 10
220.3431312761054
 20
-3.489393816339566
 30
0.0
 40
0.048
 41
0.0
 46
0.0
 71
     4
 72
     1
  1
MOCK UP QTY: 30\PPROD QTY: 2500
  7
Roman
 73
     1
 44
1.0
  0
MTEXT
  5
1C09
330
18
100
AcDbEntity
  8
TITLE BLOCK TEXT
100
AcDbMText
 10
220.3496846080446
 20
-3.746666059204761
 30
0.0
 40
0.036
 41
0.0
 46
0.0
 71
     4
 72
     1
  1
MATL: 1095 STEEL\PMATL CERTS REQUIRED\PFINISH: DEBUR, TUMBLE
  7
Roman
 73
     1
 44
1.0
  0
MTEXT
  5
1C0A
330
18
100
AcDbEntity
  8
TITLE BLOCK TEXT
100
AcDbMText
 10
221.3459265286971
 20
-3.342274995093253
 30
0.0
 40
0.036
 41
0.0
 46
0.0
 71
     4
 72
     1
  1
NOTES:\P-CAD FILES AVAILABLE WITH ORDER.\P-ACAD 2000 DWG OR ACAD DXF PROVIDED.\P-CAD FILE IN MAIN VIEW IS DRAWN 1:1.\P-BORDER IS SCALED TO PRINT.\P-LAYED TO CUT IS CALLED "PICK"
  7
Roman
 73
     1
 44
1.0
  0
ENDSEC
  0
SECTION
  2
OBJECTS
  0
DICTIONARY
  5
C
330
0
100
AcDbDictionary
281
     1
  3
ACAD_COLOR
350
1C43
  3
ACAD_GROUP
350
D
  3
ACAD_LAYOUT
350
107
  3
ACAD_MATERIAL
350
1C16
  3
ACAD_MLEADERSTYLE
350
1C68
  3
ACAD_MLINESTYLE
350
E
  3
ACAD_PLOTSETTINGS
350
108
  3
ACAD_PLOTSTYLENAME
350
105
  3
ACAD_SCALELIST
350
1C46
  3
ACAD_TABLESTYLE
350
1C44
  3
ACAD_VISUALSTYLE
350
1C2F
  3
AcadDim
350
2A8
  3
ACDB_RECOMPOSE_DATA
350
1C9B
  3
AcDbVariableDictionary
350
1C90
  3
ASE_INDEX_DICTIONARY
350
29C
  0
DICTIONARY
  5
1C71
330
F
100
AcDbDictionary
280
     1
281
     1
  3
ADSK_XREC_LAYER_RECONCILED
360
1C72
  0
DICTIONARY
  5
1C73
330
24
100
AcDbDictionary
280
     1
281
     1
  3
ADSK_XREC_LAYER_RECONCILED
360
1C74
  0
DICTIONARY
  5
1C75
330
25
100
AcDbDictionary
280
     1
281
     1
  3
ADSK_XREC_LAYER_RECONCILED
360
1C76
  0
DICTIONARY
  5
1C77
330
26
100
AcDbDictionary
280
     1
281
     1
  3
ADSK_XREC_LAYER_RECONCILED
360
1C78
  0
DICTIONARY
  5
1C79
330
27
100
AcDbDictionary
280
     1
281
     1
  3
ADSK_XREC_LAYER_RECONCILED
360
1C7A
  0
DICTIONARY
  5
1C7B
330
28
100
AcDbDictionary
280
     1
281
     1
  3
ADSK_XREC_LAYER_RECONCILED
360
1C7C
  0
DICTIONARY
  5
1C7D
330
2A
100
AcDbDictionary
280
     1
281
     1
  3
ADSK_XREC_LAYER_RECONCILED
360
1C7E
  0
DICTIONARY
  5
1C7F
330
371
100
AcDbDictionary
280
     1
281
     1
  3
ADSK_XREC_LAYER_RECONCILED
360
1C80
  0
DICTIONARY
  5
1C81
330
372
100
AcDbDictionary
280
     1
281
     1
  3
ADSK_XREC_LAYER_RECONCILED
360
1C82
  0
DICTIONARY
  5
1C83
330
373
100
AcDbDictionary
280
     1
281
     1
  3
ADSK_XREC_LAYER_RECONCILED
360
1C84
  0
DICTIONARY
  5
1C85
330
374
100
AcDbDictionary
280
     1
281
     1
  3
ADSK_XREC_LAYER_RECONCILED
360
1C86
  0
DICTIONARY
  5
1C87
330
496
100
AcDbDictionary
280
     1
281
     1
  3
ADSK_XREC_LAYER_RECONCILED
360
1C88
  0
DICTIONARY
  5
1C89
330
4F0
100
AcDbDictionary
280
     1
281
     1
  3
ADSK_XREC_LAYER_RECONCILED
360
1C8A
  0
DICTIONARY
  5
1C8B
330
504
100
AcDbDictionary
280
     1
281
     1
  3
ADSK_XREC_LAYER_RECONCILED
360
1C8C
  0
DICTIONARY
  5
AF8
330
AF7
100
AcDbDictionary
280
     1
281
     1
  3
ADSK_XREC_LAYER_RECONCILED
360
1C8D
  0
DICTIONARY
  5
1C8E
330
1197
100
AcDbDictionary
280
     1
281
     1
  3
ADSK_XREC_LAYER_RECONCILED
360
1C8F
  0
DICTIONARY
  5
9AD
330
9A4
100
AcDbDictionary
280
     1
281
     1
  3
ACAD_SORTENTS
360
9AE
  0
DICTIONARY
  5
AA9
330
AA8
100
AcDbDictionary
280
     1
281
     1
  0
DICTIONARY
  5
AAB
330
AAA
100
AcDbDictionary
280
     1
281
     1
  0
DICTIONARY
  5
AAD
330
AAC
100
AcDbDictionary
280
     1
281
     1
  0
DICTIONARY
  5
AAF
330
AAE
100
AcDbDictionary
280
     1
281
     1
  0
DICTIONARY
  5
AB1
330
AB0
100
AcDbDictionary
280
     1
281
     1
  0
DICTIONARY
  5
AB3
330
AB2
100
AcDbDictionary
280
     1
281
     1
  0
DICTIONARY
  5
AB5
330
AB4
100
AcDbDictionary
280
     1
281
     1
  0
DICTIONARY
  5
AB7
330
AB6
100
AcDbDictionary
280
     1
281
     1
  0
DICTIONARY
  5
AB9
330
AB8
100
AcDbDictionary
280
     1
281
     1
  0
DICTIONARY
  5
ABB
330
ABA
100
AcDbDictionary
280
     1
281
     1
  0
DICTIONARY
  5
ABD
330
ABC
100
AcDbDictionary
280
     1
281
     1
  0
DICTIONARY
  5
ABF
330
ABE
100
AcDbDictionary
280
     1
281
     1
  0
DICTIONARY
  5
ACE
330
ACD
100
AcDbDictionary
280
     1
281
     1
  0
DICTIONARY
  5
AD0
330
ACF
100
AcDbDictionary
280
     1
281
     1
  0
DICTIONARY
  5
AD2
330
AD1
100
AcDbDictionary
280
     1
281
     1
  0
DICTIONARY
  5
AD4
330
AD3
100
AcDbDictionary
280
     1
281
     1
  0
DICTIONARY
  5
AD6
330
AD5
100
AcDbDictionary
280
     1
281
     1
  0
DICTIONARY
  5
1C43
102
{ACAD_REACTORS
330
C
102
}
330
C
100
AcDbDictionary
281
     1
  0
DICTIONARY
  5
D
102
{ACAD_REACTORS
330
C
102
}
330
C
100
AcDbDictionary
281
     1
  0
DICTIONARY
  5
107
102
{ACAD_REACTORS
330
C
102
}
330
C
100
AcDbDictionary
281
     1
  3
Layout1
350
10A
  3
Model
350
109
  0
DICTIONARY
  5
1C16
102
{ACAD_REACTORS
330
C
102
}
330
C
100
AcDbDictionary
281
     1
  3
ByBlock
350
1C1F
  3
ByLayer
350
1C17
  3
Global
350
1C27
  0
DICTIONARY
  5
1C68
102
{ACAD_REACTORS
330
C
102
}
330
C
100
AcDbDictionary
281
     1
  3
Standard
350
1C69
  0
DICTIONARY
  5
E
102
{ACAD_REACTORS
330
C
102
}
330
C
100
AcDbDictionary
281
     1
  3
STANDARD
350
1B
  0
DICTIONARY
  5
108
102
{ACAD_REACTORS
330
C
102
}
330
C
100
AcDbDictionary
281
     1
  3
hp-a-fit
350
11C
  3
hp-B-1-1
350
11B
  0
ACDBDICTIONARYWDFLT
  5
105
102
{ACAD_REACTORS
330
C
102
}
330
C
100
AcDbDictionary
281
     1
  3
Normal
350
106
100
AcDbDictionaryWithDefault
340
106
  0
DICTIONARY
  5
1C46
102
{ACAD_REACTORS
330
C
102
}
330
C
100
AcDbDictionary
281
     1
  3
A0
350
1C47
  3
A1
350
1C48
  3
A2
350
1C49
  3
A3
350
1C4A
  3
A4
350
1C4B
  3
A5
350
1C4C
  3
A6
350
1C4D
  3
A7
350
1C4E
  3
A8
350
1C4F
  3
A9
350
1C50
  3
B0
350
1C51
  3
B1
350
1C52
  3
B2
350
1C53
  3
B3
350
1C54
  3
B4
350
1C55
  3
B5
350
1C56
  3
B6
350
1C57
  3
B7
350
1C58
  3
B8
350
1C59
  3
B9
350
1C5A
  3
C0
350
1C5B
  3
C1
350
1C5C
  3
C2
350
1C5D
  3
C3
350
1C5E
  3
C4
350
1C5F
  3
C5
350
1C60
  3
C6
350
1C61
  3
C7
350
1C62
  3
C8
350
1C63
  3
C9
350
1C64
  3
D0
350
1C65
  3
D1
350
1C66
  3
D2
350
1C67
  0
DICTIONARY
  5
1C44
102
{ACAD_REACTORS
330
C
102
}
330
C
100
AcDbDictionary
281
     1
  3
Standard
350
1C45
  0
DICTIONARY
  5
1C2F
102
{ACAD_REACTORS
330
C
102
}
330
C
100
AcDbDictionary
281
     1
  3
2dWireframe
350
1C35
  3
3D Hidden
350
1C37
  3
3dWireframe
350
1C36
  3
Basic
350
1C34
  3
Brighten
350
1C3B
  3
ColorChange
350
1C3F
  3
Conceptual
350
1C38
  3
Dim
350
1C3A
  3
EdgeColorOff
350
1C42
  3
Facepattern
350
1C3E
  3
Flat
350
1C30
  3
FlatWithEdges
350
1C31
  3
Gouraud
350
1C32
  3
GouraudWithEdges
350
1C33
  3
JitterOff
350
1C40
  3
Linepattern
350
1C3D
  3
OverhangOff
350
1C41
  3
Realistic
350
1C39
  3
Thicken
350
1C3C
  0
XRECORD
  5
2A8
102
{ACAD_REACTORS
330
C
102
}
330
C
100
AcDbXrecord
280
     1
 90
   990106
  3

 60
     0
 61
     0
 62
     2
 63
     2
 64
     0
 65
     0
 66
     0
 67
     3
 68
     0
 69
     0
 70
     0
 71
     0
 72
     0
 40
0.0
170
     2
340
1240
  0
XRECORD
  5
1C9B
102
{ACAD_REACTORS
330
C
102
}
330
C
100
AcDbXrecord
280
     1
 90
        1
330
1C45
  0
DICTIONARY
  5
1C90
102
{ACAD_REACTORS
330
C
102
}
330
C
100
AcDbDictionary
281
     1
  3
CANNOSCALE
350
1C94
  3
CMLEADERSTYLE
350
1C92
  3
CTABLESTYLE
350
1C91
  3
LAYEREVAL
350
1C96
  3
LAYERNOTIFY
350
1C97
  3
LIGHTINGUNITS
350
1C95
  3
MSLTSCALE
350
1C93
  3
XCLIPFRAME
350
1C98
  0
DICTIONARY
  5
29C
102
{ACAD_REACTORS
330
C
102
}
330
C
100
AcDbDictionary
281
     1
  3
ASEBlockHierarchyIndexRecord
350
29E
1001
DCO15
1040
1663581020.26
  0
XRECORD
  5
1C72
102
{ACAD_REACTORS
330
1C71
102
}
330
1C71
100
AcDbXrecord
280
     1
290
     1
  0
XRECORD
  5
1C74
102
{ACAD_REACTORS
330
1C73
102
}
330
1C73
100
AcDbXrecord
280
     1
290
     1
  0
XRECORD
  5
1C76
102
{ACAD_REACTORS
330
1C75
102
}
330
1C75
100
AcDbXrecord
280
     1
290
     1
  0
XRECORD
  5
1C78
102
{ACAD_REACTORS
330
1C77
102
}
330
1C77
100
AcDbXrecord
280
     1
290
     1
  0
XRECORD
  5
1C7A
102
{ACAD_REACTORS
330
1C79
102
}
330
1C79
100
AcDbXrecord
280
     1
290
     1
  0
XRECORD
  5
1C7C
102
{ACAD_REACTORS
330
1C7B
102
}
330
1C7B
100
AcDbXrecord
280
     1
290
     1
  0
XRECORD
  5
1C7E
102
{ACAD_REACTORS
330
1C7D
102
}
330
1C7D
100
AcDbXrecord
280
     1
290
     1
  0
XRECORD
  5
1C80
102
{ACAD_REACTORS
330
1C7F
102
}
330
1C7F
100
AcDbXrecord
280
     1
290
     1
  0
XRECORD
  5
1C82
102
{ACAD_REACTORS
330
1C81
102
}
330
1C81
100
AcDbXrecord
280
     1
290
     1
  0
XRECORD
  5
1C84
102
{ACAD_REACTORS
330
1C83
102
}
330
1C83
100
AcDbXrecord
280
     1
290
     1
  0
XRECORD
  5
1C86
102
{ACAD_REACTORS
330
1C85
102
}
330
1C85
100
AcDbXrecord
280
     1
290
     1
  0
XRECORD
  5
1C88
102
{ACAD_REACTORS
330
1C87
102
}
330
1C87
100
AcDbXrecord
280
     1
290
     1
  0
XRECORD
  5
1C8A
102
{ACAD_REACTORS
330
1C89
102
}
330
1C89
100
AcDbXrecord
280
     1
290
     1
  0
XRECORD
  5
1C8C
102
{ACAD_REACTORS
330
1C8B
102
}
330
1C8B
100
AcDbXrecord
280
     1
290
     1
  0
XRECORD
  5
1C8D
102
{ACAD_REACTORS
330
AF8
102
}
330
AF8
100
AcDbXrecord
280
     1
290
     1
  0
XRECORD
  5
1C8F
102
{ACAD_REACTORS
330
1C8E
102
}
330
1C8E
100
AcDbXrecord
280
     1
290
     1
  0
SORTENTSTABLE
  5
9AE
102
{ACAD_REACTORS
330
9AD
102
}
330
9AD
100
AcDbSortentsTable
330
9A4
  0
LAYOUT
  5
10A
102
{ACAD_REACTORS
330
107
102
}
330
107
100
AcDbPlotSettings
  1

  2
C:\PROGRAM FILES\ACAD2000\plotters\HP-5000PLT.pc3
  4

  6

 40
0.0
 41
0.0
 42
0.0
 43
0.0
 44
0.0
 45
0.0
 46
0.0
 47
0.0
 48
0.0
 49
0.0
140
0.0
141
0.0
142
1.0
143
1.0
 70
   688
 72
     0
 73
     0
 74
     5
  7
tps-s1_BLACK.ctb
 75
    16
147
1.0
 76
     0
 77
     2
 78
   300
148
0.0
149
0.0
100
AcDbLayout
  1
Layout1
 70
     0
 71
     1
 10
0.0
 20
0.0
 11
12.0
 21
9.0
 12
0.0
 22
0.0
 32
0.0
 14
1.000000000000000E+20
 24
1.000000000000000E+20
 34
1.000000000000000E+20
 15
-1.000000000000000E+20
 25
-1.000000000000000E+20
 35
-1.000000000000000E+20
146
0.0
 13
0.0
 23
0.0
 33
0.0
 16
1.0
 26
0.0
 36
0.0
 17
0.0
 27
1.0
 37
0.0
 76
     0
330
15
  0
LAYOUT
  5
109
102
{ACAD_REACTORS
330
107
102
}
330
107
100
AcDbPlotSettings
  1

  2
EPSON Stylus Photo 1400 Series
  4
User262
  6
BORDER
 40
3.757083177566528
 41
3.757076978683471
 42
3.757080078125
 43
3.757080078125
 44
279.3999938964844
 45
431.7999877929687
 46
12.192
 47
15.24
 48
0.0
 49
0.0
140
0.0
141
0.0
142
1.0
143
0.5
 70
 11940
 72
     0
 73
     1
 74
     3
  7
tps-s1_BLACK.ctb
 75
     0
147
2.0
 76
     0
 77
     2
 78
   300
148
-5463.97467542001
149
106.5340460636664
100
AcDbLayout
  1
Model
 70
     1
 71
     0
 10
0.0
 20
0.0
 11
12.0
 21
9.0
 12
0.0
 22
0.0
 32
0.0
 14
0.0
 24
0.0
 34
0.0
 15
0.0
 25
0.0
 35
0.0
146
0.0
 13
0.0
 23
0.0
 33
0.0
 16
1.0
 26
0.0
 36
0.0
 17
0.0
 27
1.0
 37
0.0
 76
     0
330
18
331
1C14
  0
MATERIAL
  5
1C1F
102
{ACAD_XDICTIONARY
360
1C20
102
}
102
{ACAD_REACTORS
330
1C16
102
}
330
1C16
100
AcDbMaterial
  1
ByBlock
 72
     0
 43
0.0208333333333333
 43
0.0
 43
0.0
 43
0.0
 43
0.0
 43
0.0208333333333333
 43
0.0
 43
0.0
 43
0.0
 43
0.0
 43
1.0
 43
0.0
 43
0.0
 43
0.0
 43
0.0
 43
1.0
 77
     0
 47
0.0208333333333333
 47
0.0
 47
0.0
 47
0.0
 47
0.0
 47
0.0208333333333333
 47
0.0
 47
0.0
 47
0.0
 47
0.0
 47
1.0
 47
0.0
 47
0.0
 47
0.0
 47
0.0
 47
1.0
171
     0
 49
0.0208333333333333
 49
0.0
 49
0.0
 49
0.0
 49
0.0
 49
0.0208333333333333
 49
0.0
 49
0.0
 49
0.0
 49
0.0
 49
1.0
 49
0.0
 49
0.0
 49
0.0
 49
0.0
 49
1.0
175
     0
142
0.0208333333333333
142
0.0
142
0.0
142
0.0
142
0.0
142
0.0208333333333333
142
0.0
142
0.0
142
0.0
142
0.0
142
1.0
142
0.0
142
0.0
142
0.0
142
0.0
142
1.0
179
     0
144
0.0208333333333333
144
0.0
144
0.0
144
0.0
144
0.0
144
0.0208333333333333
144
0.0
144
0.0
144
0.0
144
0.0
144
1.0
144
0.0
144
0.0
144
0.0
144
0.0
144
1.0
147
0.0208333333333333
147
0.0
147
0.0
147
0.0
147
0.0
147
0.0208333333333333
147
0.0
147
0.0
147
0.0
147
0.0
147
1.0
147
0.0
147
0.0
147
0.0
147
0.0
147
1.0
  0
MATERIAL
  5
1C17
102
{ACAD_XDICTIONARY
360
1C18
102
}
102
{ACAD_REACTORS
330
1C16
102
}
330
1C16
100
AcDbMaterial
  1
ByLayer
 72
     0
 43
0.0208333333333333
 43
0.0
 43
0.0
 43
0.0
 43
0.0
 43
0.0208333333333333
 43
0.0
 43
0.0
 43
0.0
 43
0.0
 43
1.0
 43
0.0
 43
0.0
 43
0.0
 43
0.0
 43
1.0
 77
     0
 47
0.0208333333333333
 47
0.0
 47
0.0
 47
0.0
 47
0.0
 47
0.0208333333333333
 47
0.0
 47
0.0
 47
0.0
 47
0.0
 47
1.0
 47
0.0
 47
0.0
 47
0.0
 47
0.0
 47
1.0
171
     0
 49
0.0208333333333333
 49
0.0
 49
0.0
 49
0.0
 49
0.0
 49
0.0208333333333333
 49
0.0
 49
0.0
 49
0.0
 49
0.0
 49
1.0
 49
0.0
 49
0.0
 49
0.0
 49
0.0
 49
1.0
175
     0
142
0.0208333333333333
142
0.0
142
0.0
142
0.0
142
0.0
142
0.0208333333333333
142
0.0
142
0.0
142
0.0
142
0.0
142
1.0
142
0.0
142
0.0
142
0.0
142
0.0
142
1.0
179
     0
144
0.0208333333333333
144
0.0
144
0.0
144
0.0
144
0.0
144
0.0208333333333333
144
0.0
144
0.0
144
0.0
144
0.0
144
1.0
144
0.0
144
0.0
144
0.0
144
0.0
144
1.0
147
0.0208333333333333
147
0.0
147
0.0
147
0.0
147
0.0
147
0.0208333333333333
147
0.0
147
0.0
147
0.0
147
0.0
147
1.0
147
0.0
147
0.0
147
0.0
147
0.0
147
1.0
  0
MATERIAL
  5
1C27
102
{ACAD_XDICTIONARY
360
1C28
102
}
102
{ACAD_REACTORS
330
1C16
102
}
330
1C16
100
AcDbMaterial
  1
Global
 72
     0
 43
0.0208333333333333
 43
0.0
 43
0.0
 43
0.0
 43
0.0
 43
0.0208333333333333
 43
0.0
 43
0.0
 43
0.0
 43
0.0
 43
1.0
 43
0.0
 43
0.0
 43
0.0
 43
0.0
 43
1.0
 77
     0
 47
0.0208333333333333
 47
0.0
 47
0.0
 47
0.0
 47
0.0
 47
0.0208333333333333
 47
0.0
 47
0.0
 47
0.0
 47
0.0
 47
1.0
 47
0.0
 47
0.0
 47
0.0
 47
0.0
 47
1.0
171
     0
 49
0.0208333333333333
 49
0.0
 49
0.0
 49
0.0
 49
0.0
 49
0.0208333333333333
 49
0.0
 49
0.0
 49
0.0
 49
0.0
 49
1.0
 49
0.0
 49
0.0
 49
0.0
 49
0.0
 49
1.0
175
     0
142
0.0208333333333333
142
0.0
142
0.0
142
0.0
142
0.0
142
0.0208333333333333
142
0.0
142
0.0
142
0.0
142
0.0
142
1.0
142
0.0
142
0.0
142
0.0
142
0.0
142
1.0
179
     0
144
0.0208333333333333
144
0.0
144
0.0
144
0.0
144
0.0
144
0.0208333333333333
144
0.0
144
0.0
144
0.0
144
0.0
144
1.0
144
0.0
144
0.0
144
0.0
144
0.0
144
1.0
147
0.0208333333333333
147
0.0
147
0.0
147
0.0
147
0.0
147
0.0208333333333333
147
0.0
147
0.0
147
0.0
147
0.0
147
1.0
147
0.0
147
0.0
147
0.0
147
0.0
147
1.0
  0
MLEADERSTYLE
  5
1C69
102
{ACAD_REACTORS
330
1C68
102
}
330
1C68
100
AcDbMLeaderStyle
170
     2
171
     1
172
     0
 90
        2
 40
0.0
 41
0.0
173
     1
 91
-1056964608
340
12
 92
       -2
290
     1
 42
0.09
291
     1
 43
0.36
  3
Standard
 44
0.18
300

342
10
174
     1
178
     6
175
     1
176
     0
 93
-1056964608
 45
0.18
292
     0
297
     0
 46
0.18
 94
-1056964608
 47
1.0
 49
1.0
140
1.0
293
     1
141
0.0
294
     1
177
     0
142
1.0
295
     0
296
     0
143
0.125
1001
ACAD_MLEADERVER
1070
     2
  0
MLINESTYLE
  5
1B
102
{ACAD_REACTORS
330
E
102
}
330
E
100
AcDbMlineStyle
  2
STANDARD
 70
     0
  3

 62
     0
 51
90.0
 52
90.0
 71
     2
 49
0.5
 62
   256
  6
BYLAYER
 49
-0.5
 62
   256
  6
BYLAYER
  0
PLOTSETTINGS
  5
11C
102
{ACAD_REACTORS
330
108
102
}
330
108
100
AcDbPlotSettings
  1
hp-a-fit
  2
HP-5000PLT.pc3
  4
ANSI_A_(8.50_x_11.00_Inches)
  6
BORDER
 40
5.027082920074462
 41
5.027082920074462
 42
9.345077514648437
 43
5.11175537109375
 44
215.8999938964844
 45
279.3999938964844
 46
0.0
 47
0.0
 48
0.0
 49
0.0
140
0.0
141
0.0
142
1.0
143
1.509315367403764
 70
  1712
 72
     0
 73
     1
 74
     3
  7
tps-s1.ctb
 75
     0
147
0.6625520561154433
 76
     0
 77
     2
 78
   300
148
-12.7
149
-19.05
  0
PLOTSETTINGS
  5
11B
102
{ACAD_REACTORS
330
108
102
}
330
108
100
AcDbPlotSettings
  1
hp-B-1-1
  2
HP-5000PLT.pc3
  4
ANSI_B_(11.00_x_17.00_Inches)
  6
BORDER
 40
5.027082920074462
 41
5.027082920074462
 42
9.26043701171875
 43
5.027069091796875
 44
279.3999938964844
 45
431.7999877929687
 46
0.0
 47
0.0
 48
0.0
 49
0.0
140
0.0
141
0.0
142
1.0
143
1.0
 70
  1712
 72
     0
 73
     1
 74
     3
  7
tps-s1.ctb
 75
    16
147
1.0
 76
     0
 77
     2
 78
   300
148
-12.7
149
-19.05
  0
ACDBPLACEHOLDER
  5
106
102
{ACAD_REACTORS
330
105
102
}
330
105
  0
SCALE
  5
1C47
102
{ACAD_REACTORS
330
1C46
102
}
330
1C46
100
AcDbScale
 70
     0
300
1:1
140
1.0
141
1.0
290
     1
  0
SCALE
  5
1C48
102
{ACAD_REACTORS
330
1C46
102
}
330
1C46
100
AcDbScale
 70
     0
300
1:2
140
1.0
141
2.0
290
     0
  0
SCALE
  5
1C49
102
{ACAD_REACTORS
330
1C46
102
}
330
1C46
100
AcDbScale
 70
     0
300
1:4
140
1.0
141
4.0
290
     0
  0
SCALE
  5
1C4A
102
{ACAD_REACTORS
330
1C46
102
}
330
1C46
100
AcDbScale
 70
     0
300
1:5
140
1.0
141
5.0
290
     0
  0
SCALE
  5
1C4B
102
{ACAD_REACTORS
330
1C46
102
}
330
1C46
100
AcDbScale
 70
     0
300
1:8
140
1.0
141
8.0
290
     0
  0
SCALE
  5
1C4C
102
{ACAD_REACTORS
330
1C46
102
}
330
1C46
100
AcDbScale
 70
     0
300
1:10
140
1.0
141
10.0
290
     0
  0
SCALE
  5
1C4D
102
{ACAD_REACTORS
330
1C46
102
}
330
1C46
100
AcDbScale
 70
     0
300
1:16
140
1.0
141
16.0
290
     0
  0
SCALE
  5
1C4E
102
{ACAD_REACTORS
330
1C46
102
}
330
1C46
100
AcDbScale
 70
     0
300
1:20
140
1.0
141
20.0
290
     0
  0
SCALE
  5
1C4F
102
{ACAD_REACTORS
330
1C46
102
}
330
1C46
100
AcDbScale
 70
     0
300
1:30
140
1.0
141
30.0
290
     0
  0
SCALE
  5
1C50
102
{ACAD_REACTORS
330
1C46
102
}
330
1C46
100
AcDbScale
 70
     0
300
1:40
140
1.0
141
40.0
290
     0
  0
SCALE
  5
1C51
102
{ACAD_REACTORS
330
1C46
102
}
330
1C46
100
AcDbScale
 70
     0
300
1:50
140
1.0
141
50.0
290
     0
  0
SCALE
  5
1C52
102
{ACAD_REACTORS
330
1C46
102
}
330
1C46
100
AcDbScale
 70
     0
300
1:100
140
1.0
141
100.0
290
     0
  0
SCALE
  5
1C53
102
{ACAD_REACTORS
330
1C46
102
}
330
1C46
100
AcDbScale
 70
     0
300
2:1
140
2.0
141
1.0
290
     0
  0
SCALE
  5
1C54
102
{ACAD_REACTORS
330
1C46
102
}
330
1C46
100
AcDbScale
 70
     0
300
4:1
140
4.0
141
1.0
290
     0
  0
SCALE
  5
1C55
102
{ACAD_REACTORS
330
1C46
102
}
330
1C46
100
AcDbScale
 70
     0
300
8:1
140
8.0
141
1.0
290
     0
  0
SCALE
  5
1C56
102
{ACAD_REACTORS
330
1C46
102
}
330
1C46
100
AcDbScale
 70
     0
300
10:1
140
10.0
141
1.0
290
     0
  0
SCALE
  5
1C57
102
{ACAD_REACTORS
330
1C46
102
}
330
1C46
100
AcDbScale
 70
     0
300
100:1
140
100.0
141
1.0
290
     0
  0
SCALE
  5
1C58
102
{ACAD_REACTORS
330
1C46
102
}
330
1C46
100
AcDbScale
 70
     0
300
1/128" = 1'-0"
140
0.0078125
141
12.0
290
     0
  0
SCALE
  5
1C59
102
{ACAD_REACTORS
330
1C46
102
}
330
1C46
100
AcDbScale
 70
     0
300
1/64" = 1'-0"
140
0.015625
141
12.0
290
     0
  0
SCALE
  5
1C5A
102
{ACAD_REACTORS
330
1C46
102
}
330
1C46
100
AcDbScale
 70
     0
300
1/32" = 1'-0"
140
0.03125
141
12.0
290
     0
  0
SCALE
  5
1C5B
102
{ACAD_REACTORS
330
1C46
102
}
330
1C46
100
AcDbScale
 70
     0
300
1/16" = 1'-0"
140
0.0625
141
12.0
290
     0
  0
SCALE
  5
1C5C
102
{ACAD_REACTORS
330
1C46
102
}
330
1C46
100
AcDbScale
 70
     0
300
3/32" = 1'-0"
140
0.09375
141
12.0
290
     0
  0
SCALE
  5
1C5D
102
{ACAD_REACTORS
330
1C46
102
}
330
1C46
100
AcDbScale
 70
     0
300
1/8" = 1'-0"
140
0.125
141
12.0
290
     0
  0
SCALE
  5
1C5E
102
{ACAD_REACTORS
330
1C46
102
}
330
1C46
100
AcDbScale
 70
     0
300
3/16" = 1'-0"
140
0.1875
141
12.0
290
     0
  0
SCALE
  5
1C5F
102
{ACAD_REACTORS
330
1C46
102
}
330
1C46
100
AcDbScale
 70
     0
300
1/4" = 1'-0"
140
0.25
141
12.0
290
     0
  0
SCALE
  5
1C60
102
{ACAD_REACTORS
330
1C46
102
}
330
1C46
100
AcDbScale
 70
     0
300
3/8" = 1'-0"
140
0.375
141
12.0
290
     0
  0
SCALE
  5
1C61
102
{ACAD_REACTORS
330
1C46
102
}
330
1C46
100
AcDbScale
 70
     0
300
1/2" = 1'-0"
140
0.5
141
12.0
290
     0
  0
SCALE
  5
1C62
102
{ACAD_REACTORS
330
1C46
102
}
330
1C46
100
AcDbScale
 70
     0
300
3/4" = 1'-0"
140
0.75
141
12.0
290
     0
  0
SCALE
  5
1C63
102
{ACAD_REACTORS
330
1C46
102
}
330
1C46
100
AcDbScale
 70
     0
300
1" = 1'-0"
140
1.0
141
12.0
290
     0
  0
SCALE
  5
1C64
102
{ACAD_REACTORS
330
1C46
102
}
330
1C46
100
AcDbScale
 70
     0
300
1-1/2" = 1'-0"
140
1.5
141
12.0
290
     0
  0
SCALE
  5
1C65
102
{ACAD_REACTORS
330
1C46
102
}
330
1C46
100
AcDbScale
 70
     0
300
3" = 1'-0"
140
3.0
141
12.0
290
     0
  0
SCALE
  5
1C66
102
{ACAD_REACTORS
330
1C46
102
}
330
1C46
100
AcDbScale
 70
     0
300
6" = 1'-0"
140
6.0
141
12.0
290
     0
  0
SCALE
  5
1C67
102
{ACAD_REACTORS
330
1C46
102
}
330
1C46
100
AcDbScale
 70
     0
300
1'-0" = 1'-0"
140
12.0
141
12.0
290
     0
  0
TABLESTYLE
  5
1C45
102
{ACAD_XDICTIONARY
360
1C99
102
}
102
{ACAD_REACTORS
330
1C44
102
}
330
1C44
100
AcDbTableStyle
  3
Standard
 70
     0
 71
     0
 40
0.06
 41
0.06
280
     0
281
     0
  7
STANDARD
140
0.18
170
     2
 62
     0
 63
     7
283
     0
 90
      512
 91
        0
  1

274
    -2
284
     1
 64
     0
275
    -2
285
     1
 65
     0
276
    -2
286
     1
 66
     0
277
    -2
287
     1
 67
     0
278
    -2
288
     1
 68
     0
279
    -2
289
     1
 69
     0
  7
STANDARD
140
0.25
170
     5
 62
     0
 63
     7
283
     0
 90
      512
 91
        0
  1

274
    -2
284
     1
 64
     0
275
    -2
285
     1
 65
     0
276
    -2
286
     1
 66
     0
277
    -2
287
     1
 67
     0
278
    -2
288
     1
 68
     0
279
    -2
289
     1
 69
     0
  7
STANDARD
140
0.18
170
     5
 62
     0
 63
     7
283
     0
 90
      512
 91
        0
  1

274
    -2
284
     1
 64
     0
275
    -2
285
     1
 65
     0
276
    -2
286
     1
 66
     0
277
    -2
287
     1
 67
     0
278
    -2
288
     1
 68
     0
279
    -2
289
     1
 69
     0
  0
VISUALSTYLE
  5
1C35
102
{ACAD_XDICTIONARY
360
1CA6
102
}
102
{ACAD_REACTORS
330
1C2F
102
}
330
1C2F
100
AcDbVisualStyle
  2
2dWireframe
 70
     4
 71
     0
 72
     2
 73
     0
 90
        0
 40
-0.6
 41
-30.0
 62
     5
 63
     7
421
 16777215
 74
     1
 91
        4
 64
     7
 65
   257
 75
     1
175
     1
 42
1.0
 92
        0
 66
   257
 43
1.0
 76
     1
 77
     6
 78
     2
 67
     7
 79
     5
170
     0
171
     0
290
     0
174
     0
 93
        1
 44
0.0
173
     0
291
     0
 45
0.0
1001
ACAD
1000
AcDbSavedByObjectVersion
1070
     0
  0
VISUALSTYLE
  5
1C37
102
{ACAD_XDICTIONARY
360
1CAA
102
}
102
{ACAD_REACTORS
330
1C2F
102
}
330
1C2F
100
AcDbVisualStyle
  2
3D Hidden
 70
     6
 71
     1
 72
     2
 73
     2
 90
        0
 40
-0.6
 41
-30.0
 62
     5
 63
     7
421
 16777215
 74
     2
 91
        2
 64
     7
 65
   257
 75
     2
175
     1
 42
179.0
 92
        0
 66
   257
 43
1.0
 76
     1
 77
     6
 78
     2
 67
     7
 79
     3
170
     0
171
     0
290
     0
174
     0
 93
        1
 44
0.0
173
     0
291
     0
 45
0.0
1001
ACAD
1000
AcDbSavedByObjectVersion
1070
     0
  0
VISUALSTYLE
  5
1C36
102
{ACAD_XDICTIONARY
360
1CA8
102
}
102
{ACAD_REACTORS
330
1C2F
102
}
330
1C2F
100
AcDbVisualStyle
  2
3dWireframe
 70
     5
 71
     0
 72
     2
 73
     0
 90
        0
 40
-0.6
 41
-30.0
 62
     5
 63
     7
421
 16777215
 74
     1
 91
        4
 64
     7
 65
   257
 75
     1
175
     1
 42
1.0
 92
        0
 66
   257
 43
1.0
 76
     1
 77
     6
 78
     2
 67
     7
 79
     5
170
     0
171
     0
290
     0
174
     0
 93
        1
 44
0.0
173
     0
291
     0
 45
0.0
1001
ACAD
1000
AcDbSavedByObjectVersion
1070
     0
  0
VISUALSTYLE
  5
1C34
102
{ACAD_XDICTIONARY
360
1CA4
102
}
102
{ACAD_REACTORS
330
1C2F
102
}
330
1C2F
100
AcDbVisualStyle
  2
Basic
 70
     7
 71
     1
 72
     0
 73
     1
 90
        0
 40
-0.6
 41
-30.0
 62
     5
 63
     7
421
 16777215
 74
     0
 91
        4
 64
     7
 65
   257
 75
     1
175
     1
 42
1.0
 92
        8
 66
     7
 43
1.0
 76
     1
 77
     6
 78
     2
 67
     7
 79
     5
170
     0
171
     0
290
     0
174
     0
 93
        1
 44
0.0
173
     0
291
     1
 45
0.0
1001
ACAD
1000
AcDbSavedByObjectVersion
1070
     0
  0
VISUALSTYLE
  5
1C3B
102
{ACAD_XDICTIONARY
360
1CB2
102
}
102
{ACAD_REACTORS
330
1C2F
102
}
330
1C2F
100
AcDbVisualStyle
  2
Brighten
 70
    12
 71
     2
 72
     2
 73
     0
 90
        0
 40
-0.6
 41
-30.0
 62
     5
 63
     7
421
 16777215
 74
     1
 91
        4
 64
     7
 65
   257
 75
     1
175
     1
 42
1.0
 92
        8
 66
     7
 43
1.0
 76
     1
 77
     6
 78
     2
 67
     7
 79
     5
170
     0
171
     0
290
     0
174
     0
 93
        1
 44
50.0
173
     0
291
     1
 45
0.0
1001
ACAD
1000
AcDbSavedByObjectVersion
1070
     0
  0
VISUALSTYLE
  5
1C3F
102
{ACAD_XDICTIONARY
360
1CBA
102
}
102
{ACAD_REACTORS
330
1C2F
102
}
330
1C2F
100
AcDbVisualStyle
  2
ColorChange
 70
    16
 71
     2
 72
     2
 73
     3
 90
        0
 40
-0.6
 41
-30.0
 62
     5
 63
     8
421
  8421504
 74
     1
 91
        4
 64
     7
 65
   257
 75
     1
175
     1
 42
1.0
 92
        8
 66
     8
424
  8421504
 43
1.0
 76
     1
 77
     6
 78
     2
 67
     7
 79
     5
170
     0
171
     0
290
     0
174
     0
 93
        1
 44
0.0
173
     0
291
     1
 45
0.0
1001
ACAD
1000
AcDbSavedByObjectVersion
1070
     0
  0
VISUALSTYLE
  5
1C38
102
{ACAD_XDICTIONARY
360
1CAC
102
}
102
{ACAD_REACTORS
330
1C2F
102
}
330
1C2F
100
AcDbVisualStyle
  2
Conceptual
 70
     9
 71
     3
 72
     2
 73
     0
 90
        0
 40
-0.6
 41
-30.0
 62
     5
 63
     7
421
 16777215
 74
     2
 91
        2
 64
     7
 65
   257
 75
     1
175
     1
 42
179.0
 92
        8
 66
     7
 43
1.0
 76
     1
 77
     6
 78
     2
 67
     7
 79
     3
170
     0
171
     0
290
     0
174
     0
 93
        1
 44
0.0
173
     0
291
     0
 45
0.0
1001
ACAD
1000
AcDbSavedByObjectVersion
1070
     0
  0
VISUALSTYLE
  5
1C3A
102
{ACAD_XDICTIONARY
360
1CB0
102
}
102
{ACAD_REACTORS
330
1C2F
102
}
330
1C2F
100
AcDbVisualStyle
  2
Dim
 70
    11
 71
     2
 72
     2
 73
     0
 90
        0
 40
-0.6
 41
-30.0
 62
     5
 63
     7
421
 16777215
 74
     1
 91
        4
 64
     7
 65
   257
 75
     1
175
     1
 42
1.0
 92
        8
 66
     7
 43
1.0
 76
     1
 77
     6
 78
     2
 67
     7
 79
     5
170
     0
171
     0
290
     0
174
     0
 93
        1
 44
-50.0
173
     0
291
     1
 45
0.0
1001
ACAD
1000
AcDbSavedByObjectVersion
1070
     0
  0
VISUALSTYLE
  5
1C42
102
{ACAD_XDICTIONARY
360
1CC0
102
}
102
{ACAD_REACTORS
330
1C2F
102
}
330
1C2F
100
AcDbVisualStyle
  2
EdgeColorOff
 70
    22
 71
     2
 72
     2
 73
     0
 90
        0
 40
-0.6
 41
-30.0
 62
     5
 63
     7
421
 16777215
 74
     1
 91
        4
 64
     7
 65
   257
 75
     1
175
     1
 42
1.0
 92
        8
 66
     7
 43
1.0
 76
     1
 77
     6
 78
     2
 67
     7
 79
     5
170
     0
171
     0
290
     0
174
     0
 93
        1
 44
0.0
173
     0
291
     1
 45
0.0
1001
ACAD
1000
AcDbSavedByObjectVersion
1070
     0
  0
VISUALSTYLE
  5
1C3E
102
{ACAD_XDICTIONARY
360
1CB8
102
}
102
{ACAD_REACTORS
330
1C2F
102
}
330
1C2F
100
AcDbVisualStyle
  2
Facepattern
 70
    15
 71
     2
 72
     2
 73
     0
 90
        0
 40
-0.6
 41
-30.0
 62
     5
 63
     7
421
 16777215
 74
     1
 91
        4
 64
     7
 65
   257
 75
     1
175
     1
 42
1.0
 92
        8
 66
     7
 43
1.0
 76
     1
 77
     6
 78
     2
 67
     7
 79
     5
170
     0
171
     0
290
     0
174
     0
 93
        1
 44
0.0
173
     0
291
     1
 45
0.0
1001
ACAD
1000
AcDbSavedByObjectVersion
1070
     0
  0
VISUALSTYLE
  5
1C30
102
{ACAD_XDICTIONARY
360
1C9C
102
}
102
{ACAD_REACTORS
330
1C2F
102
}
330
1C2F
100
AcDbVisualStyle
  2
Flat
 70
     0
 71
     2
 72
     1
 73
     1
 90
        2
 40
-0.6
 41
30.0
 62
     5
 63
     7
421
 16777215
 74
     0
 91
        4
 64
     7
 65
   257
 75
     1
175
     1
 42
1.0
 92
        8
 66
     7
 43
1.0
 76
     1
 77
     6
 78
     2
 67
     7
 79
     5
170
     0
171
     0
290
     0
174
     0
 93
       13
 44
0.0
173
     0
291
     1
 45
0.0
1001
ACAD
1000
AcDbSavedByObjectVersion
1070
     0
  0
VISUALSTYLE
  5
1C31
102
{ACAD_XDICTIONARY
360
1C9E
102
}
102
{ACAD_REACTORS
330
1C2F
102
}
330
1C2F
100
AcDbVisualStyle
  2
FlatWithEdges
 70
     1
 71
     2
 72
     1
 73
     1
 90
        2
 40
-0.6
 41
30.0
 62
     5
 63
     7
421
 16777215
 74
     1
 91
        4
 64
     7
 65
   257
 75
     1
175
     1
 42
1.0
 92
        0
 66
   257
 43
1.0
 76
     1
 77
     6
 78
     2
 67
     7
 79
     5
170
     0
171
     0
290
     0
174
     0
 93
       13
 44
0.0
173
     0
291
     1
 45
0.0
1001
ACAD
1000
AcDbSavedByObjectVersion
1070
     0
  0
VISUALSTYLE
  5
1C32
102
{ACAD_XDICTIONARY
360
1CA0
102
}
102
{ACAD_REACTORS
330
1C2F
102
}
330
1C2F
100
AcDbVisualStyle
  2
Gouraud
 70
     2
 71
     2
 72
     2
 73
     1
 90
        2
 40
-0.6
 41
30.0
 62
     5
 63
     7
421
 16777215
 74
     0
 91
        4
 64
     7
 65
   257
 75
     1
175
     1
 42
1.0
 92
        0
 66
     7
 43
1.0
 76
     1
 77
     6
 78
     2
 67
     7
 79
     5
170
     0
171
     0
290
     0
174
     0
 93
       13
 44
0.0
173
     0
291
     1
 45
0.0
1001
ACAD
1000
AcDbSavedByObjectVersion
1070
     0
  0
VISUALSTYLE
  5
1C33
102
{ACAD_XDICTIONARY
360
1CA2
102
}
102
{ACAD_REACTORS
330
1C2F
102
}
330
1C2F
100
AcDbVisualStyle
  2
GouraudWithEdges
 70
     3
 71
     2
 72
     2
 73
     1
 90
        2
 40
-0.6
 41
30.0
 62
     5
 63
     7
421
 16777215
 74
     1
 91
        4
 64
     7
 65
   257
 75
     1
175
     1
 42
1.0
 92
        0
 66
   257
 43
1.0
 76
     1
 77
     6
 78
     2
 67
     7
 79
     5
170
     0
171
     0
290
     0
174
     0
 93
       13
 44
0.0
173
     0
291
     1
 45
0.0
1001
ACAD
1000
AcDbSavedByObjectVersion
1070
     0
  0
VISUALSTYLE
  5
1C40
102
{ACAD_XDICTIONARY
360
1CBC
102
}
102
{ACAD_REACTORS
330
1C2F
102
}
330
1C2F
100
AcDbVisualStyle
  2
JitterOff
 70
    20
 71
     2
 72
     2
 73
     0
 90
        0
 40
-0.6
 41
-30.0
 62
     5
 63
     7
421
 16777215
 74
     1
 91
        4
 64
     7
 65
   257
 75
     1
175
     1
 42
1.0
 92
       10
 66
     7
 43
1.0
 76
     1
 77
     6
 78
     2
 67
     7
 79
     5
170
     0
171
     0
290
     0
174
     0
 93
        1
 44
0.0
173
     0
291
     1
 45
0.0
1001
ACAD
1000
AcDbSavedByObjectVersion
1070
     0
  0
VISUALSTYLE
  5
1C3D
102
{ACAD_XDICTIONARY
360
1CB6
102
}
102
{ACAD_REACTORS
330
1C2F
102
}
330
1C2F
100
AcDbVisualStyle
  2
Linepattern
 70
    14
 71
     2
 72
     2
 73
     0
 90
        0
 40
-0.6
 41
-30.0
 62
     5
 63
     7
421
 16777215
 74
     1
 91
        4
 64
     7
 65
   257
 75
     7
175
     7
 42
1.0
 92
        8
 66
     7
 43
1.0
 76
     1
 77
     6
 78
     2
 67
     7
 79
     5
170
     0
171
     0
290
     0
174
     0
 93
        1
 44
0.0
173
     0
291
     1
 45
0.0
1001
ACAD
1000
AcDbSavedByObjectVersion
1070
     0
  0
VISUALSTYLE
  5
1C41
102
{ACAD_XDICTIONARY
360
1CBE
102
}
102
{ACAD_REACTORS
330
1C2F
102
}
330
1C2F
100
AcDbVisualStyle
  2
OverhangOff
 70
    21
 71
     2
 72
     2
 73
     0
 90
        0
 40
-0.6
 41
-30.0
 62
     5
 63
     7
421
 16777215
 74
     1
 91
        4
 64
     7
 65
   257
 75
     1
175
     1
 42
1.0
 92
        9
 66
     7
 43
1.0
 76
     1
 77
     6
 78
     2
 67
     7
 79
     5
170
     0
171
     0
290
     0
174
     0
 93
        1
 44
0.0
173
     0
291
     1
 45
0.0
1001
ACAD
1000
AcDbSavedByObjectVersion
1070
     0
  0
VISUALSTYLE
  5
1C39
102
{ACAD_XDICTIONARY
360
1CAE
102
}
102
{ACAD_REACTORS
330
1C2F
102
}
330
1C2F
100
AcDbVisualStyle
  2
Realistic
 70
     8
 71
     2
 72
     2
 73
     0
 90
        0
 40
-0.6
 41
-30.0
 62
     5
 63
     7
421
 16777215
 74
     1
 91
        0
 64
     7
 65
   257
 75
     1
175
     1
 42
1.0
 92
        8
 66
     8
424
  7895160
 43
1.0
 76
     1
 77
     6
 78
     2
 67
     7
 79
     5
170
     0
171
     0
290
     0
174
     0
 93
       13
 44
0.0
173
     0
291
     0
 45
0.0
1001
ACAD
1000
AcDbSavedByObjectVersion
1070
     0
  0
VISUALSTYLE
  5
1C3C
102
{ACAD_XDICTIONARY
360
1CB4
102
}
102
{ACAD_REACTORS
330
1C2F
102
}
330
1C2F
100
AcDbVisualStyle
  2
Thicken
 70
    13
 71
     2
 72
     2
 73
     0
 90
        0
 40
-0.6
 41
-30.0
 62
     5
 63
     7
421
 16777215
 74
     1
 91
        4
 64
     7
 65
   257
 75
     1
175
     1
 42
1.0
 92
       12
 66
     7
 43
1.0
 76
     1
 77
     6
 78
     2
 67
     7
 79
     5
170
     0
171
     0
290
     0
174
     0
 93
        1
 44
0.0
173
     0
291
     1
 45
0.0
1001
ACAD
1000
AcDbSavedByObjectVersion
1070
     0
  0
DICTIONARYVAR
  5
1C94
102
{ACAD_REACTORS
330
1C90
102
}
330
1C90
100
DictionaryVariables
280
     0
  1
1:1
  0
DICTIONARYVAR
  5
1C92
102
{ACAD_REACTORS
330
1C90
102
}
330
1C90
100
DictionaryVariables
280
     0
  1
STANDARD
  0
DICTIONARYVAR
  5
1C91
102
{ACAD_REACTORS
330
1C90
102
}
330
1C90
100
DictionaryVariables
280
     0
  1
STANDARD
  0
DICTIONARYVAR
  5
1C96
102
{ACAD_REACTORS
330
1C90
102
}
330
1C90
100
DictionaryVariables
280
     0
  1
1
  0
DICTIONARYVAR
  5
1C97
102
{ACAD_REACTORS
330
1C90
102
}
330
1C90
100
DictionaryVariables
280
     0
  1
15
  0
DICTIONARYVAR
  5
1C95
102
{ACAD_REACTORS
330
1C90
102
}
330
1C90
100
DictionaryVariables
280
     0
  1
0
  0
DICTIONARYVAR
  5
1C93
102
{ACAD_REACTORS
330
1C90
102
}
330
1C90
100
DictionaryVariables
280
     0
  1
0
  0
DICTIONARYVAR
  5
1C98
102
{ACAD_REACTORS
330
1C90
102
}
330
1C90
100
DictionaryVariables
280
     0
  1
2
  0
XRECORD
  5
29E
102
{ACAD_REACTORS
330
29C
102
}
330
29C
100
AcDbXrecord
280
     1
330
0
  0
DICTIONARY
  5
1C20
330
1C1F
100
AcDbDictionary
280
     1
281
     1
  3
BUMPTILE
360
1C22
  3
DIFFUSETILE
360
1C21
  3
OPACITYTILE
360
1C25
  3
REFLECTIONTILE
360
1C24
  3
REFRACTIONTILE
360
1C26
  3
SPECULARTILE
360
1C23
  0
DICTIONARY
  5
1C18
330
1C17
100
AcDbDictionary
280
     1
281
     1
  3
BUMPTILE
360
1C1A
  3
DIFFUSETILE
360
1C19
  3
OPACITYTILE
360
1C1D
  3
REFLECTIONTILE
360
1C1C
  3
REFRACTIONTILE
360
1C1E
  3
SPECULARTILE
360
1C1B
  0
DICTIONARY
  5
1C28
330
1C27
100
AcDbDictionary
280
     1
281
     1
  3
BUMPTILE
360
1C2A
  3
DIFFUSETILE
360
1C29
  3
OPACITYTILE
360
1C2D
  3
REFLECTIONTILE
360
1C2C
  3
REFRACTIONTILE
360
1C2E
  3
SPECULARTILE
360
1C2B
  0
DICTIONARY
  5
1C99
330
1C45
100
AcDbDictionary
280
     1
281
     1
  3
ACAD_ROUNDTRIP_2008_TABLESTYLE_CELLSTYLEMAP
360
1C9A
  0
DICTIONARY
  5
1CA6
330
1C35
100
AcDbDictionary
280
     1
281
     1
  3
ACAD_XREC_ROUNDTRIP
360
1CA7
  0
DICTIONARY
  5
1CAA
330
1C37
100
AcDbDictionary
280
     1
281
     1
  3
ACAD_XREC_ROUNDTRIP
360
1CAB
  0
DICTIONARY
  5
1CA8
330
1C36
100
AcDbDictionary
280
     1
281
     1
  3
ACAD_XREC_ROUNDTRIP
360
1CA9
  0
DICTIONARY
  5
1CA4
330
1C34
100
AcDbDictionary
280
     1
281
     1
  3
ACAD_XREC_ROUNDTRIP
360
1CA5
  0
DICTIONARY
  5
1CB2
330
1C3B
100
AcDbDictionary
280
     1
281
     1
  3
ACAD_XREC_ROUNDTRIP
360
1CB3
  0
DICTIONARY
  5
1CBA
330
1C3F
100
AcDbDictionary
280
     1
281
     1
  3
ACAD_XREC_ROUNDTRIP
360
1CBB
  0
DICTIONARY
  5
1CAC
330
1C38
100
AcDbDictionary
280
     1
281
     1
  3
ACAD_XREC_ROUNDTRIP
360
1CAD
  0
DICTIONARY
  5
1CB0
330
1C3A
100
AcDbDictionary
280
     1
281
     1
  3
ACAD_XREC_ROUNDTRIP
360
1CB1
  0
DICTIONARY
  5
1CC0
330
1C42
100
AcDbDictionary
280
     1
281
     1
  3
ACAD_XREC_ROUNDTRIP
360
1CC1
  0
DICTIONARY
  5
1CB8
330
1C3E
100
AcDbDictionary
280
     1
281
     1
  3
ACAD_XREC_ROUNDTRIP
360
1CB9
  0
DICTIONARY
  5
1C9C
330
1C30
100
AcDbDictionary
280
     1
281
     1
  3
ACAD_XREC_ROUNDTRIP
360
1C9D
  0
DICTIONARY
  5
1C9E
330
1C31
100
AcDbDictionary
280
     1
281
     1
  3
ACAD_XREC_ROUNDTRIP
360
1C9F
  0
DICTIONARY
  5
1CA0
330
1C32
100
AcDbDictionary
280
     1
281
     1
  3
ACAD_XREC_ROUNDTRIP
360
1CA1
  0
DICTIONARY
  5
1CA2
330
1C33
100
AcDbDictionary
280
     1
281
     1
  3
ACAD_XREC_ROUNDTRIP
360
1CA3
  0
DICTIONARY
  5
1CBC
330
1C40
100
AcDbDictionary
280
     1
281
     1
  3
ACAD_XREC_ROUNDTRIP
360
1CBD
  0
DICTIONARY
  5
1CB6
330
1C3D
100
AcDbDictionary
280
     1
281
     1
  3
ACAD_XREC_ROUNDTRIP
360
1CB7
  0
DICTIONARY
  5
1CBE
330
1C41
100
AcDbDictionary
280
     1
281
     1
  3
ACAD_XREC_ROUNDTRIP
360
1CBF
  0
DICTIONARY
  5
1CAE
330
1C39
100
AcDbDictionary
280
     1
281
     1
  3
ACAD_XREC_ROUNDTRIP
360
1CAF
  0
DICTIONARY
  5
1CB4
330
1C3C
100
AcDbDictionary
280
     1
281
     1
  3
ACAD_XREC_ROUNDTRIP
360
1CB5
  0
XRECORD
  5
1C22
102
{ACAD_REACTORS
330
1C20
102
}
330
1C20
100
AcDbXrecord
280
     1
270
     1
271
     1
  0
XRECORD
  5
1C21
102
{ACAD_REACTORS
330
1C20
102
}
330
1C20
100
AcDbXrecord
280
     1
270
     1
271
     1
  0
XRECORD
  5
1C25
102
{ACAD_REACTORS
330
1C20
102
}
330
1C20
100
AcDbXrecord
280
     1
270
     1
271
     1
  0
XRECORD
  5
1C24
102
{ACAD_REACTORS
330
1C20
102
}
330
1C20
100
AcDbXrecord
280
     1
270
     1
271
     1
  0
XRECORD
  5
1C26
102
{ACAD_REACTORS
330
1C20
102
}
330
1C20
100
AcDbXrecord
280
     1
270
     1
271
     1
  0
XRECORD
  5
1C23
102
{ACAD_REACTORS
330
1C20
102
}
330
1C20
100
AcDbXrecord
280
     1
270
     1
271
     1
  0
XRECORD
  5
1C1A
102
{ACAD_REACTORS
330
1C18
102
}
330
1C18
100
AcDbXrecord
280
     1
270
     1
271
     1
  0
XRECORD
  5
1C19
102
{ACAD_REACTORS
330
1C18
102
}
330
1C18
100
AcDbXrecord
280
     1
270
     1
271
     1
  0
XRECORD
  5
1C1D
102
{ACAD_REACTORS
330
1C18
102
}
330
1C18
100
AcDbXrecord
280
     1
270
     1
271
     1
  0
XRECORD
  5
1C1C
102
{ACAD_REACTORS
330
1C18
102
}
330
1C18
100
AcDbXrecord
280
     1
270
     1
271
     1
  0
XRECORD
  5
1C1E
102
{ACAD_REACTORS
330
1C18
102
}
330
1C18
100
AcDbXrecord
280
     1
270
     1
271
     1
  0
XRECORD
  5
1C1B
102
{ACAD_REACTORS
330
1C18
102
}
330
1C18
100
AcDbXrecord
280
     1
270
     1
271
     1
  0
XRECORD
  5
1C2A
102
{ACAD_REACTORS
330
1C28
102
}
330
1C28
100
AcDbXrecord
280
     1
270
     1
271
     1
  0
XRECORD
  5
1C29
102
{ACAD_REACTORS
330
1C28
102
}
330
1C28
100
AcDbXrecord
280
     1
270
     1
271
     1
  0
XRECORD
  5
1C2D
102
{ACAD_REACTORS
330
1C28
102
}
330
1C28
100
AcDbXrecord
280
     1
270
     1
271
     1
  0
XRECORD
  5
1C2C
102
{ACAD_REACTORS
330
1C28
102
}
330
1C28
100
AcDbXrecord
280
     1
270
     1
271
     1
  0
XRECORD
  5
1C2E
102
{ACAD_REACTORS
330
1C28
102
}
330
1C28
100
AcDbXrecord
280
     1
270
     1
271
     1
  0
XRECORD
  5
1C2B
102
{ACAD_REACTORS
330
1C28
102
}
330
1C28
100
AcDbXrecord
280
     1
270
     1
271
     1
  0
CELLSTYLEMAP
  5
1C9A
102
{ACAD_REACTORS
330
1C99
102
}
330
1C99
100
AcDbCellStyleMap
 90
        3
300
CELLSTYLE
  1
TABLEFORMAT_BEGIN
 90
        5
170
     1
 91
        0
 92
    32768
 62
   257
 93
        1
300
CONTENTFORMAT
  1
CONTENTFORMAT_BEGIN
 90
        0
 91
        0
 92
      512
 93
        0
300

 40
0.0
140
1.0
 94
        5
 62
     0
340
10
144
0.25
309
CONTENTFORMAT_END
171
     0
 94
        0
309
TABLEFORMAT_END
  1
CELLSTYLE_BEGIN
 90
        1
 91
        1
300
_TITLE
309
CELLSTYLE_END
300
CELLSTYLE
  1
TABLEFORMAT_BEGIN
 90
        5
170
     1
 91
        0
 92
        0
 62
   257
 93
        1
300
CONTENTFORMAT
  1
CONTENTFORMAT_BEGIN
 90
        0
 91
        0
 92
      512
 93
        0
300

 40
0.0
140
1.0
 94
        5
 62
     0
340
10
144
0.18
309
CONTENTFORMAT_END
171
     0
 94
        0
309
TABLEFORMAT_END
  1
CELLSTYLE_BEGIN
 90
        2
 91
        1
300
_HEADER
309
CELLSTYLE_END
300
CELLSTYLE
  1
TABLEFORMAT_BEGIN
 90
        5
170
     1
 91
        0
 92
        0
 62
   257
 93
        1
300
CONTENTFORMAT
  1
CONTENTFORMAT_BEGIN
 90
        0
 91
        0
 92
      512
 93
        0
300

 40
0.0
140
1.0
 94
        2
 62
     0
340
10
144
0.18
309
CONTENTFORMAT_END
171
     0
 94
        0
309
TABLEFORMAT_END
  1
CELLSTYLE_BEGIN
 90
        3
 91
        2
300
_DATA
309
CELLSTYLE_END
  0
XRECORD
  5
1CA7
102
{ACAD_REACTORS
330
1CA6
102
}
330
1CA6
100
AcDbXrecord
280
     1
102
RTVSPropertyOp0
 70
     1
102
RTVSPropertyOp1
 70
     1
102
RTVSPropertyOp2
 70
     1
102
RTVSPropertyOp3
 70
     1
102
RTVSPropertyOp4
 70
     1
102
RTVSPropertyOp5
 70
     1
102
RTVSPropertyOp6
 70
     1
102
RTVSPropertyOp7
 70
     1
102
RTVSPropertyOp8
 70
     1
102
RTVSPropertyOp9
 70
     1
102
RTVSPropertyOp10
 70
     1
102
RTVSPropertyOp11
 70
     1
102
RTVSPropertyOp12
 70
     1
102
RTVSPropertyOp13
 70
     1
102
RTVSPropertyOp14
 70
     1
102
RTVSPropertyOp15
 70
     1
102
RTVSPropertyOp16
 70
     1
102
RTVSPropertyOp17
 70
     1
102
RTVSPropertyOp18
 70
     1
102
RTVSPropertyOp19
 70
     1
102
RTVSPropertyOp20
 70
     1
102
RTVSPropertyOp21
 70
     1
102
RTVSPropertyOp22
 70
     1
102
RTVSPropertyOp23
 70
     1
102
RTVSPropertyOp24
 70
     1
102
RTVSPropertyOp25
 70
     1
102
RTVSPropertyOp26
 70
     1
102
RTVSPropertyOp27
 70
     1
  0
XRECORD
  5
1CAB
102
{ACAD_REACTORS
330
1CAA
102
}
330
1CAA
100
AcDbXrecord
280
     1
102
RTVSPropertyOp0
 70
     1
102
RTVSPropertyOp1
 70
     1
102
RTVSPropertyOp2
 70
     1
102
RTVSPropertyOp3
 70
     1
102
RTVSPropertyOp4
 70
     1
102
RTVSPropertyOp5
 70
     1
102
RTVSPropertyOp6
 70
     1
102
RTVSPropertyOp7
 70
     1
102
RTVSPropertyOp8
 70
     1
102
RTVSPropertyOp9
 70
     1
102
RTVSPropertyOp10
 70
     1
102
RTVSPropertyOp11
 70
     1
102
RTVSPropertyOp12
 70
     1
102
RTVSPropertyOp13
 70
     1
102
RTVSPropertyOp14
 70
     1
102
RTVSPropertyOp15
 70
     1
102
RTVSPropertyOp16
 70
     1
102
RTVSPropertyOp17
 70
     1
102
RTVSPropertyOp18
 70
     1
102
RTVSPropertyOp19
 70
     1
102
RTVSPropertyOp20
 70
     1
102
RTVSPropertyOp21
 70
     1
102
RTVSPropertyOp22
 70
     1
102
RTVSPropertyOp23
 70
     1
102
RTVSPropertyOp24
 70
     1
102
RTVSPropertyOp25
 70
     1
102
RTVSPropertyOp26
 70
     1
102
RTVSPropertyOp27
 70
     1
  0
XRECORD
  5
1CA9
102
{ACAD_REACTORS
330
1CA8
102
}
330
1CA8
100
AcDbXrecord
280
     1
102
RTVSPropertyOp0
 70
     1
102
RTVSPropertyOp1
 70
     1
102
RTVSPropertyOp2
 70
     1
102
RTVSPropertyOp3
 70
     1
102
RTVSPropertyOp4
 70
     1
102
RTVSPropertyOp5
 70
     1
102
RTVSPropertyOp6
 70
     1
102
RTVSPropertyOp7
 70
     1
102
RTVSPropertyOp8
 70
     1
102
RTVSPropertyOp9
 70
     1
102
RTVSPropertyOp10
 70
     1
102
RTVSPropertyOp11
 70
     1
102
RTVSPropertyOp12
 70
     1
102
RTVSPropertyOp13
 70
     1
102
RTVSPropertyOp14
 70
     1
102
RTVSPropertyOp15
 70
     1
102
RTVSPropertyOp16
 70
     1
102
RTVSPropertyOp17
 70
     1
102
RTVSPropertyOp18
 70
     1
102
RTVSPropertyOp19
 70
     1
102
RTVSPropertyOp20
 70
     1
102
RTVSPropertyOp21
 70
     1
102
RTVSPropertyOp22
 70
     1
102
RTVSPropertyOp23
 70
     1
102
RTVSPropertyOp24
 70
     1
102
RTVSPropertyOp25
 70
     1
102
RTVSPropertyOp26
 70
     1
102
RTVSPropertyOp27
 70
     1
  0
XRECORD
  5
1CA5
102
{ACAD_REACTORS
330
1CA4
102
}
330
1CA4
100
AcDbXrecord
280
     1
102
RTVSPropertyOp0
 70
     1
102
RTVSPropertyOp1
 70
     1
102
RTVSPropertyOp2
 70
     1
102
RTVSPropertyOp3
 70
     1
102
RTVSPropertyOp4
 70
     1
102
RTVSPropertyOp5
 70
     1
102
RTVSPropertyOp6
 70
     1
102
RTVSPropertyOp7
 70
     1
102
RTVSPropertyOp8
 70
     1
102
RTVSPropertyOp9
 70
     1
102
RTVSPropertyOp10
 70
     1
102
RTVSPropertyOp11
 70
     1
102
RTVSPropertyOp12
 70
     1
102
RTVSPropertyOp13
 70
     1
102
RTVSPropertyOp14
 70
     1
102
RTVSPropertyOp15
 70
     1
102
RTVSPropertyOp16
 70
     1
102
RTVSPropertyOp17
 70
     1
102
RTVSPropertyOp18
 70
     1
102
RTVSPropertyOp19
 70
     1
102
RTVSPropertyOp20
 70
     1
102
RTVSPropertyOp21
 70
     1
102
RTVSPropertyOp22
 70
     1
102
RTVSPropertyOp23
 70
     1
102
RTVSPropertyOp24
 70
     1
102
RTVSPropertyOp25
 70
     1
102
RTVSPropertyOp26
 70
     1
102
RTVSPropertyOp27
 70
     1
  0
XRECORD
  5
1CB3
102
{ACAD_REACTORS
330
1CB2
102
}
330
1CB2
100
AcDbXrecord
280
     1
102
RTVSPropertyOp0
 70
     1
102
RTVSPropertyOp1
 70
     1
102
RTVSPropertyOp2
 70
     1
102
RTVSPropertyOp3
 70
     1
102
RTVSPropertyOp4
 70
     1
102
RTVSPropertyOp5
 70
     1
102
RTVSPropertyOp6
 70
     1
102
RTVSPropertyOp7
 70
     1
102
RTVSPropertyOp8
 70
     1
102
RTVSPropertyOp9
 70
     1
102
RTVSPropertyOp10
 70
     1
102
RTVSPropertyOp11
 70
     1
102
RTVSPropertyOp12
 70
     1
102
RTVSPropertyOp13
 70
     1
102
RTVSPropertyOp14
 70
     1
102
RTVSPropertyOp15
 70
     1
102
RTVSPropertyOp16
 70
     1
102
RTVSPropertyOp17
 70
     1
102
RTVSPropertyOp18
 70
     1
102
RTVSPropertyOp19
 70
     1
102
RTVSPropertyOp20
 70
     1
102
RTVSPropertyOp21
 70
     1
102
RTVSPropertyOp22
 70
     1
102
RTVSPropertyOp23
 70
     1
102
RTVSPropertyOp24
 70
     1
102
RTVSPropertyOp25
 70
     1
102
RTVSPropertyOp26
 70
     1
102
RTVSPropertyOp27
 70
     1
  0
XRECORD
  5
1CBB
102
{ACAD_REACTORS
330
1CBA
102
}
330
1CBA
100
AcDbXrecord
280
     1
102
RTVSPropertyOp0
 70
     1
102
RTVSPropertyOp1
 70
     1
102
RTVSPropertyOp2
 70
     1
102
RTVSPropertyOp3
 70
     1
102
RTVSPropertyOp4
 70
     1
102
RTVSPropertyOp5
 70
     1
102
RTVSPropertyOp6
 70
     1
102
RTVSPropertyOp7
 70
     1
102
RTVSPropertyOp8
 70
     1
102
RTVSPropertyOp9
 70
     1
102
RTVSPropertyOp10
 70
     1
102
RTVSPropertyOp11
 70
     1
102
RTVSPropertyOp12
 70
     1
102
RTVSPropertyOp13
 70
     1
102
RTVSPropertyOp14
 70
     1
102
RTVSPropertyOp15
 70
     1
102
RTVSPropertyOp16
 70
     1
102
RTVSPropertyOp17
 70
     1
102
RTVSPropertyOp18
 70
     1
102
RTVSPropertyOp19
 70
     1
102
RTVSPropertyOp20
 70
     1
102
RTVSPropertyOp21
 70
     1
102
RTVSPropertyOp22
 70
     1
102
RTVSPropertyOp23
 70
     1
102
RTVSPropertyOp24
 70
     1
102
RTVSPropertyOp25
 70
     1
102
RTVSPropertyOp26
 70
     1
102
RTVSPropertyOp27
 70
     1
  0
XRECORD
  5
1CAD
102
{ACAD_REACTORS
330
1CAC
102
}
330
1CAC
100
AcDbXrecord
280
     1
102
RTVSPropertyOp0
 70
     1
102
RTVSPropertyOp1
 70
     1
102
RTVSPropertyOp2
 70
     1
102
RTVSPropertyOp3
 70
     1
102
RTVSPropertyOp4
 70
     1
102
RTVSPropertyOp5
 70
     1
102
RTVSPropertyOp6
 70
     1
102
RTVSPropertyOp7
 70
     1
102
RTVSPropertyOp8
 70
     1
102
RTVSPropertyOp9
 70
     1
102
RTVSPropertyOp10
 70
     1
102
RTVSPropertyOp11
 70
     1
102
RTVSPropertyOp12
 70
     1
102
RTVSPropertyOp13
 70
     1
102
RTVSPropertyOp14
 70
     1
102
RTVSPropertyOp15
 70
     1
102
RTVSPropertyOp16
 70
     1
102
RTVSPropertyOp17
 70
     1
102
RTVSPropertyOp18
 70
     1
102
RTVSPropertyOp19
 70
     1
102
RTVSPropertyOp20
 70
     1
102
RTVSPropertyOp21
 70
     1
102
RTVSPropertyOp22
 70
     1
102
RTVSPropertyOp23
 70
     1
102
RTVSPropertyOp24
 70
     1
102
RTVSPropertyOp25
 70
     1
102
RTVSPropertyOp26
 70
     1
102
RTVSPropertyOp27
 70
     1
  0
XRECORD
  5
1CB1
102
{ACAD_REACTORS
330
1CB0
102
}
330
1CB0
100
AcDbXrecord
280
     1
102
RTVSPropertyOp0
 70
     1
102
RTVSPropertyOp1
 70
     1
102
RTVSPropertyOp2
 70
     1
102
RTVSPropertyOp3
 70
     1
102
RTVSPropertyOp4
 70
     1
102
RTVSPropertyOp5
 70
     1
102
RTVSPropertyOp6
 70
     1
102
RTVSPropertyOp7
 70
     1
102
RTVSPropertyOp8
 70
     1
102
RTVSPropertyOp9
 70
     1
102
RTVSPropertyOp10
 70
     1
102
RTVSPropertyOp11
 70
     1
102
RTVSPropertyOp12
 70
     1
102
RTVSPropertyOp13
 70
     1
102
RTVSPropertyOp14
 70
     1
102
RTVSPropertyOp15
 70
     1
102
RTVSPropertyOp16
 70
     1
102
RTVSPropertyOp17
 70
     1
102
RTVSPropertyOp18
 70
     1
102
RTVSPropertyOp19
 70
     1
102
RTVSPropertyOp20
 70
     1
102
RTVSPropertyOp21
 70
     1
102
RTVSPropertyOp22
 70
     1
102
RTVSPropertyOp23
 70
     1
102
RTVSPropertyOp24
 70
     1
102
RTVSPropertyOp25
 70
     1
102
RTVSPropertyOp26
 70
     1
102
RTVSPropertyOp27
 70
     1
  0
XRECORD
  5
1CC1
102
{ACAD_REACTORS
330
1CC0
102
}
330
1CC0
100
AcDbXrecord
280
     1
102
RTVSPropertyOp0
 70
     0
102
RTVSPropertyOp1
 70
     0
102
RTVSPropertyOp2
 70
     0
102
RTVSPropertyOp3
 70
     0
102
RTVSPropertyOp4
 70
     0
102
RTVSPropertyOp5
 70
     0
102
RTVSPropertyOp6
 70
     0
102
RTVSPropertyOp7
 70
     0
102
RTVSPropertyOp8
 70
     0
102
RTVSPropertyOp9
 70
     0
102
RTVSPropertyOp10
 70
     0
102
RTVSPropertyOp11
 70
     0
102
RTVSPropertyOp12
 70
     0
102
RTVSPropertyOp13
 70
     0
102
RTVSPropertyOp14
 70
     2
102
RTVSPropertyOp15
 70
     0
102
RTVSPropertyOp16
 70
     0
102
RTVSPropertyOp17
 70
     0
102
RTVSPropertyOp18
 70
     0
102
RTVSPropertyOp19
 70
     0
102
RTVSPropertyOp20
 70
     0
102
RTVSPropertyOp21
 70
     0
102
RTVSPropertyOp22
 70
     0
102
RTVSPropertyOp23
 70
     0
102
RTVSPropertyOp24
 70
     0
102
RTVSPropertyOp25
 70
     0
102
RTVSPropertyOp26
 70
     0
102
RTVSPropertyOp27
 70
     0
  0
XRECORD
  5
1CB9
102
{ACAD_REACTORS
330
1CB8
102
}
330
1CB8
100
AcDbXrecord
280
     1
102
RTVSPropertyOp0
 70
     1
102
RTVSPropertyOp1
 70
     1
102
RTVSPropertyOp2
 70
     1
102
RTVSPropertyOp3
 70
     1
102
RTVSPropertyOp4
 70
     1
102
RTVSPropertyOp5
 70
     1
102
RTVSPropertyOp6
 70
     1
102
RTVSPropertyOp7
 70
     1
102
RTVSPropertyOp8
 70
     1
102
RTVSPropertyOp9
 70
     1
102
RTVSPropertyOp10
 70
     1
102
RTVSPropertyOp11
 70
     1
102
RTVSPropertyOp12
 70
     1
102
RTVSPropertyOp13
 70
     1
102
RTVSPropertyOp14
 70
     1
102
RTVSPropertyOp15
 70
     1
102
RTVSPropertyOp16
 70
     1
102
RTVSPropertyOp17
 70
     1
102
RTVSPropertyOp18
 70
     1
102
RTVSPropertyOp19
 70
     1
102
RTVSPropertyOp20
 70
     1
102
RTVSPropertyOp21
 70
     1
102
RTVSPropertyOp22
 70
     1
102
RTVSPropertyOp23
 70
     1
102
RTVSPropertyOp24
 70
     1
102
RTVSPropertyOp25
 70
     1
102
RTVSPropertyOp26
 70
     1
102
RTVSPropertyOp27
 70
     1
  0
XRECORD
  5
1C9D
102
{ACAD_REACTORS
330
1C9C
102
}
330
1C9C
100
AcDbXrecord
280
     1
102
RTVSPropertyOp0
 70
     1
102
RTVSPropertyOp1
 70
     1
102
RTVSPropertyOp2
 70
     1
102
RTVSPropertyOp3
 70
     1
102
RTVSPropertyOp4
 70
     1
102
RTVSPropertyOp5
 70
     1
102
RTVSPropertyOp6
 70
     1
102
RTVSPropertyOp7
 70
     1
102
RTVSPropertyOp8
 70
     1
102
RTVSPropertyOp9
 70
     1
102
RTVSPropertyOp10
 70
     1
102
RTVSPropertyOp11
 70
     1
102
RTVSPropertyOp12
 70
     1
102
RTVSPropertyOp13
 70
     1
102
RTVSPropertyOp14
 70
     1
102
RTVSPropertyOp15
 70
     1
102
RTVSPropertyOp16
 70
     1
102
RTVSPropertyOp17
 70
     1
102
RTVSPropertyOp18
 70
     1
102
RTVSPropertyOp19
 70
     1
102
RTVSPropertyOp20
 70
     1
102
RTVSPropertyOp21
 70
     1
102
RTVSPropertyOp22
 70
     1
102
RTVSPropertyOp23
 70
     1
102
RTVSPropertyOp24
 70
     1
102
RTVSPropertyOp25
 70
     1
102
RTVSPropertyOp26
 70
     1
102
RTVSPropertyOp27
 70
     1
  0
XRECORD
  5
1C9F
102
{ACAD_REACTORS
330
1C9E
102
}
330
1C9E
100
AcDbXrecord
280
     1
102
RTVSPropertyOp0
 70
     1
102
RTVSPropertyOp1
 70
     1
102
RTVSPropertyOp2
 70
     1
102
RTVSPropertyOp3
 70
     1
102
RTVSPropertyOp4
 70
     1
102
RTVSPropertyOp5
 70
     1
102
RTVSPropertyOp6
 70
     1
102
RTVSPropertyOp7
 70
     1
102
RTVSPropertyOp8
 70
     1
102
RTVSPropertyOp9
 70
     1
102
RTVSPropertyOp10
 70
     1
102
RTVSPropertyOp11
 70
     1
102
RTVSPropertyOp12
 70
     1
102
RTVSPropertyOp13
 70
     1
102
RTVSPropertyOp14
 70
     1
102
RTVSPropertyOp15
 70
     1
102
RTVSPropertyOp16
 70
     1
102
RTVSPropertyOp17
 70
     1
102
RTVSPropertyOp18
 70
     1
102
RTVSPropertyOp19
 70
     1
102
RTVSPropertyOp20
 70
     1
102
RTVSPropertyOp21
 70
     1
102
RTVSPropertyOp22
 70
     1
102
RTVSPropertyOp23
 70
     1
102
RTVSPropertyOp24
 70
     1
102
RTVSPropertyOp25
 70
     1
102
RTVSPropertyOp26
 70
     1
102
RTVSPropertyOp27
 70
     1
  0
XRECORD
  5
1CA1
102
{ACAD_REACTORS
330
1CA0
102
}
330
1CA0
100
AcDbXrecord
280
     1
102
RTVSPropertyOp0
 70
     1
102
RTVSPropertyOp1
 70
     1
102
RTVSPropertyOp2
 70
     1
102
RTVSPropertyOp3
 70
     1
102
RTVSPropertyOp4
 70
     1
102
RTVSPropertyOp5
 70
     1
102
RTVSPropertyOp6
 70
     1
102
RTVSPropertyOp7
 70
     1
102
RTVSPropertyOp8
 70
     1
102
RTVSPropertyOp9
 70
     1
102
RTVSPropertyOp10
 70
     1
102
RTVSPropertyOp11
 70
     1
102
RTVSPropertyOp12
 70
     1
102
RTVSPropertyOp13
 70
     1
102
RTVSPropertyOp14
 70
     1
102
RTVSPropertyOp15
 70
     1
102
RTVSPropertyOp16
 70
     1
102
RTVSPropertyOp17
 70
     1
102
RTVSPropertyOp18
 70
     1
102
RTVSPropertyOp19
 70
     1
102
RTVSPropertyOp20
 70
     1
102
RTVSPropertyOp21
 70
     1
102
RTVSPropertyOp22
 70
     1
102
RTVSPropertyOp23
 70
     1
102
RTVSPropertyOp24
 70
     1
102
RTVSPropertyOp25
 70
     1
102
RTVSPropertyOp26
 70
     1
102
RTVSPropertyOp27
 70
     1
  0
XRECORD
  5
1CA3
102
{ACAD_REACTORS
330
1CA2
102
}
330
1CA2
100
AcDbXrecord
280
     1
102
RTVSPropertyOp0
 70
     1
102
RTVSPropertyOp1
 70
     1
102
RTVSPropertyOp2
 70
     1
102
RTVSPropertyOp3
 70
     1
102
RTVSPropertyOp4
 70
     1
102
RTVSPropertyOp5
 70
     1
102
RTVSPropertyOp6
 70
     1
102
RTVSPropertyOp7
 70
     1
102
RTVSPropertyOp8
 70
     1
102
RTVSPropertyOp9
 70
     1
102
RTVSPropertyOp10
 70
     1
102
RTVSPropertyOp11
 70
     1
102
RTVSPropertyOp12
 70
     1
102
RTVSPropertyOp13
 70
     1
102
RTVSPropertyOp14
 70
     1
102
RTVSPropertyOp15
 70
     1
102
RTVSPropertyOp16
 70
     1
102
RTVSPropertyOp17
 70
     1
102
RTVSPropertyOp18
 70
     1
102
RTVSPropertyOp19
 70
     1
102
RTVSPropertyOp20
 70
     1
102
RTVSPropertyOp21
 70
     1
102
RTVSPropertyOp22
 70
     1
102
RTVSPropertyOp23
 70
     1
102
RTVSPropertyOp24
 70
     1
102
RTVSPropertyOp25
 70
     1
102
RTVSPropertyOp26
 70
     1
102
RTVSPropertyOp27
 70
     1
  0
XRECORD
  5
1CBD
102
{ACAD_REACTORS
330
1CBC
102
}
330
1CBC
100
AcDbXrecord
280
     1
102
RTVSPropertyOp0
 70
     0
102
RTVSPropertyOp1
 70
     0
102
RTVSPropertyOp2
 70
     0
102
RTVSPropertyOp3
 70
     0
102
RTVSPropertyOp4
 70
     0
102
RTVSPropertyOp5
 70
     0
102
RTVSPropertyOp6
 70
     0
102
RTVSPropertyOp7
 70
     0
102
RTVSPropertyOp8
 70
     0
102
RTVSPropertyOp9
 70
     0
102
RTVSPropertyOp10
 70
     0
102
RTVSPropertyOp11
 70
     0
102
RTVSPropertyOp12
 70
     0
102
RTVSPropertyOp13
 70
     0
102
RTVSPropertyOp14
 70
     2
102
RTVSPropertyOp15
 70
     0
102
RTVSPropertyOp16
 70
     0
102
RTVSPropertyOp17
 70
     0
102
RTVSPropertyOp18
 70
     0
102
RTVSPropertyOp19
 70
     0
102
RTVSPropertyOp20
 70
     0
102
RTVSPropertyOp21
 70
     0
102
RTVSPropertyOp22
 70
     0
102
RTVSPropertyOp23
 70
     0
102
RTVSPropertyOp24
 70
     0
102
RTVSPropertyOp25
 70
     0
102
RTVSPropertyOp26
 70
     0
102
RTVSPropertyOp27
 70
     0
  0
XRECORD
  5
1CB7
102
{ACAD_REACTORS
330
1CB6
102
}
330
1CB6
100
AcDbXrecord
280
     1
102
RTVSPropertyOp0
 70
     1
102
RTVSPropertyOp1
 70
     1
102
RTVSPropertyOp2
 70
     1
102
RTVSPropertyOp3
 70
     1
102
RTVSPropertyOp4
 70
     1
102
RTVSPropertyOp5
 70
     1
102
RTVSPropertyOp6
 70
     1
102
RTVSPropertyOp7
 70
     1
102
RTVSPropertyOp8
 70
     1
102
RTVSPropertyOp9
 70
     1
102
RTVSPropertyOp10
 70
     1
102
RTVSPropertyOp11
 70
     1
102
RTVSPropertyOp12
 70
     1
102
RTVSPropertyOp13
 70
     1
102
RTVSPropertyOp14
 70
     1
102
RTVSPropertyOp15
 70
     1
102
RTVSPropertyOp16
 70
     1
102
RTVSPropertyOp17
 70
     1
102
RTVSPropertyOp18
 70
     1
102
RTVSPropertyOp19
 70
     1
102
RTVSPropertyOp20
 70
     1
102
RTVSPropertyOp21
 70
     1
102
RTVSPropertyOp22
 70
     1
102
RTVSPropertyOp23
 70
     1
102
RTVSPropertyOp24
 70
     1
102
RTVSPropertyOp25
 70
     1
102
RTVSPropertyOp26
 70
     1
102
RTVSPropertyOp27
 70
     1
  0
XRECORD
  5
1CBF
102
{ACAD_REACTORS
330
1CBE
102
}
330
1CBE
100
AcDbXrecord
280
     1
102
RTVSPropertyOp0
 70
     0
102
RTVSPropertyOp1
 70
     0
102
RTVSPropertyOp2
 70
     0
102
RTVSPropertyOp3
 70
     0
102
RTVSPropertyOp4
 70
     0
102
RTVSPropertyOp5
 70
     0
102
RTVSPropertyOp6
 70
     0
102
RTVSPropertyOp7
 70
     0
102
RTVSPropertyOp8
 70
     0
102
RTVSPropertyOp9
 70
     0
102
RTVSPropertyOp10
 70
     0
102
RTVSPropertyOp11
 70
     0
102
RTVSPropertyOp12
 70
     0
102
RTVSPropertyOp13
 70
     0
102
RTVSPropertyOp14
 70
     2
102
RTVSPropertyOp15
 70
     0
102
RTVSPropertyOp16
 70
     0
102
RTVSPropertyOp17
 70
     0
102
RTVSPropertyOp18
 70
     0
102
RTVSPropertyOp19
 70
     0
102
RTVSPropertyOp20
 70
     0
102
RTVSPropertyOp21
 70
     0
102
RTVSPropertyOp22
 70
     0
102
RTVSPropertyOp23
 70
     0
102
RTVSPropertyOp24
 70
     0
102
RTVSPropertyOp25
 70
     0
102
RTVSPropertyOp26
 70
     0
102
RTVSPropertyOp27
 70
     0
  0
XRECORD
  5
1CAF
102
{ACAD_REACTORS
330
1CAE
102
}
330
1CAE
100
AcDbXrecord
280
     1
102
RTVSPropertyOp0
 70
     1
102
RTVSPropertyOp1
 70
     1
102
RTVSPropertyOp2
 70
     1
102
RTVSPropertyOp3
 70
     1
102
RTVSPropertyOp4
 70
     1
102
RTVSPropertyOp5
 70
     1
102
RTVSPropertyOp6
 70
     1
102
RTVSPropertyOp7
 70
     1
102
RTVSPropertyOp8
 70
     1
102
RTVSPropertyOp9
 70
     1
102
RTVSPropertyOp10
 70
     1
102
RTVSPropertyOp11
 70
     1
102
RTVSPropertyOp12
 70
     1
102
RTVSPropertyOp13
 70
     1
102
RTVSPropertyOp14
 70
     1
102
RTVSPropertyOp15
 70
     1
102
RTVSPropertyOp16
 70
     1
102
RTVSPropertyOp17
 70
     1
102
RTVSPropertyOp18
 70
     1
102
RTVSPropertyOp19
 70
     1
102
RTVSPropertyOp20
 70
     1
102
RTVSPropertyOp21
 70
     1
102
RTVSPropertyOp22
 70
     1
102
RTVSPropertyOp23
 70
     1
102
RTVSPropertyOp24
 70
     1
102
RTVSPropertyOp25
 70
     1
102
RTVSPropertyOp26
 70
     1
102
RTVSPropertyOp27
 70
     1
  0
XRECORD
  5
1CB5
102
{ACAD_REACTORS
330
1CB4
102
}
330
1CB4
100
AcDbXrecord
280
     1
102
RTVSPropertyOp0
 70
     1
102
RTVSPropertyOp1
 70
     1
102
RTVSPropertyOp2
 70
     1
102
RTVSPropertyOp3
 70
     1
102
RTVSPropertyOp4
 70
     1
102
RTVSPropertyOp5
 70
     1
102
RTVSPropertyOp6
 70
     1
102
RTVSPropertyOp7
 70
     1
102
RTVSPropertyOp8
 70
     1
102
RTVSPropertyOp9
 70
     1
102
RTVSPropertyOp10
 70
     1
102
RTVSPropertyOp11
 70
     1
102
RTVSPropertyOp12
 70
     1
102
RTVSPropertyOp13
 70
     1
102
RTVSPropertyOp14
 70
     1
102
RTVSPropertyOp15
 70
     1
102
RTVSPropertyOp16
 70
     1
102
RTVSPropertyOp17
 70
     1
102
RTVSPropertyOp18
 70
     1
102
RTVSPropertyOp19
 70
     1
102
RTVSPropertyOp20
 70
     1
102
RTVSPropertyOp21
 70
     1
102
RTVSPropertyOp22
 70
     1
102
RTVSPropertyOp23
 70
     1
102
RTVSPropertyOp24
 70
     1
102
RTVSPropertyOp25
 70
     1
102
RTVSPropertyOp26
 70
     1
102
RTVSPropertyOp27
 70
     1
  0
ENDSEC
  0
EOF
