  0
SECTION
  2
HEADER
  9
$ACADVER
  1
AC1024
  9
$ACADMAINTVER
 70
     6
  9
$DWGCODEPAGE
  3
ANSI_932
  9
$LASTSAVEDBY
  1
Schuyler
  9
$INSBASE
 10
0.0
 20
0.0
 30
0.0
  9
$EXTMIN
 10
215.1171132055122
 20
-4.19425378203411
 30
0.0
  9
$EXTMAX
 10
222.8671132055122
 20
0.6807462179658899
 30
0.0
  9
$LIMMIN
 10
0.0
 20
0.0
  9
$LIMMAX
 10
17.0
 20
11.0
  9
$ORTHOMODE
 70
     0
  9
$REGENMODE
 70
     1
  9
$FILLMODE
 70
     1
  9
$QTEXTMODE
 70
     0
  9
$MIRRTEXT
 70
     0
  9
$LTSCALE
 40
3.2
  9
$ATTMODE
 70
     1
  9
$TEXTSIZE
 40
0.1
  9
$TRACEWID
 40
0.05
  9
$TEXTSTYLE
  7
STANDARD
  9
$CLAYER
  8
Title Block
  9
$CELTYPE
  6
BYLAYER
  9
$CECOLOR
 62
   256
  9
$CELTSCALE
 40
1.0
  9
$DISPSILH
 70
     0
  9
$DIMSCALE
 40
0.4
  9
$DIMASZ
 40
0.12
  9
$DIMEXO
 40
0.1
  9
$DIMDLI
 40
0.22
  9
$DIMRND
 40
0.0
  9
$DIMDLE
 40
0.0
  9
$DIMEXE
 40
0.12
  9
$DIMTP
 40
0.0
  9
$DIMTM
 40
0.0
  9
$DIMTXT
 40
0.1
  9
$DIMCEN
 40
0.0
  9
$DIMTSZ
 40
0.0
  9
$DIMTOL
 70
     0
  9
$DIMLIM
 70
     0
  9
$DIMTIH
 70
     0
  9
$DIMTOH
 70
     0
  9
$DIMSE1
 70
     0
  9
$DIMSE2
 70
     0
  9
$DIMTAD
 70
     0
  9
$DIMZIN
 70
     3
  9
$DIMBLK
  1

  9
$DIMASO
 70
     1
  9
$DIMSHO
 70
     0
  9
$DIMPOST
  1

  9
$DIMAPOST
  1

  9
$DIMALT
 70
     0
  9
$DIMALTD
 70
     2
  9
$DIMALTF
 40
25.4
  9
$DIMLFAC
 40
1.0
  9
$DIMTOFL
 70
     0
  9
$DIMTVP
 40
0.0
  9
$DIMTIX
 70
     0
  9
$DIMSOXD
 70
     0
  9
$DIMSAH
 70
     0
  9
$DIMBLK1
  1

  9
$DIMBLK2
  1

  9
$DIMSTYLE
  2
TPS3
  9
$DIMCLRD
 70
     0
  9
$DIMCLRE
 70
     0
  9
$DIMCLRT
 70
     0
  9
$DIMTFAC
 40
1.0
  9
$DIMGAP
 40
0.09
  9
$DIMJUST
 70
     0
  9
$DIMSD1
 70
     0
  9
$DIMSD2
 70
     0
  9
$DIMTOLJ
 70
     1
  9
$DIMTZIN
 70
     3
  9
$DIMALTZ
 70
     0
  9
$DIMALTTZ
 70
     0
  9
$DIMUPT
 70
     0
  9
$DIMDEC
 70
     3
  9
$DIMTDEC
 70
     3
  9
$DIMALTU
 70
     2
  9
$DIMALTTD
 70
     2
  9
$DIMTXSTY
  7
STANDARD
  9
$DIMAUNIT
 70
     0
  9
$DIMADEC
 70
     0
  9
$DIMALTRND
 40
0.0
  9
$DIMAZIN
 70
     0
  9
$DIMDSEP
 70
    46
  9
$DIMATFIT
 70
     3
  9
$DIMFRAC
 70
     0
  9
$DIMLDRBLK
  1

  9
$DIMLUNIT
 70
     2
  9
$DIMLWD
 70
    -2
  9
$DIMLWE
 70
    -2
  9
$DIMTMOVE
 70
     0
  9
$DIMFXL
 40
1.0
  9
$DIMFXLON
 70
     0
  9
$DIMJOGANG
 40
0.7853981633974483
  9
$DIMTFILL
 70
     0
  9
$DIMTFILLCLR
 70
     0
  9
$DIMARCSYM
 70
     0
  9
$DIMLTYPE
  6

  9
$DIMLTEX1
  6

  9
$DIMLTEX2
  6

  9
$DIMTXTDIRECTION
 70
     0
  9
$LUNITS
 70
     2
  9
$LUPREC
 70
     3
  9
$SKETCHINC
 40
0.1
  9
$FILLETRAD
 40
0.0
  9
$AUNITS
 70
     0
  9
$AUPREC
 70
     1
  9
$MENU
  1
ACAD
  9
$ELEVATION
 40
0.0
  9
$PELEVATION
 40
0.0
  9
$THICKNESS
 40
0.0
  9
$LIMCHECK
 70
     0
  9
$CHAMFERA
 40
0.0
  9
$CHAMFERB
 40
0.0
  9
$CHAMFERC
 40
0.0
  9
$CHAMFERD
 40
0.0
  9
$SKPOLY
 70
     0
  9
$TDCREATE
 40
2455057.585952812
  9
$TDUCREATE
 40
2455057.752619480
  9
$TDUPDATE
 40
2455849.024375139
  9
$TDUUPDATE
 40
2455849.191041806
  9
$TDINDWG
 40
11.8276442824
  9
$TDUSRTIMER
 40
11.8276442824
  9
$USRTIMER
 70
     1
  9
$ANGBASE
 50
0.0
  9
$ANGDIR
 70
     0
  9
$PDMODE
 70
     3
  9
$PDSIZE
 40
0.02
  9
$PLINEWID
 40
0.0
  9
$SPLFRAME
 70
     0
  9
$SPLINETYPE
 70
     6
  9
$SPLINESEGS
 70
     8
  9
$HANDSEED
  5
2458
  9
$SURFTAB1
 70
     6
  9
$SURFTAB2
 70
     6
  9
$SURFTYPE
 70
     6
  9
$SURFU
 70
     6
  9
$SURFV
 70
     6
  9
$UCSBASE
  2

  9
$UCSNAME
  2

  9
$UCSORG
 10
217.0637956006614
 20
-1.390165411011395
 30
0.0
  9
$UCSXDIR
 10
1.0
 20
0.0
 30
0.0
  9
$UCSYDIR
 10
0.0
 20
1.0
 30
0.0
  9
$UCSORTHOREF
  2

  9
$UCSORTHOVIEW
 70
     0
  9
$UCSORGTOP
 10
0.0
 20
0.0
 30
0.0
  9
$UCSORGBOTTOM
 10
0.0
 20
0.0
 30
0.0
  9
$UCSORGLEFT
 10
0.0
 20
0.0
 30
0.0
  9
$UCSORGRIGHT
 10
0.0
 20
0.0
 30
0.0
  9
$UCSORGFRONT
 10
0.0
 20
0.0
 30
0.0
  9
$UCSORGBACK
 10
0.0
 20
0.0
 30
0.0
  9
$PUCSBASE
  2

  9
$PUCSNAME
  2

  9
$PUCSORG
 10
0.0
 20
0.0
 30
0.0
  9
$PUCSXDIR
 10
1.0
 20
0.0
 30
0.0
  9
$PUCSYDIR
 10
0.0
 20
1.0
 30
0.0
  9
$PUCSORTHOREF
  2

  9
$PUCSORTHOVIEW
 70
     0
  9
$PUCSORGTOP
 10
0.0
 20
0.0
 30
0.0
  9
$PUCSORGBOTTOM
 10
0.0
 20
0.0
 30
0.0
  9
$PUCSORGLEFT
 10
0.0
 20
0.0
 30
0.0
  9
$PUCSORGRIGHT
 10
0.0
 20
0.0
 30
0.0
  9
$PUCSORGFRONT
 10
0.0
 20
0.0
 30
0.0
  9
$PUCSORGBACK
 10
0.0
 20
0.0
 30
0.0
  9
$USERI1
 70
     0
  9
$USERI2
 70
     0
  9
$USERI3
 70
     0
  9
$USERI4
 70
     0
  9
$USERI5
 70
     0
  9
$USERR1
 40
0.0
  9
$USERR2
 40
0.0
  9
$USERR3
 40
0.0
  9
$USERR4
 40
0.0
  9
$USERR5
 40
0.0
  9
$WORLDVIEW
 70
     1
  9
$SHADEDGE
 70
     3
  9
$SHADEDIF
 70
    70
  9
$TILEMODE
 70
     1
  9
$MAXACTVP
 70
    16
  9
$PINSBASE
 10
0.0
 20
0.0
 30
0.0
  9
$PLIMCHECK
 70
     0
  9
$PEXTMIN
 10
1.000000000000000E+20
 20
1.000000000000000E+20
 30
1.000000000000000E+20
  9
$PEXTMAX
 10
-1.000000000000000E+20
 20
-1.000000000000000E+20
 30
-1.000000000000000E+20
  9
$PLIMMIN
 10
0.0
 20
0.0
  9
$PLIMMAX
 10
12.0
 20
9.0
  9
$UNITMODE
 70
     0
  9
$VISRETAIN
 70
     0
  9
$PLINEGEN
 70
     0
  9
$PSLTSCALE
 70
     0
  9
$TREEDEPTH
 70
  3020
  9
$CMLSTYLE
  2
STANDARD
  9
$CMLJUST
 70
     0
  9
$CMLSCALE
 40
1.0
  9
$PROXYGRAPHICS
 70
     1
  9
$MEASUREMENT
 70
     0
  9
$CELWEIGHT
370
    -1
  9
$ENDCAPS
280
     0
  9
$JOINSTYLE
280
     0
  9
$LWDISPLAY
290
     0
  9
$INSUNITS
 70
     0
  9
$HYPERLINKBASE
  1

  9
$STYLESHEET
  1
tps-s1_BLACK.ctb
  9
$XEDIT
290
     1
  9
$CEPSNTYPE
380
     0
  9
$PSTYLEMODE
290
     1
  9
$FINGERPRINTGUID
  2
{AF1BFB27-CCE5-11D3-9728-005004AD2079}
  9
$VERSIONGUID
  2
{CF741D5D-3DD2-4E02-8D34-F40D0104E487}
  9
$EXTNAMES
290
     1
  9
$PSVPSCALE
 40
0.0
  9
$OLESTARTUP
290
     0
  9
$SORTENTS
280
   127
  9
$INDEXCTL
280
     0
  9
$HIDETEXT
280
     0
  9
$XCLIPFRAME
280
     2
  9
$HALOGAP
280
     0
  9
$OBSCOLOR
 70
   257
  9
$OBSLTYPE
280
     0
  9
$INTERSECTIONDISPLAY
280
     0
  9
$INTERSECTIONCOLOR
 70
   257
  9
$DIMASSOC
280
     1
  9
$PROJECTNAME
  1

  9
$CAMERADISPLAY
290
     0
  9
$LENSLENGTH
 40
50.0
  9
$CAMERAHEIGHT
 40
0.0
  9
$STEPSPERSEC
 40
2.0
  9
$STEPSIZE
 40
6.0
  9
$3DDWFPREC
 40
2.0
  9
$PSOLWIDTH
 40
0.25
  9
$PSOLHEIGHT
 40
4.0
  9
$LOFTANG1
 40
1.570796326794896
  9
$LOFTANG2
 40
1.570796326794896
  9
$LOFTMAG1
 40
0.0
  9
$LOFTMAG2
 40
0.0
  9
$LOFTPARAM
 70
     7
  9
$LOFTNORMALS
280
     1
  9
$LATITUDE
 40
37.795
  9
$LONGITUDE
 40
-122.394
  9
$NORTHDIRECTION
 40
0.0
  9
$TIMEZONE
 70
 -8000
  9
$LIGHTGLYPHDISPLAY
280
     1
  9
$TILEMODELIGHTSYNCH
280
     1
  9
$CMATERIAL
347
23D3
  9
$SOLIDHIST
280
     1
  9
$SHOWHIST
280
     1
  9
$DWFFRAME
280
     2
  9
$DGNFRAME
280
     0
  9
$REALWORLDSCALE
290
     1
  9
$INTERFERECOLOR
 62
     1
  9
$INTERFEREOBJVS
345
23F5
  9
$INTERFEREVPVS
346
23F2
  9
$CSHADOW
280
     0
  9
$SHADOWPLANELOCATION
 40
0.0
  0
ENDSEC
  0
SECTION
  2
CLASSES
  0
CLASS
  1
ACDBDICTIONARYWDFLT
  2
AcDbDictionaryWithDefault
  3
ObjectDBX Classes
 90
        0
 91
        1
280
     0
281
     0
  0
CLASS
  1
PLOTSETTINGS
  2
AcDbPlotSettings
  3
ObjectDBX Classes
 90
        0
 91
        2
280
     0
281
     0
  0
CLASS
  1
SORTENTSTABLE
  2
AcDbSortentsTable
  3
ObjectDBX Classes
 90
        0
 91
        0
280
     0
281
     0
  0
CLASS
  1
MATERIAL
  2
AcDbMaterial
  3
ObjectDBX Classes
 90
     1153
 91
        3
280
     0
281
     0
  0
CLASS
  1
VISUALSTYLE
  2
AcDbVisualStyle
  3
ObjectDBX Classes
 90
     4095
 91
       19
280
     0
281
     0
  0
CLASS
  1
TABLESTYLE
  2
AcDbTableStyle
  3
ObjectDBX Classes
 90
     4095
 91
        1
280
     0
281
     0
  0
CLASS
  1
SCALE
  2
AcDbScale
  3
ObjectDBX Classes
 90
     1153
 91
       33
280
     0
281
     0
  0
CLASS
  1
MLEADERSTYLE
  2
AcDbMLeaderStyle
  3
ACDB_MLEADERSTYLE_CLASS
 90
     4095
 91
        1
280
     0
281
     0
  0
CLASS
  1
DICTIONARYVAR
  2
AcDbDictionaryVar
  3
ObjectDBX Classes
 90
        0
 91
        7
280
     0
281
     0
  0
CLASS
  1
CELLSTYLEMAP
  2
AcDbCellStyleMap
  3
ObjectDBX Classes
 90
     1152
 91
        1
280
     0
281
     0
  0
ENDSEC
  0
SECTION
  2
TABLES
  0
TABLE
  2
VPORT
  5
8
330
0
100
AcDbSymbolTable
 70
     1
  0
VPORT
  5
23D0
330
8
100
AcDbSymbolTableRecord
100
AcDbViewportTableRecord
  2
*Active
 70
     0
 10
0.0
 20
0.0
 11
1.0
 21
1.0
 12
218.9921132055122
 22
-1.377342420474561
 13
0.0
 23
0.0
 14
1.0
 24
1.0
 15
0.0
 25
0.0
 16
0.0
 26
0.0
 36
1.0
 17
0.0
 27
0.0
 37
0.0
 40
5.633822723119098
 41
1.85287610619469
 42
0.0
 43
0.0
 44
0.0
 50
0.0
 51
0.0
 71
     0
 72
   100
 73
     1
 74
     0
 75
     0
 76
     0
 77
     0
 78
     2
281
     0
 65
     1
110
217.0637956006614
120
-1.390165411011395
130
0.0
111
1.0
121
0.0
131
0.0
112
0.0
122
1.0
132
0.0
 79
     0
146
0.0
348
23F1
 60
     3
 61
     5
292
     1
282
     1
141
0.0
142
0.0
 63
   250
421
  3355443
  0
ENDTAB
  0
TABLE
  2
LTYPE
  5
5
330
0
100
AcDbSymbolTable
 70
     4
  0
LTYPE
  5
12
330
5
100
AcDbSymbolTableRecord
100
AcDbLinetypeTableRecord
  2
BYBLOCK
 70
     0
  3

 72
    65
 73
     0
 40
0.0
  0
LTYPE
  5
13
330
5
100
AcDbSymbolTableRecord
100
AcDbLinetypeTableRecord
  2
BYLAYER
 70
     0
  3

 72
    65
 73
     0
 40
0.0
  0
LTYPE
  5
14
330
5
100
AcDbSymbolTableRecord
100
AcDbLinetypeTableRecord
  2
CONTINUOUS
 70
     0
  3
Solid line
 72
    65
 73
     0
 40
0.0
  0
LTYPE
  5
1D
330
5
100
AcDbSymbolTableRecord
100
AcDbLinetypeTableRecord
  2
H
 70
     0
  3
_ _ _ _ _ _ _ _ _ _ _ _ _ _ _ _ _ _ _ _ _ _ _
 72
    65
 73
     2
 40
0.375
 49
0.25
 74
     0
 49
-0.125
 74
     0
  0
LTYPE
  5
1E
330
5
100
AcDbSymbolTableRecord
100
AcDbLinetypeTableRecord
  2
C
 70
     0
  3
____ _ ____ _ ____ _ ____ _ ____ _ ____ _ ____
 72
    65
 73
     4
 40
2.0
 49
1.25
 74
     0
 49
-0.25
 74
     0
 49
0.25
 74
     0
 49
-0.25
 74
     0
  0
LTYPE
  5
726
330
5
100
AcDbSymbolTableRecord
100
AcDbLinetypeTableRecord
  2
ACAD_ISO08W100
 70
     0
  3
ISO long-dash short-dash ____ __ ____ __ ____ _
 72
    65
 73
     4
 40
36.0
 49
24.0
 74
     0
 49
-3.0
 74
     0
 49
6.0
 74
     0
 49
-3.0
 74
     0
  0
ENDTAB
  0
TABLE
  2
LAYER
  5
2
330
0
100
AcDbSymbolTable
 70
    18
  0
LAYER
  5
F
102
{ACAD_XDICTIONARY
360
242C
102
}
330
2
100
AcDbSymbolTableRecord
100
AcDbLayerTableRecord
  2
0
 70
     0
 62
     7
  6
CONTINUOUS
370
    -3
390
106
347
23E3
  0
LAYER
  5
24
102
{ACAD_XDICTIONARY
360
242E
102
}
330
2
100
AcDbSymbolTableRecord
100
AcDbLayerTableRecord
  2
H
 70
     0
 62
     1
  6
H
370
    -3
390
106
347
23E3
  0
LAYER
  5
25
102
{ACAD_XDICTIONARY
360
2430
102
}
330
2
100
AcDbSymbolTableRecord
100
AcDbLayerTableRecord
  2
C
 70
     0
 62
     1
  6
C
370
    -3
390
106
347
23E3
  0
LAYER
  5
26
102
{ACAD_XDICTIONARY
360
2432
102
}
330
2
100
AcDbSymbolTableRecord
100
AcDbLayerTableRecord
  2
BORDER
 70
     0
 62
     3
  6
CONTINUOUS
370
    -3
390
106
347
23E3
  0
LAYER
  5
27
102
{ACAD_XDICTIONARY
360
2434
102
}
330
2
100
AcDbSymbolTableRecord
100
AcDbLayerTableRecord
  2
X
 70
     0
 62
     1
  6
CONTINUOUS
370
    -3
390
106
347
23E3
  0
LAYER
  5
28
102
{ACAD_XDICTIONARY
360
2436
102
}
330
2
100
AcDbSymbolTableRecord
100
AcDbLayerTableRecord
  2
T
 70
     0
 62
    50
  6
CONTINUOUS
370
    -3
390
106
347
23E3
  0
LAYER
  5
2A
102
{ACAD_XDICTIONARY
360
2438
102
}
330
2
100
AcDbSymbolTableRecord
100
AcDbLayerTableRecord
  2
D
 70
     0
 62
     7
  6
CONTINUOUS
370
    -3
390
106
347
23E3
  0
LAYER
  5
371
102
{ACAD_XDICTIONARY
360
243A
102
}
330
2
100
AcDbSymbolTableRecord
100
AcDbLayerTableRecord
  2
FRAME 070
 70
     0
 62
     5
  6
CONTINUOUS
370
    -3
390
106
347
23E3
  0
LAYER
  5
372
102
{ACAD_XDICTIONARY
360
243C
102
}
330
2
100
AcDbSymbolTableRecord
100
AcDbLayerTableRecord
  2
SECTION
 70
     0
 62
     6
  6
ACAD_ISO08W100
370
    -3
390
106
347
23E3
  0
LAYER
  5
373
102
{ACAD_XDICTIONARY
360
243E
102
}
330
2
100
AcDbSymbolTableRecord
100
AcDbLayerTableRecord
  2
FRAME 025
 70
     0
 62
     7
  6
CONTINUOUS
370
    -3
390
106
347
23E3
  0
LAYER
  5
374
102
{ACAD_XDICTIONARY
360
2440
102
}
330
2
100
AcDbSymbolTableRecord
100
AcDbLayerTableRecord
  2
Title Block
 70
     0
 62
    30
  6
CONTINUOUS
370
    -3
390
106
347
23E3
  0
LAYER
  5
496
102
{ACAD_XDICTIONARY
360
2442
102
}
330
2
100
AcDbSymbolTableRecord
100
AcDbLayerTableRecord
  2
TITLE BLOCK TEXT
 70
     0
 62
   253
  6
CONTINUOUS
370
    -3
390
106
347
23E3
  0
LAYER
  5
4CC
330
2
100
AcDbSymbolTableRecord
100
AcDbLayerTableRecord
  2
Defpoints
 70
     0
 62
     7
  6
CONTINUOUS
290
     0
370
    -3
390
106
347
23E3
  0
LAYER
  5
4F0
102
{ACAD_XDICTIONARY
360
2444
102
}
330
2
100
AcDbSymbolTableRecord
100
AcDbLayerTableRecord
  2
ti tubing 075
 70
     0
 62
    41
  6
CONTINUOUS
370
    -3
390
106
347
23E3
  0
LAYER
  5
504
102
{ACAD_XDICTIONARY
360
2446
102
}
330
2
100
AcDbSymbolTableRecord
100
AcDbLayerTableRecord
  2
ti tubing 2.0
 70
     0
 62
   101
  6
CONTINUOUS
370
    -3
390
106
347
23E3
  0
LAYER
  5
AF7
102
{ACAD_XDICTIONARY
360
AF8
102
}
330
2
100
AcDbSymbolTableRecord
100
AcDbLayerTableRecord
  2
Layer 1
 70
     0
 62
     7
  6
CONTINUOUS
370
    -3
390
106
347
23E3
  0
LAYER
  5
1197
102
{ACAD_XDICTIONARY
360
2449
102
}
330
2
100
AcDbSymbolTableRecord
100
AcDbLayerTableRecord
  2
PICK
 70
     0
 62
   211
  6
CONTINUOUS
370
    -3
390
106
347
23E3
  0
LAYER
  5
22FE
102
{ACAD_XDICTIONARY
360
244B
102
}
330
2
100
AcDbSymbolTableRecord
100
AcDbLayerTableRecord
  2
REVISION
 70
     0
 62
   220
  6
CONTINUOUS
370
    -3
390
106
347
23E3
  0
ENDTAB
  0
TABLE
  2
STYLE
  5
3
330
0
100
AcDbSymbolTable
 70
     6
  0
STYLE
  5
10
330
3
100
AcDbSymbolTableRecord
100
AcDbTextStyleTableRecord
  2
STANDARD
 70
     0
 40
0.0
 41
1.0
 50
0.0
 71
     0
 42
0.1
  3
txt
  4

  0
STYLE
  5
376
330
3
100
AcDbSymbolTableRecord
100
AcDbTextStyleTableRecord
  2
ISO Proportional
 70
     0
 40
0.0
 41
1.0
 50
0.0
 71
     0
 42
2.5
  3
isocp.shx
  4

  0
STYLE
  5
3D0
330
3
100
AcDbSymbolTableRecord
100
AcDbTextStyleTableRecord
  2
Roman
 70
     0
 40
0.0
 41
1.0
 50
0.0
 71
     0
 42
0.065
  3
romans
  4

  0
STYLE
  5
725
330
3
100
AcDbSymbolTableRecord
100
AcDbTextStyleTableRecord
  2

 70
     1
 40
0.0
 41
1.0
 50
0.0
 71
     0
 42
0.1
  3
ltypeshp.shx
  4

  0
STYLE
  5
A85
330
3
100
AcDbSymbolTableRecord
100
AcDbTextStyleTableRecord
  2
Annotative
 70
     0
 40
0.0
 41
1.0
 50
0.0
 71
     0
 42
0.2
  3
ARIAL.TTF
  4

1001
AcadAnnotative
1000
AnnotativeData
1002
{
1070
     1
1070
     1
1002
}
1001
ACAD
1000
Arial
1071
       34
  0
STYLE
  5
A86
330
3
100
AcDbSymbolTableRecord
100
AcDbTextStyleTableRecord
  2
small
 70
     0
 40
0.1
 41
1.0
 50
0.0
 71
     0
 42
0.2
  3
ARIAL.TTF
  4

1001
ACAD
1000
Arial
1071
       34
  0
ENDTAB
  0
TABLE
  2
VIEW
  5
6
330
0
100
AcDbSymbolTable
 70
     1
  0
VIEW
  5
20
330
6
100
AcDbSymbolTableRecord
100
AcDbViewTableRecord
  2
BORDER
 70
     0
 40
4.875
 10
218.9921132055122
 20
-1.75675378203411
 41
7.75
 11
0.0
 21
0.0
 31
1.0
 12
0.0
 22
0.0
 32
0.0
 42
0.0
 43
0.0
 44
0.0
 50
0.0
 71
     0
281
     0
 72
     0
 73
     0
348
23F1
  0
ENDTAB
  0
TABLE
  2
UCS
  5
7
330
0
100
AcDbSymbolTable
 70
     0
  0
ENDTAB
  0
TABLE
  2
APPID
  5
9
330
0
100
AcDbSymbolTable
 70
    11
  0
APPID
  5
11
330
9
100
AcDbSymbolTableRecord
100
AcDbRegAppTableRecord
  2
ACAD
 70
     0
  0
APPID
  5
175
330
9
100
AcDbSymbolTableRecord
100
AcDbRegAppTableRecord
  2
SI-MECH
 70
     0
  0
APPID
  5
29D
330
9
100
AcDbSymbolTableRecord
100
AcDbRegAppTableRecord
  2
DCO15
 70
     0
  0
APPID
  5
A8A
330
9
100
AcDbSymbolTableRecord
100
AcDbRegAppTableRecord
  2
AcadAnnoPO
 70
     0
  0
APPID
  5
A8B
330
9
100
AcDbSymbolTableRecord
100
AcDbRegAppTableRecord
  2
AcadAnnotative
 70
     0
  0
APPID
  5
A8C
330
9
100
AcDbSymbolTableRecord
100
AcDbRegAppTableRecord
  2
ACAD_DSTYLE_DIMJAG
 70
     0
  0
APPID
  5
A8D
330
9
100
AcDbSymbolTableRecord
100
AcDbRegAppTableRecord
  2
ACAD_DSTYLE_DIMTALN
 70
     0
  0
APPID
  5
A8E
330
9
100
AcDbSymbolTableRecord
100
AcDbRegAppTableRecord
  2
ACAD_MLEADERVER
 70
     0
  0
APPID
  5
A8F
330
9
100
AcDbSymbolTableRecord
100
AcDbRegAppTableRecord
  2
ACAD_DSTYLE_DIMBREAK
 70
     0
  0
APPID
  5
A90
330
9
100
AcDbSymbolTableRecord
100
AcDbRegAppTableRecord
  2
ACAD_EXEMPT_FROM_CAD_STANDARDS
 70
     0
  0
APPID
  5
A91
330
9
100
AcDbSymbolTableRecord
100
AcDbRegAppTableRecord
  2
ACAD_DSTYLE_DIMRADIAL_EXTENSION
 70
     0
  0
ENDTAB
  0
TABLE
  2
DIMSTYLE
  5
A
330
0
100
AcDbSymbolTable
 70
     5
100
AcDbDimStyleTable
 71
     2
340
49A
340
8C
  0
DIMSTYLE
105
8C
330
A
100
AcDbSymbolTableRecord
100
AcDbDimStyleTableRecord
  2
THREE
 70
     0
 41
0.12
 42
0.1
 43
0.22
 44
0.12
 73
     0
 78
     3
140
0.1
141
0.0
271
     3
272
     3
284
     3
340
10
  0
DIMSTYLE
105
49A
102
{ACAD_REACTORS
330
11A2
330
1D7A
330
1D83
330
1D8C
330
1D95
330
1D9E
330
1DA7
330
1DB0
330
1DB9
330
1DC2
330
1DD4
330
1DDD
330
1DE6
330
1DEF
330
1DF8
330
1E01
330
1E0A
330
1E13
330
1E1C
330
1E25
330
1E2E
330
1E42
330
1EA9
330
1EBB
330
1EC6
330
1ED8
330
1EEA
330
1EFC
330
1F07
330
1F12
330
1F1B
330
1F29
330
1F32
330
1F3B
330
1F44
330
1F4D
330
1F56
330
1F5F
330
1F68
330
1F71
330
1F7A
330
1F9C
330
235B
330
236D
102
}
330
A
100
AcDbSymbolTableRecord
100
AcDbDimStyleTableRecord
  2
TPS3
 70
     0
 40
0.4
 41
0.12
 42
0.1
 43
0.22
 44
0.12
 73
     0
 74
     0
 78
     3
140
0.1
141
0.0
271
     3
272
     3
284
     3
340
10
  0
DIMSTYLE
105
A87
330
A
100
AcDbSymbolTableRecord
100
AcDbDimStyleTableRecord
  2
Standard
 70
     0
340
10
  0
DIMSTYLE
105
A88
330
A
100
AcDbSymbolTableRecord
100
AcDbDimStyleTableRecord
  2
Annotative
 70
     0
 40
0.0
340
10
1001
AcadAnnotative
1000
AnnotativeData
1002
{
1070
     1
1070
     1
1002
}
1001
ACAD_DSTYLE_DIMJAG
1070
   388
1040
1.5
1001
ACAD_DSTYLE_DIMTALN
1070
   392
1070
     0
  0
DIMSTYLE
105
A89
330
A
100
AcDbSymbolTableRecord
100
AcDbDimStyleTableRecord
  2
small
 70
     0
 41
0.075
140
0.1
175
     1
279
     1
340
A86
1001
ACAD_DSTYLE_DIMBREAK
1070
   391
1040
0.125
1001
ACAD_DSTYLE_DIMJAG
1070
   388
1040
1.5
1001
ACAD_DSTYLE_DIMTALN
1070
   392
1070
     0
  0
ENDTAB
  0
TABLE
  2
BLOCK_RECORD
  5
1
330
0
100
AcDbSymbolTable
 70
    45
  0
BLOCK_RECORD
  5
18
330
1
100
AcDbSymbolTableRecord
100
AcDbBlockTableRecord
  2
*MODEL_SPACE
340
109
 70
     0
280
     1
281
     0
  0
BLOCK_RECORD
  5
15
330
1
100
AcDbSymbolTableRecord
100
AcDbBlockTableRecord
  2
*PAPER_SPACE
340
10A
 70
     0
280
     1
281
     0
  0
BLOCK_RECORD
  5
11A3
330
1
100
AcDbSymbolTableRecord
100
AcDbBlockTableRecord
  2
*D0
340
0
 70
     0
280
     1
281
     0
  0
BLOCK_RECORD
  5
1D7B
330
1
100
AcDbSymbolTableRecord
100
AcDbBlockTableRecord
  2
*D1
340
0
 70
     0
280
     1
281
     0
  0
BLOCK_RECORD
  5
1D84
330
1
100
AcDbSymbolTableRecord
100
AcDbBlockTableRecord
  2
*D2
340
0
 70
     0
280
     1
281
     0
  0
BLOCK_RECORD
  5
1D8D
330
1
100
AcDbSymbolTableRecord
100
AcDbBlockTableRecord
  2
*D3
340
0
 70
     0
280
     1
281
     0
  0
BLOCK_RECORD
  5
1D96
330
1
100
AcDbSymbolTableRecord
100
AcDbBlockTableRecord
  2
*D4
340
0
 70
     0
280
     1
281
     0
  0
BLOCK_RECORD
  5
1D9F
330
1
100
AcDbSymbolTableRecord
100
AcDbBlockTableRecord
  2
*D5
340
0
 70
     0
280
     1
281
     0
  0
BLOCK_RECORD
  5
1DA8
330
1
100
AcDbSymbolTableRecord
100
AcDbBlockTableRecord
  2
*D6
340
0
 70
     0
280
     1
281
     0
  0
BLOCK_RECORD
  5
1DB1
330
1
100
AcDbSymbolTableRecord
100
AcDbBlockTableRecord
  2
*D7
340
0
 70
     0
280
     1
281
     0
  0
BLOCK_RECORD
  5
1DBA
330
1
100
AcDbSymbolTableRecord
100
AcDbBlockTableRecord
  2
*D8
340
0
 70
     0
280
     1
281
     0
  0
BLOCK_RECORD
  5
1DC3
330
1
100
AcDbSymbolTableRecord
100
AcDbBlockTableRecord
  2
*D9
340
0
 70
     0
280
     1
281
     0
  0
BLOCK_RECORD
  5
1DD5
330
1
100
AcDbSymbolTableRecord
100
AcDbBlockTableRecord
  2
*D10
340
0
 70
     0
280
     1
281
     0
  0
BLOCK_RECORD
  5
1DDE
330
1
100
AcDbSymbolTableRecord
100
AcDbBlockTableRecord
  2
*D11
340
0
 70
     0
280
     1
281
     0
  0
BLOCK_RECORD
  5
1DE7
330
1
100
AcDbSymbolTableRecord
100
AcDbBlockTableRecord
  2
*D12
340
0
 70
     0
280
     1
281
     0
  0
BLOCK_RECORD
  5
1DF0
330
1
100
AcDbSymbolTableRecord
100
AcDbBlockTableRecord
  2
*D13
340
0
 70
     0
280
     1
281
     0
  0
BLOCK_RECORD
  5
1DF9
330
1
100
AcDbSymbolTableRecord
100
AcDbBlockTableRecord
  2
*D14
340
0
 70
     0
280
     1
281
     0
  0
BLOCK_RECORD
  5
1E02
330
1
100
AcDbSymbolTableRecord
100
AcDbBlockTableRecord
  2
*D15
340
0
 70
     0
280
     1
281
     0
  0
BLOCK_RECORD
  5
1E0B
330
1
100
AcDbSymbolTableRecord
100
AcDbBlockTableRecord
  2
*D16
340
0
 70
     0
280
     1
281
     0
  0
BLOCK_RECORD
  5
1E14
330
1
100
AcDbSymbolTableRecord
100
AcDbBlockTableRecord
  2
*D17
340
0
 70
     0
280
     1
281
     0
  0
BLOCK_RECORD
  5
1E1D
330
1
100
AcDbSymbolTableRecord
100
AcDbBlockTableRecord
  2
*D18
340
0
 70
     0
280
     1
281
     0
  0
BLOCK_RECORD
  5
1E26
330
1
100
AcDbSymbolTableRecord
100
AcDbBlockTableRecord
  2
*D19
340
0
 70
     0
280
     1
281
     0
  0
BLOCK_RECORD
  5
1E2F
330
1
100
AcDbSymbolTableRecord
100
AcDbBlockTableRecord
  2
*D20
340
0
 70
     0
280
     1
281
     0
  0
BLOCK_RECORD
  5
1E43
330
1
100
AcDbSymbolTableRecord
100
AcDbBlockTableRecord
  2
*D21
340
0
 70
     0
280
     1
281
     0
  0
BLOCK_RECORD
  5
1EAA
330
1
100
AcDbSymbolTableRecord
100
AcDbBlockTableRecord
  2
*D22
340
0
 70
     0
280
     1
281
     0
  0
BLOCK_RECORD
  5
1EBC
330
1
100
AcDbSymbolTableRecord
100
AcDbBlockTableRecord
  2
*D23
340
0
 70
     0
280
     1
281
     0
  0
BLOCK_RECORD
  5
1EC7
330
1
100
AcDbSymbolTableRecord
100
AcDbBlockTableRecord
  2
*D24
340
0
 70
     0
280
     1
281
     0
  0
BLOCK_RECORD
  5
1ED9
330
1
100
AcDbSymbolTableRecord
100
AcDbBlockTableRecord
  2
*D25
340
0
 70
     0
280
     1
281
     0
  0
BLOCK_RECORD
  5
1EEB
330
1
100
AcDbSymbolTableRecord
100
AcDbBlockTableRecord
  2
*D26
340
0
 70
     0
280
     1
281
     0
  0
BLOCK_RECORD
  5
1EFD
330
1
100
AcDbSymbolTableRecord
100
AcDbBlockTableRecord
  2
*D27
340
0
 70
     0
280
     1
281
     0
  0
BLOCK_RECORD
  5
1F08
330
1
100
AcDbSymbolTableRecord
100
AcDbBlockTableRecord
  2
*D28
340
0
 70
     0
280
     1
281
     0
  0
BLOCK_RECORD
  5
1F13
330
1
100
AcDbSymbolTableRecord
100
AcDbBlockTableRecord
  2
*D29
340
0
 70
     0
280
     1
281
     0
  0
BLOCK_RECORD
  5
1F1C
330
1
100
AcDbSymbolTableRecord
100
AcDbBlockTableRecord
  2
*D30
340
0
 70
     0
280
     1
281
     0
  0
BLOCK_RECORD
  5
1F2A
330
1
100
AcDbSymbolTableRecord
100
AcDbBlockTableRecord
  2
*D31
340
0
 70
     0
280
     1
281
     0
  0
BLOCK_RECORD
  5
1F33
330
1
100
AcDbSymbolTableRecord
100
AcDbBlockTableRecord
  2
*D32
340
0
 70
     0
280
     1
281
     0
  0
BLOCK_RECORD
  5
1F3C
330
1
100
AcDbSymbolTableRecord
100
AcDbBlockTableRecord
  2
*D33
340
0
 70
     0
280
     1
281
     0
  0
BLOCK_RECORD
  5
1F45
330
1
100
AcDbSymbolTableRecord
100
AcDbBlockTableRecord
  2
*D34
340
0
 70
     0
280
     1
281
     0
  0
BLOCK_RECORD
  5
1F4E
330
1
100
AcDbSymbolTableRecord
100
AcDbBlockTableRecord
  2
*D35
340
0
 70
     0
280
     1
281
     0
  0
BLOCK_RECORD
  5
1F57
330
1
100
AcDbSymbolTableRecord
100
AcDbBlockTableRecord
  2
*D36
340
0
 70
     0
280
     1
281
     0
  0
BLOCK_RECORD
  5
1F60
330
1
100
AcDbSymbolTableRecord
100
AcDbBlockTableRecord
  2
*D37
340
0
 70
     0
280
     1
281
     0
  0
BLOCK_RECORD
  5
1F69
330
1
100
AcDbSymbolTableRecord
100
AcDbBlockTableRecord
  2
*D38
340
0
 70
     0
280
     1
281
     0
  0
BLOCK_RECORD
  5
1F72
330
1
100
AcDbSymbolTableRecord
100
AcDbBlockTableRecord
  2
*D39
340
0
 70
     0
280
     1
281
     0
  0
BLOCK_RECORD
  5
1F7B
330
1
100
AcDbSymbolTableRecord
100
AcDbBlockTableRecord
  2
*D40
340
0
 70
     0
280
     1
281
     0
  0
BLOCK_RECORD
  5
1F9D
330
1
100
AcDbSymbolTableRecord
100
AcDbBlockTableRecord
  2
*D41
340
0
 70
     0
280
     1
281
     0
  0
BLOCK_RECORD
  5
232A
330
1
100
AcDbSymbolTableRecord
100
AcDbBlockTableRecord
  2
A$C23745F77
340
0
 70
     0
280
     1
281
     0
  0
BLOCK_RECORD
  5
235C
330
1
100
AcDbSymbolTableRecord
100
AcDbBlockTableRecord
  2
*D43
340
0
 70
     0
280
     1
281
     0
  0
BLOCK_RECORD
  5
236E
330
1
100
AcDbSymbolTableRecord
100
AcDbBlockTableRecord
  2
*D44
340
0
 70
     0
280
     1
281
     0
  0
ENDTAB
  0
ENDSEC
  0
SECTION
  2
BLOCKS
  0
BLOCK
  5
2E
330
18
100
AcDbEntity
  8
0
100
AcDbBlockBegin
  2
*MODEL_SPACE
 70
     0
 10
0.0
 20
0.0
 30
0.0
  3
*MODEL_SPACE
  1

  0
ENDBLK
  5
2F
330
18
100
AcDbEntity
  8
0
100
AcDbBlockEnd
  0
BLOCK
  5
2C
330
15
100
AcDbEntity
 67
     1
  8
0
100
AcDbBlockBegin
  2
*PAPER_SPACE
 70
     0
 10
0.0
 20
0.0
 30
0.0
  3
*PAPER_SPACE
  1

  0
ENDBLK
  5
2D
330
15
100
AcDbEntity
 67
     1
  8
0
100
AcDbBlockEnd
  0
BLOCK
  5
11AE
330
11A3
100
AcDbEntity
  8
0
100
AcDbBlockBegin
  2
*D0
 70
     1
 10
0.0
 20
0.0
 30
0.0
  3
*D0
  1

  0
LINE
  5
2393
330
11A3
100
AcDbEntity
  8
D
 62
     0
370
    -2
100
AcDbLine
 10
215.9664550908254
 20
-1.229665411011402
 30
0.0
 11
215.9664550908254
 21
-1.025153340859391
 31
0.0
  0
LINE
  5
2394
330
11A3
100
AcDbEntity
  8
D
 62
     0
370
    -2
100
AcDbLine
 10
215.9464550908254
 20
-1.229665411011402
 30
0.0
 11
215.9464550908254
 21
-1.025153340859391
 31
0.0
  0
LINE
  5
2395
330
11A3
100
AcDbEntity
  8
D
 62
     0
370
    -2
100
AcDbLine
 10
216.0144550908254
 20
-1.073153340859391
 30
0.0
 11
216.0624550908254
 21
-1.073153340859391
 31
0.0
  0
LINE
  5
2396
330
11A3
100
AcDbEntity
  8
D
 62
     0
370
    -2
100
AcDbLine
 10
215.8984550908254
 20
-1.073153340859391
 30
0.0
 11
215.8504550908254
 21
-1.073153340859391
 31
0.0
  0
SOLID
  5
2397
330
11A3
100
AcDbEntity
  8
D
 62
     0
100
AcDbTrace
 10
216.0144550908254
 20
-1.065153340859391
 30
0.0
 11
216.0144550908254
 21
-1.081153340859391
 31
0.0
 12
215.9664550908254
 22
-1.073153340859391
 32
0.0
 13
215.9664550908254
 23
-1.073153340859391
 33
0.0
  0
SOLID
  5
2398
330
11A3
100
AcDbEntity
  8
D
 62
     0
100
AcDbTrace
 10
215.8984550908254
 20
-1.065153340859391
 30
0.0
 11
215.8984550908254
 21
-1.081153340859391
 31
0.0
 12
215.9464550908254
 22
-1.073153340859391
 32
0.0
 13
215.9464550908254
 23
-1.073153340859391
 33
0.0
  0
MTEXT
  5
2399
330
11A3
100
AcDbEntity
  8
D
 62
     0
100
AcDbMText
 10
215.6644550908254
 20
-1.073153340859391
 30
0.0
 40
0.04
 41
0.0
 46
0.0
 71
     5
 72
     1
  1
\A1;0.020 REF
 73
     1
 44
1.0
  0
POINT
  5
239A
330
11A3
100
AcDbEntity
  8
Defpoints
 62
     0
100
AcDbPoint
 10
215.9664550908254
 20
-1.269665411011402
 30
0.0
  0
POINT
  5
239B
330
11A3
100
AcDbEntity
  8
Defpoints
 62
     0
100
AcDbPoint
 10
215.9464550908254
 20
-1.269665411011402
 30
0.0
  0
POINT
  5
239C
330
11A3
100
AcDbEntity
  8
Defpoints
 62
     0
100
AcDbPoint
 10
215.9464550908254
 20
-1.073153340859391
 30
0.0
  0
ENDBLK
  5
11AF
330
11A3
100
AcDbEntity
  8
0
100
AcDbBlockEnd
  0
BLOCK
  5
1D81
330
1D7B
100
AcDbEntity
  8
0
100
AcDbBlockBegin
  2
*D1
 70
     1
 10
0.0
 20
0.0
 30
0.0
  3
*D1
  1

  0
LINE
  5
1D7C
330
1D7B
100
AcDbEntity
  8
D
 62
     0
370
    -2
100
AcDbLine
 10
217.0637956006614
 20
-1.350165411011395
 30
0.0
 11
217.0637956006614
 21
-1.176395796716121
 31
0.0
  0
MTEXT
  5
1D7D
330
1D7B
100
AcDbEntity
  8
D
 62
     0
100
AcDbMText
 10
217.0637956006614
 20
-1.07372913004942
 30
0.0
 40
0.04
 41
0.0
 46
0.0
 71
     5
 72
     1
  1
\A1;0.000
 11
0.0000000000000001
 21
1.0
 31
0.0
 73
     1
 44
1.0
  0
POINT
  5
1D7E
330
1D7B
100
AcDbEntity
  8
Defpoints
 62
     0
100
AcDbPoint
 10
217.0637956006614
 20
-1.390165411011395
 30
0.0
  0
POINT
  5
1D7F
330
1D7B
100
AcDbEntity
  8
Defpoints
 62
     0
100
AcDbPoint
 10
217.0637956006614
 20
-1.176395796716121
 30
0.0
  0
POINT
  5
1D80
330
1D7B
100
AcDbEntity
  8
Defpoints
 62
     0
100
AcDbPoint
 10
217.0637956006614
 20
-1.390165411011395
 30
0.0
  0
ENDBLK
  5
1D82
330
1D7B
100
AcDbEntity
  8
0
100
AcDbBlockEnd
  0
BLOCK
  5
1D8A
330
1D84
100
AcDbEntity
  8
0
100
AcDbBlockBegin
  2
*D2
 70
     1
 10
0.0
 20
0.0
 30
0.0
  3
*D2
  1

  0
LINE
  5
1D85
330
1D84
100
AcDbEntity
  8
D
 62
     0
370
    -2
100
AcDbLine
 10
217.0237956006614
 20
-1.390165411011395
 30
0.0
 11
216.8477887811425
 21
-1.390165411011395
 31
0.0
  0
MTEXT
  5
1D86
330
1D84
100
AcDbEntity
  8
D
 62
     0
100
AcDbMText
 10
216.7451221144759
 20
-1.390165411011395
 30
0.0
 40
0.04
 41
0.0
 46
0.0
 71
     5
 72
     1
  1
\A1;0.000
 73
     1
 44
1.0
  0
POINT
  5
1D87
330
1D84
100
AcDbEntity
  8
Defpoints
 62
     0
100
AcDbPoint
 10
217.0637956006614
 20
-1.390165411011395
 30
0.0
  0
POINT
  5
1D88
330
1D84
100
AcDbEntity
  8
Defpoints
 62
     0
100
AcDbPoint
 10
216.8477887811425
 20
-1.390165411011395
 30
0.0
  0
POINT
  5
1D89
330
1D84
100
AcDbEntity
  8
Defpoints
 62
     0
100
AcDbPoint
 10
217.0637956006614
 20
-1.390165411011395
 30
0.0
  0
ENDBLK
  5
1D8B
330
1D84
100
AcDbEntity
  8
0
100
AcDbBlockEnd
  0
BLOCK
  5
1D93
330
1D8D
100
AcDbEntity
  8
0
100
AcDbBlockBegin
  2
*D3
 70
     1
 10
0.0
 20
0.0
 30
0.0
  3
*D3
  1

  0
LINE
  5
1D8E
330
1D8D
100
AcDbEntity
  8
D
 62
     0
370
    -2
100
AcDbLine
 10
217.1842956006615
 20
-1.229665411011395
 30
0.0
 11
217.1842956006615
 21
-1.10868318651768
 31
0.0
  0
MTEXT
  5
1D8F
330
1D8D
100
AcDbEntity
  8
D
 62
     0
100
AcDbMText
 10
217.1842956006615
 20
-1.009349853184312
 30
0.0
 40
0.04
 41
0.0
 46
0.0
 71
     5
 72
     1
  1
\A1;0.121
 11
0.0000000000000001
 21
1.0
 31
0.0
 73
     1
 44
1.0
  0
POINT
  5
1D90
330
1D8D
100
AcDbEntity
  8
Defpoints
 62
     0
100
AcDbPoint
 10
217.1842956006615
 20
-1.269665411011395
 30
0.0
  0
POINT
  5
1D91
330
1D8D
100
AcDbEntity
  8
Defpoints
 62
     0
100
AcDbPoint
 10
217.1842956006615
 20
-1.10868318651768
 30
0.0
  0
POINT
  5
1D92
330
1D8D
100
AcDbEntity
  8
Defpoints
 62
     0
100
AcDbPoint
 10
217.0637956006614
 20
-1.390165411011395
 30
0.0
  0
ENDBLK
  5
1D94
330
1D8D
100
AcDbEntity
  8
0
100
AcDbBlockEnd
  0
BLOCK
  5
1D9C
330
1D96
100
AcDbEntity
  8
0
100
AcDbBlockBegin
  2
*D4
 70
     1
 10
0.0
 20
0.0
 30
0.0
  3
*D4
  1

  0
LINE
  5
1D97
330
1D96
100
AcDbEntity
  8
D
 62
     0
370
    -2
100
AcDbLine
 10
217.0237956006614
 20
-1.460165411011393
 30
0.0
 11
216.8405277149559
 21
-1.460165411011393
 31
0.0
  0
MTEXT
  5
1D98
330
1D96
100
AcDbEntity
  8
D
 62
     0
100
AcDbMText
 10
216.7345277149559
 20
-1.460165411011393
 30
0.0
 40
0.04
 41
0.0
 46
0.0
 71
     5
 72
     1
  1
\A1;0.070
 73
     1
 44
1.0
  0
POINT
  5
1D99
330
1D96
100
AcDbEntity
  8
Defpoints
 62
     0
100
AcDbPoint
 10
217.0637956006614
 20
-1.460165411011393
 30
0.0
  0
POINT
  5
1D9A
330
1D96
100
AcDbEntity
  8
Defpoints
 62
     0
100
AcDbPoint
 10
216.8405277149559
 20
-1.460165411011393
 30
0.0
  0
POINT
  5
1D9B
330
1D96
100
AcDbEntity
  8
Defpoints
 62
     0
100
AcDbPoint
 10
217.0637956006614
 20
-1.390165411011395
 30
0.0
  0
ENDBLK
  5
1D9D
330
1D96
100
AcDbEntity
  8
0
100
AcDbBlockEnd
  0
BLOCK
  5
1DA5
330
1D9F
100
AcDbEntity
  8
0
100
AcDbBlockBegin
  2
*D5
 70
     1
 10
0.0
 20
0.0
 30
0.0
  3
*D5
  1

  0
LINE
  5
1DA0
330
1D9F
100
AcDbEntity
  8
D
 62
     0
370
    -2
100
AcDbLine
 10
217.1842956006615
 20
-1.620665411011395
 30
0.0
 11
217.1842956006615
 21
-1.747118158712908
 31
0.0
  0
MTEXT
  5
1DA1
330
1D9F
100
AcDbEntity
  8
D
 62
     0
100
AcDbMText
 10
217.1842956006615
 20
-1.846451492046206
 30
0.0
 40
0.04
 41
0.0
 46
0.0
 71
     5
 72
     1
  1
\A1;0.121
 11
0.0000000000000001
 21
1.0
 31
0.0
 73
     1
 44
1.0
  0
POINT
  5
1DA2
330
1D9F
100
AcDbEntity
  8
Defpoints
 62
     0
100
AcDbPoint
 10
217.1842956006615
 20
-1.580665411011395
 30
0.0
  0
POINT
  5
1DA3
330
1D9F
100
AcDbEntity
  8
Defpoints
 62
     0
100
AcDbPoint
 10
217.1842956006615
 20
-1.747118158712908
 30
0.0
  0
POINT
  5
1DA4
330
1D9F
100
AcDbEntity
  8
Defpoints
 62
     0
100
AcDbPoint
 10
217.0637956006614
 20
-1.390165411011395
 30
0.0
  0
ENDBLK
  5
1DA6
330
1D9F
100
AcDbEntity
  8
0
100
AcDbBlockEnd
  0
BLOCK
  5
1DAE
330
1DA8
100
AcDbEntity
  8
0
100
AcDbBlockBegin
  2
*D6
 70
     1
 10
0.0
 20
0.0
 30
0.0
  3
*D6
  1

  0
LINE
  5
1DA9
330
1DA8
100
AcDbEntity
  8
D
 62
     0
370
    -2
100
AcDbLine
 10
217.1442956006615
 20
-1.580665411011395
 30
0.0
 11
216.98574796528
 21
-1.580665411011395
 31
0.0
  0
MTEXT
  5
1DAA
330
1DA8
100
AcDbEntity
  8
D
 62
     0
100
AcDbMText
 10
216.8864146319466
 20
-1.580665411011395
 30
0.0
 40
0.04
 41
0.0
 46
0.0
 71
     5
 72
     1
  1
\A1;0.191
 73
     1
 44
1.0
  0
POINT
  5
1DAB
330
1DA8
100
AcDbEntity
  8
Defpoints
 62
     0
100
AcDbPoint
 10
217.1842956006615
 20
-1.580665411011395
 30
0.0
  0
POINT
  5
1DAC
330
1DA8
100
AcDbEntity
  8
Defpoints
 62
     0
100
AcDbPoint
 10
216.98574796528
 20
-1.580665411011395
 30
0.0
  0
POINT
  5
1DAD
330
1DA8
100
AcDbEntity
  8
Defpoints
 62
     0
100
AcDbPoint
 10
217.0637956006614
 20
-1.390165411011395
 30
0.0
  0
ENDBLK
  5
1DAF
330
1DA8
100
AcDbEntity
  8
0
100
AcDbBlockEnd
  0
BLOCK
  5
1DB7
330
1DB1
100
AcDbEntity
  8
0
100
AcDbBlockBegin
  2
*D7
 70
     1
 10
0.0
 20
0.0
 30
0.0
  3
*D7
  1

  0
LINE
  5
1DB2
330
1DB1
100
AcDbEntity
  8
D
 62
     0
370
    -2
100
AcDbLine
 10
217.1442956006615
 20
-1.269665411011395
 30
0.0
 11
216.9712263696107
 21
-1.269665411011395
 31
0.0
  0
MTEXT
  5
1DB3
330
1DB1
100
AcDbEntity
  8
D
 62
     0
100
AcDbMText
 10
216.8718930362774
 20
-1.269665411011395
 30
0.0
 40
0.04
 41
0.0
 46
0.0
 71
     5
 72
     1
  1
\A1;0.121
 73
     1
 44
1.0
  0
POINT
  5
1DB4
330
1DB1
100
AcDbEntity
  8
Defpoints
 62
     0
100
AcDbPoint
 10
217.1842956006615
 20
-1.269665411011395
 30
0.0
  0
POINT
  5
1DB5
330
1DB1
100
AcDbEntity
  8
Defpoints
 62
     0
100
AcDbPoint
 10
216.9712263696107
 20
-1.269665411011395
 30
0.0
  0
POINT
  5
1DB6
330
1DB1
100
AcDbEntity
  8
Defpoints
 62
     0
100
AcDbPoint
 10
217.0637956006614
 20
-1.390165411011395
 30
0.0
  0
ENDBLK
  5
1DB8
330
1DB1
100
AcDbEntity
  8
0
100
AcDbBlockEnd
  0
BLOCK
  5
1DC0
330
1DBA
100
AcDbEntity
  8
0
100
AcDbBlockBegin
  2
*D8
 70
     1
 10
0.0
 20
0.0
 30
0.0
  3
*D8
  1

  0
LINE
  5
1DBB
330
1DBA
100
AcDbEntity
  8
D
 62
     0
370
    -2
100
AcDbLine
 10
219.9657956006614
 20
-1.229665411011393
 30
0.0
 11
219.9657956006614
 21
-1.084830766455979
 31
0.0
  0
MTEXT
  5
1DBC
330
1DBA
100
AcDbEntity
  8
D
 62
     0
100
AcDbMText
 10
219.9657956006614
 20
-0.9721640997892777
 30
0.0
 40
0.04
 41
0.0
 46
0.0
 71
     5
 72
     1
  1
\A1;2.902
 11
0.0000000000000001
 21
1.0
 31
0.0
 73
     1
 44
1.0
  0
POINT
  5
1DBD
330
1DBA
100
AcDbEntity
  8
Defpoints
 62
     0
100
AcDbPoint
 10
219.9657956006614
 20
-1.269665411011393
 30
0.0
  0
POINT
  5
1DBE
330
1DBA
100
AcDbEntity
  8
Defpoints
 62
     0
100
AcDbPoint
 10
219.9657956006614
 20
-1.084830766455979
 30
0.0
  0
POINT
  5
1DBF
330
1DBA
100
AcDbEntity
  8
Defpoints
 62
     0
100
AcDbPoint
 10
217.0637956006614
 20
-1.390165411011395
 30
0.0
  0
ENDBLK
  5
1DC1
330
1DBA
100
AcDbEntity
  8
0
100
AcDbBlockEnd
  0
BLOCK
  5
1DC9
330
1DC3
100
AcDbEntity
  8
0
100
AcDbBlockBegin
  2
*D9
 70
     1
 10
0.0
 20
0.0
 30
0.0
  3
*D9
  1

  0
LINE
  5
1DC4
330
1DC3
100
AcDbEntity
  8
D
 62
     0
370
    -2
100
AcDbLine
 10
220.4377956006614
 20
-1.406665411011395
 30
0.0
 11
220.4377956006614
 21
-1.162621327411443
 31
0.0
  0
MTEXT
  5
1DC5
330
1DC3
100
AcDbEntity
  8
D
 62
     0
100
AcDbMText
 10
220.4377956006614
 20
-1.046621327411408
 30
0.0
 40
0.04
 41
0.0
 46
0.0
 71
     5
 72
     1
  1
\A1;3.374
 11
0.0000000000000001
 21
1.0
 31
0.0
 73
     1
 44
1.0
  0
POINT
  5
1DC6
330
1DC3
100
AcDbEntity
  8
Defpoints
 62
     0
100
AcDbPoint
 10
220.4377956006614
 20
-1.446665411011395
 30
0.0
  0
POINT
  5
1DC7
330
1DC3
100
AcDbEntity
  8
Defpoints
 62
     0
100
AcDbPoint
 10
220.4377956006614
 20
-1.162621327411443
 30
0.0
  0
POINT
  5
1DC8
330
1DC3
100
AcDbEntity
  8
Defpoints
 62
     0
100
AcDbPoint
 10
217.0637956006614
 20
-1.390165411011395
 30
0.0
  0
ENDBLK
  5
1DCA
330
1DC3
100
AcDbEntity
  8
0
100
AcDbBlockEnd
  0
BLOCK
  5
1DDB
330
1DD5
100
AcDbEntity
  8
0
100
AcDbBlockBegin
  2
*D10
 70
     1
 10
0.0
 20
0.0
 30
0.0
  3
*D10
  1

  0
LINE
  5
1E9F
330
1DD5
100
AcDbEntity
  8
D
 62
     0
370
    -2
100
AcDbLine
 10
221.1227956111105
 20
-1.380665411011398
 30
0.0
 11
221.1227956111105
 21
-1.011395420192968
 31
0.0
  0
MTEXT
  5
1EA0
330
1DD5
100
AcDbEntity
  8
D
 62
     0
100
AcDbMText
 10
221.1227956111105
 20
-0.8987287535262664
 30
0.0
 40
0.04
 41
0.0
 46
0.0
 71
     5
 72
     1
  1
\A1;4.059
 11
0.0000000000000001
 21
1.0
 31
0.0
 73
     1
 44
1.0
  0
POINT
  5
1EA1
330
1DD5
100
AcDbEntity
  8
Defpoints
 62
     0
100
AcDbPoint
 10
221.1227956111105
 20
-1.420665411011398
 30
0.0
  0
POINT
  5
1EA2
330
1DD5
100
AcDbEntity
  8
Defpoints
 62
     0
100
AcDbPoint
 10
221.1227956111105
 20
-1.011395420192968
 30
0.0
  0
POINT
  5
1EA3
330
1DD5
100
AcDbEntity
  8
Defpoints
 62
     0
100
AcDbPoint
 10
217.0637956006614
 20
-1.390165411011395
 30
0.0
  0
ENDBLK
  5
1DDC
330
1DD5
100
AcDbEntity
  8
0
100
AcDbBlockEnd
  0
BLOCK
  5
1DE4
330
1DDE
100
AcDbEntity
  8
0
100
AcDbBlockBegin
  2
*D11
 70
     1
 10
0.0
 20
0.0
 30
0.0
  3
*D11
  1

  0
LINE
  5
1E9A
330
1DDE
100
AcDbEntity
  8
D
 62
     0
370
    -2
100
AcDbLine
 10
221.2487956111105
 20
-1.370665411011394
 30
0.0
 11
221.2487956111105
 21
-0.9919475919700744
 31
0.0
  0
MTEXT
  5
1E9B
330
1DDE
100
AcDbEntity
  8
D
 62
     0
100
AcDbMText
 10
221.2487956111105
 20
-0.8826142586367055
 30
0.0
 40
0.04
 41
0.0
 46
0.0
 71
     5
 72
     1
  1
\A1;4.185
 11
0.0000000000000001
 21
1.0
 31
0.0
 73
     1
 44
1.0
  0
POINT
  5
1E9C
330
1DDE
100
AcDbEntity
  8
Defpoints
 62
     0
100
AcDbPoint
 10
221.2487956111105
 20
-1.410665411011394
 30
0.0
  0
POINT
  5
1E9D
330
1DDE
100
AcDbEntity
  8
Defpoints
 62
     0
100
AcDbPoint
 10
221.2487956111105
 20
-0.9919475919700744
 30
0.0
  0
POINT
  5
1E9E
330
1DDE
100
AcDbEntity
  8
Defpoints
 62
     0
100
AcDbPoint
 10
217.0637956006614
 20
-1.390165411011395
 30
0.0
  0
ENDBLK
  5
1DE5
330
1DDE
100
AcDbEntity
  8
0
100
AcDbBlockEnd
  0
BLOCK
  5
1DED
330
1DE7
100
AcDbEntity
  8
0
100
AcDbBlockBegin
  2
*D12
 70
     1
 10
0.0
 20
0.0
 30
0.0
  3
*D12
  1

  0
LINE
  5
1E95
330
1DE7
100
AcDbEntity
  8
D
 62
     0
370
    -2
100
AcDbLine
 10
221.3707956111105
 20
-1.383665411011393
 30
0.0
 11
221.3707956111105
 21
-0.9880580764545356
 31
0.0
  0
MTEXT
  5
1E96
330
1DE7
100
AcDbEntity
  8
D
 62
     0
100
AcDbMText
 10
221.3707956111105
 20
-0.8753914097878332
 30
0.0
 40
0.04
 41
0.0
 46
0.0
 71
     5
 72
     1
  1
\A1;4.307
 11
0.0000000000000001
 21
1.0
 31
0.0
 73
     1
 44
1.0
  0
POINT
  5
1E97
330
1DE7
100
AcDbEntity
  8
Defpoints
 62
     0
100
AcDbPoint
 10
221.3707956111105
 20
-1.423665411011393
 30
0.0
  0
POINT
  5
1E98
330
1DE7
100
AcDbEntity
  8
Defpoints
 62
     0
100
AcDbPoint
 10
221.3707956111105
 20
-0.9880580764545356
 30
0.0
  0
POINT
  5
1E99
330
1DE7
100
AcDbEntity
  8
Defpoints
 62
     0
100
AcDbPoint
 10
217.0637956006614
 20
-1.390165411011395
 30
0.0
  0
ENDBLK
  5
1DEE
330
1DE7
100
AcDbEntity
  8
0
100
AcDbBlockEnd
  0
BLOCK
  5
1DF6
330
1DF0
100
AcDbEntity
  8
0
100
AcDbBlockBegin
  2
*D13
 70
     1
 10
0.0
 20
0.0
 30
0.0
  3
*D13
  1

  0
LINE
  5
1E90
330
1DF0
100
AcDbEntity
  8
D
 62
     0
370
    -2
100
AcDbLine
 10
221.5367956111105
 20
-1.383665411011402
 30
0.0
 11
221.5367956111105
 21
-1.01528493570845
 31
0.0
  0
MTEXT
  5
1E91
330
1DF0
100
AcDbEntity
  8
D
 62
     0
100
AcDbMText
 10
221.5367956111105
 20
-0.8992849357084148
 30
0.0
 40
0.04
 41
0.0
 46
0.0
 71
     5
 72
     1
  1
\A1;4.473
 11
0.0000000000000001
 21
1.0
 31
0.0
 73
     1
 44
1.0
  0
POINT
  5
1E92
330
1DF0
100
AcDbEntity
  8
Defpoints
 62
     0
100
AcDbPoint
 10
221.5367956111105
 20
-1.423665411011402
 30
0.0
  0
POINT
  5
1E93
330
1DF0
100
AcDbEntity
  8
Defpoints
 62
     0
100
AcDbPoint
 10
221.5367956111105
 20
-1.01528493570845
 30
0.0
  0
POINT
  5
1E94
330
1DF0
100
AcDbEntity
  8
Defpoints
 62
     0
100
AcDbPoint
 10
217.0637956006614
 20
-1.390165411011395
 30
0.0
  0
ENDBLK
  5
1DF7
330
1DF0
100
AcDbEntity
  8
0
100
AcDbBlockEnd
  0
BLOCK
  5
1DFF
330
1DF9
100
AcDbEntity
  8
0
100
AcDbBlockBegin
  2
*D14
 70
     1
 10
0.0
 20
0.0
 30
0.0
  3
*D14
  1

  0
LINE
  5
1E8B
330
1DF9
100
AcDbEntity
  8
D
 62
     0
370
    -2
100
AcDbLine
 10
221.6817956111105
 20
-1.357665411011394
 30
0.0
 11
221.6817956111105
 21
-1.007505904677486
 31
0.0
  0
MTEXT
  5
1E8C
330
1DF9
100
AcDbEntity
  8
D
 62
     0
100
AcDbMText
 10
221.6817956111105
 20
-0.8981725713441177
 30
0.0
 40
0.04
 41
0.0
 46
0.0
 71
     5
 72
     1
  1
\A1;4.618
 11
0.0000000000000001
 21
1.0
 31
0.0
 73
     1
 44
1.0
  0
POINT
  5
1E8D
330
1DF9
100
AcDbEntity
  8
Defpoints
 62
     0
100
AcDbPoint
 10
221.6817956111105
 20
-1.397665411011394
 30
0.0
  0
POINT
  5
1E8E
330
1DF9
100
AcDbEntity
  8
Defpoints
 62
     0
100
AcDbPoint
 10
221.6817956111105
 20
-1.007505904677486
 30
0.0
  0
POINT
  5
1E8F
330
1DF9
100
AcDbEntity
  8
Defpoints
 62
     0
100
AcDbPoint
 10
217.0637956006614
 20
-1.390165411011395
 30
0.0
  0
ENDBLK
  5
1E00
330
1DF9
100
AcDbEntity
  8
0
100
AcDbBlockEnd
  0
BLOCK
  5
1E08
330
1E02
100
AcDbEntity
  8
0
100
AcDbBlockBegin
  2
*D15
 70
     1
 10
0.0
 20
0.0
 30
0.0
  3
*D15
  1

  0
LINE
  5
1E86
330
1E02
100
AcDbEntity
  8
D
 62
     0
370
    -2
100
AcDbLine
 10
221.7817956111105
 20
-1.377665411011395
 30
0.0
 11
221.7817956111105
 21
-1.081406950117411
 31
0.0
  0
MTEXT
  5
1E87
330
1E02
100
AcDbEntity
  8
D
 62
     0
100
AcDbMText
 10
221.7817956111105
 20
-0.9720736167840426
 30
0.0
 40
0.04
 41
0.0
 46
0.0
 71
     5
 72
     1
  1
\A1;4.718
 11
0.0000000000000001
 21
1.0
 31
0.0
 73
     1
 44
1.0
  0
POINT
  5
1E88
330
1E02
100
AcDbEntity
  8
Defpoints
 62
     0
100
AcDbPoint
 10
221.7817956111105
 20
-1.417665411011395
 30
0.0
  0
POINT
  5
1E89
330
1E02
100
AcDbEntity
  8
Defpoints
 62
     0
100
AcDbPoint
 10
221.7817956111105
 20
-1.081406950117411
 30
0.0
  0
POINT
  5
1E8A
330
1E02
100
AcDbEntity
  8
Defpoints
 62
     0
100
AcDbPoint
 10
217.0637956006614
 20
-1.390165411011395
 30
0.0
  0
ENDBLK
  5
1E09
330
1E02
100
AcDbEntity
  8
0
100
AcDbBlockEnd
  0
BLOCK
  5
1E11
330
1E0B
100
AcDbEntity
  8
0
100
AcDbBlockBegin
  2
*D16
 70
     1
 10
0.0
 20
0.0
 30
0.0
  3
*D16
  1

  0
LINE
  5
1E81
330
1E0B
100
AcDbEntity
  8
D
 62
     0
370
    -2
100
AcDbLine
 10
221.8637956111105
 20
-1.441665411011394
 30
0.0
 11
221.8637956111105
 21
-1.310514903866987
 31
0.0
  0
MTEXT
  5
1E82
330
1E0B
100
AcDbEntity
  8
D
 62
     0
100
AcDbMText
 10
221.8637956111105
 20
-1.201181570533618
 30
0.0
 40
0.04
 41
0.0
 46
0.0
 71
     5
 72
     1
  1
\A1;4.800
 11
0.0000000000000001
 21
1.0
 31
0.0
 73
     1
 44
1.0
  0
POINT
  5
1E83
330
1E0B
100
AcDbEntity
  8
Defpoints
 62
     0
100
AcDbPoint
 10
221.8637956111105
 20
-1.481665411011394
 30
0.0
  0
POINT
  5
1E84
330
1E0B
100
AcDbEntity
  8
Defpoints
 62
     0
100
AcDbPoint
 10
221.8637956111105
 20
-1.310514903866987
 30
0.0
  0
POINT
  5
1E85
330
1E0B
100
AcDbEntity
  8
Defpoints
 62
     0
100
AcDbPoint
 10
217.0637956006614
 20
-1.390165411011395
 30
0.0
  0
ENDBLK
  5
1E12
330
1E0B
100
AcDbEntity
  8
0
100
AcDbBlockEnd
  0
BLOCK
  5
1E1A
330
1E14
100
AcDbEntity
  8
0
100
AcDbBlockBegin
  2
*D17
 70
     1
 10
0.0
 20
0.0
 30
0.0
  3
*D17
  1

  0
LINE
  5
1FAA
330
1E14
100
AcDbEntity
  8
D
 62
     0
370
    -2
100
AcDbLine
 10
221.8637956111105
 20
-1.597665411011392
 30
0.0
 11
221.8637956111105
 21
-1.653665411011392
 31
0.0
  0
LINE
  5
1FAB
330
1E14
100
AcDbEntity
  8
D
 62
     0
370
    -2
100
AcDbLine
 10
221.8637956111105
 20
-1.653665411011392
 30
0.0
 11
221.7749398395914
 21
-1.623399483397835
 31
0.0
  0
LINE
  5
1FAC
330
1E14
100
AcDbEntity
  8
D
 62
     0
370
    -2
100
AcDbLine
 10
221.7749398395914
 20
-1.623399483397835
 30
0.0
 11
221.7749398395914
 21
-1.719399483397835
 31
0.0
  0
MTEXT
  5
1FAD
330
1E14
100
AcDbEntity
  8
D
 62
     0
100
AcDbMText
 10
221.7749398395914
 20
-1.828732816731132
 30
0.0
 40
0.04
 41
0.0
 46
0.0
 71
     5
 72
     1
  1
\A1;4.800
 11
0.0000000000000001
 21
1.0
 31
0.0
 73
     1
 44
1.0
  0
POINT
  5
1FAE
330
1E14
100
AcDbEntity
  8
Defpoints
 62
     0
100
AcDbPoint
 10
221.8637956111105
 20
-1.557665411011392
 30
0.0
  0
POINT
  5
1FAF
330
1E14
100
AcDbEntity
  8
Defpoints
 62
     0
100
AcDbPoint
 10
221.7749398395914
 20
-1.719399483397835
 30
0.0
  0
POINT
  5
1FB0
330
1E14
100
AcDbEntity
  8
Defpoints
 62
     0
100
AcDbPoint
 10
217.0637956006614
 20
-1.390165411011395
 30
0.0
  0
ENDBLK
  5
1E1B
330
1E14
100
AcDbEntity
  8
0
100
AcDbBlockEnd
  0
BLOCK
  5
1E23
330
1E1D
100
AcDbEntity
  8
0
100
AcDbBlockBegin
  2
*D18
 70
     1
 10
0.0
 20
0.0
 30
0.0
  3
*D18
  1

  0
LINE
  5
1E1E
330
1E1D
100
AcDbEntity
  8
D
 62
     0
370
    -2
100
AcDbLine
 10
220.2148399014606
 20
-1.597665411011395
 30
0.0
 11
220.2148399014606
 21
-1.785037551275991
 31
0.0
  0
MTEXT
  5
1E1F
330
1E1D
100
AcDbEntity
  8
D
 62
     0
100
AcDbMText
 10
220.2148399014606
 20
-1.887704217942622
 30
0.0
 40
0.04
 41
0.0
 46
0.0
 71
     5
 72
     1
  1
\A1;3.151
 11
0.0000000000000001
 21
1.0
 31
0.0
 73
     1
 44
1.0
  0
POINT
  5
1E20
330
1E1D
100
AcDbEntity
  8
Defpoints
 62
     0
100
AcDbPoint
 10
220.2148399014606
 20
-1.557665411011395
 30
0.0
  0
POINT
  5
1E21
330
1E1D
100
AcDbEntity
  8
Defpoints
 62
     0
100
AcDbPoint
 10
220.2148399014606
 20
-1.785037551275991
 30
0.0
  0
POINT
  5
1E22
330
1E1D
100
AcDbEntity
  8
Defpoints
 62
     0
100
AcDbPoint
 10
217.0637956006614
 20
-1.390165411011395
 30
0.0
  0
ENDBLK
  5
1E24
330
1E1D
100
AcDbEntity
  8
0
100
AcDbBlockEnd
  0
BLOCK
  5
1E2C
330
1E26
100
AcDbEntity
  8
0
100
AcDbBlockBegin
  2
*D19
 70
     1
 10
0.0
 20
0.0
 30
0.0
  3
*D19
  1

  0
LINE
  5
1E27
330
1E26
100
AcDbEntity
  8
D
 62
     0
370
    -2
100
AcDbLine
 10
220.1147956006614
 20
-1.620665411011393
 30
0.0
 11
220.1147956006614
 21
-1.792816582307011
 31
0.0
  0
MTEXT
  5
1E28
330
1E26
100
AcDbEntity
  8
D
 62
     0
100
AcDbMText
 10
220.1147956006614
 20
-1.898816582306976
 30
0.0
 40
0.04
 41
0.0
 46
0.0
 71
     5
 72
     1
  1
\A1;3.051
 11
0.0000000000000001
 21
1.0
 31
0.0
 73
     1
 44
1.0
  0
POINT
  5
1E29
330
1E26
100
AcDbEntity
  8
Defpoints
 62
     0
100
AcDbPoint
 10
220.1147956006614
 20
-1.580665411011393
 30
0.0
  0
POINT
  5
1E2A
330
1E26
100
AcDbEntity
  8
Defpoints
 62
     0
100
AcDbPoint
 10
220.1147956006614
 20
-1.792816582307011
 30
0.0
  0
POINT
  5
1E2B
330
1E26
100
AcDbEntity
  8
Defpoints
 62
     0
100
AcDbPoint
 10
217.0637956006614
 20
-1.390165411011395
 30
0.0
  0
ENDBLK
  5
1E2D
330
1E26
100
AcDbEntity
  8
0
100
AcDbBlockEnd
  0
BLOCK
  5
1E35
330
1E2F
100
AcDbEntity
  8
0
100
AcDbBlockBegin
  2
*D20
 70
     1
 10
0.0
 20
0.0
 30
0.0
  3
*D20
  1

  0
LINE
  5
1E30
330
1E2F
100
AcDbEntity
  8
D
 62
     0
370
    -2
100
AcDbLine
 10
220.3977956006614
 20
-1.446665411011395
 30
0.0
 11
220.2262492575599
 21
-1.446665411011395
 31
0.0
  0
MTEXT
  5
1E31
330
1E2F
100
AcDbEntity
  8
D
 62
     0
100
AcDbMText
 10
220.1169159242265
 20
-1.446665411011395
 30
0.0
 40
0.04
 41
0.0
 46
0.0
 71
     5
 72
     1
  1
\A1;0.057
 73
     1
 44
1.0
  0
POINT
  5
1E32
330
1E2F
100
AcDbEntity
  8
Defpoints
 62
     0
100
AcDbPoint
 10
220.4377956006614
 20
-1.446665411011395
 30
0.0
  0
POINT
  5
1E33
330
1E2F
100
AcDbEntity
  8
Defpoints
 62
     0
100
AcDbPoint
 10
220.2262492575599
 20
-1.446665411011395
 30
0.0
  0
POINT
  5
1E34
330
1E2F
100
AcDbEntity
  8
Defpoints
 62
     0
100
AcDbPoint
 10
217.0637956006614
 20
-1.390165411011395
 30
0.0
  0
ENDBLK
  5
1E36
330
1E2F
100
AcDbEntity
  8
0
100
AcDbBlockEnd
  0
BLOCK
  5
1E4B
330
1E43
100
AcDbEntity
  8
0
100
AcDbBlockBegin
  2
*D21
 70
     1
 10
0.0
 20
0.0
 30
0.0
  3
*D21
  1

  0
LINE
  5
2354
330
1E43
100
AcDbEntity
  8
D
 62
     0
370
    -2
100
AcDbLine
 10
221.0827956111105
 20
-1.420665411011398
 30
0.0
 11
221.0267956111104
 21
-1.420665411011398
 31
0.0
  0
LINE
  5
2355
330
1E43
100
AcDbEntity
  8
D
 62
     0
370
    -2
100
AcDbLine
 10
221.0267956111104
 20
-1.420665411011398
 30
0.0
 11
220.9325403759199
 21
-1.104368486406031
 31
0.0
  0
LINE
  5
2356
330
1E43
100
AcDbEntity
  8
D
 62
     0
370
    -2
100
AcDbLine
 10
220.9325403759199
 20
-1.104368486406031
 30
0.0
 11
220.8365403759199
 21
-1.104368486406031
 31
0.0
  0
MTEXT
  5
2357
330
1E43
100
AcDbEntity
  8
D
 62
     0
100
AcDbMText
 10
220.7338737092532
 20
-1.104368486406031
 30
0.0
 40
0.04
 41
0.0
 46
0.0
 71
     5
 72
     1
  1
\A1;0.031
 73
     1
 44
1.0
  0
POINT
  5
2358
330
1E43
100
AcDbEntity
  8
Defpoints
 62
     0
100
AcDbPoint
 10
221.1227956111105
 20
-1.420665411011398
 30
0.0
  0
POINT
  5
2359
330
1E43
100
AcDbEntity
  8
Defpoints
 62
     0
100
AcDbPoint
 10
220.8365403759199
 20
-1.104368486406031
 30
0.0
  0
POINT
  5
235A
330
1E43
100
AcDbEntity
  8
Defpoints
 62
     0
100
AcDbPoint
 10
217.0637956006614
 20
-1.390165411011395
 30
0.0
  0
ENDBLK
  5
1E4C
330
1E43
100
AcDbEntity
  8
0
100
AcDbBlockEnd
  0
BLOCK
  5
1EB2
330
1EAA
100
AcDbEntity
  8
0
100
AcDbBlockBegin
  2
*D22
 70
     1
 10
0.0
 20
0.0
 30
0.0
  3
*D22
  1

  0
LINE
  5
234D
330
1EAA
100
AcDbEntity
  8
D
 62
     0
370
    -2
100
AcDbLine
 10
221.2087956111105
 20
-1.410665411011394
 30
0.0
 11
221.1527956111105
 21
-1.410665411011394
 31
0.0
  0
LINE
  5
234E
330
1EAA
100
AcDbEntity
  8
D
 62
     0
370
    -2
100
AcDbLine
 10
221.1527956111105
 20
-1.410665411011394
 30
0.0
 11
221.0638036526054
 21
-1.033189842213403
 31
0.0
  0
LINE
  5
234F
330
1EAA
100
AcDbEntity
  8
D
 62
     0
370
    -2
100
AcDbLine
 10
221.0638036526054
 20
-1.033189842213403
 30
0.0
 11
220.9678036526054
 21
-1.033189842213403
 31
0.0
  0
MTEXT
  5
2350
330
1EAA
100
AcDbEntity
  8
D
 62
     0
100
AcDbMText
 10
220.8651369859388
 20
-1.033189842213403
 30
0.0
 40
0.04
 41
0.0
 46
0.0
 71
     5
 72
     1
  1
\A1;0.021
 73
     1
 44
1.0
  0
POINT
  5
2351
330
1EAA
100
AcDbEntity
  8
Defpoints
 62
     0
100
AcDbPoint
 10
221.2487956111105
 20
-1.410665411011394
 30
0.0
  0
POINT
  5
2352
330
1EAA
100
AcDbEntity
  8
Defpoints
 62
     0
100
AcDbPoint
 10
220.9678036526054
 20
-1.033189842213403
 30
0.0
  0
POINT
  5
2353
330
1EAA
100
AcDbEntity
  8
Defpoints
 62
     0
100
AcDbPoint
 10
217.0637956006614
 20
-1.390165411011395
 30
0.0
  0
ENDBLK
  5
1EB3
330
1EAA
100
AcDbEntity
  8
0
100
AcDbBlockEnd
  0
BLOCK
  5
1EC4
330
1EBC
100
AcDbEntity
  8
0
100
AcDbBlockBegin
  2
*D23
 70
     1
 10
0.0
 20
0.0
 30
0.0
  3
*D23
  1

  0
LINE
  5
2366
330
1EBC
100
AcDbEntity
  8
D
 62
     0
370
    -2
100
AcDbLine
 10
221.3307956111105
 20
-1.423665411011393
 30
0.0
 11
221.2747956111105
 21
-1.423665411011393
 31
0.0
  0
LINE
  5
2367
330
1EBC
100
AcDbEntity
  8
D
 62
     0
370
    -2
100
AcDbLine
 10
221.2747956111105
 20
-1.423665411011393
 30
0.0
 11
221.3095497600183
 21
-1.643024767529766
 31
0.0
  0
LINE
  5
2368
330
1EBC
100
AcDbEntity
  8
D
 62
     0
370
    -2
100
AcDbLine
 10
221.3095497600183
 20
-1.643024767529766
 30
0.0
 11
221.2135497600183
 21
-1.643024767529766
 31
0.0
  0
MTEXT
  5
2369
330
1EBC
100
AcDbEntity
  8
D
 62
     0
100
AcDbMText
 10
221.104216426685
 20
-1.643024767529766
 30
0.0
 40
0.04
 41
0.0
 46
0.0
 71
     5
 72
     1
  1
\A1;0.034
 73
     1
 44
1.0
  0
POINT
  5
236A
330
1EBC
100
AcDbEntity
  8
Defpoints
 62
     0
100
AcDbPoint
 10
221.3707956111105
 20
-1.423665411011393
 30
0.0
  0
POINT
  5
236B
330
1EBC
100
AcDbEntity
  8
Defpoints
 62
     0
100
AcDbPoint
 10
221.2135497600183
 20
-1.643024767529766
 30
0.0
  0
POINT
  5
236C
330
1EBC
100
AcDbEntity
  8
Defpoints
 62
     0
100
AcDbPoint
 10
217.0637956006614
 20
-1.390165411011395
 30
0.0
  0
ENDBLK
  5
1EC5
330
1EBC
100
AcDbEntity
  8
0
100
AcDbBlockEnd
  0
BLOCK
  5
1ECF
330
1EC7
100
AcDbEntity
  8
0
100
AcDbBlockBegin
  2
*D24
 70
     1
 10
0.0
 20
0.0
 30
0.0
  3
*D24
  1

  0
LINE
  5
1ED1
330
1EC7
100
AcDbEntity
  8
D
 62
     0
370
    -2
100
AcDbLine
 10
221.4967956111105
 20
-1.423665411011402
 30
0.0
 11
221.4407956111105
 21
-1.423665411011402
 31
0.0
  0
LINE
  5
1ED2
330
1EC7
100
AcDbEntity
  8
D
 62
     0
370
    -2
100
AcDbLine
 10
221.4407956111105
 20
-1.423665411011402
 30
0.0
 11
221.3979962049529
 21
-1.746497310025461
 31
0.0
  0
LINE
  5
1ED3
330
1EC7
100
AcDbEntity
  8
D
 62
     0
370
    -2
100
AcDbLine
 10
221.3979962049529
 20
-1.746497310025461
 30
0.0
 11
221.3019962049529
 21
-1.746497310025461
 31
0.0
  0
MTEXT
  5
1ED4
330
1EC7
100
AcDbEntity
  8
D
 62
     0
100
AcDbMText
 10
221.1926628716196
 20
-1.746497310025461
 30
0.0
 40
0.04
 41
0.0
 46
0.0
 71
     5
 72
     1
  1
\A1;0.034
 73
     1
 44
1.0
  0
POINT
  5
1ED5
330
1EC7
100
AcDbEntity
  8
Defpoints
 62
     0
100
AcDbPoint
 10
221.5367956111105
 20
-1.423665411011402
 30
0.0
  0
POINT
  5
1ED6
330
1EC7
100
AcDbEntity
  8
Defpoints
 62
     0
100
AcDbPoint
 10
221.3019962049529
 20
-1.746497310025461
 30
0.0
  0
POINT
  5
1ED7
330
1EC7
100
AcDbEntity
  8
Defpoints
 62
     0
100
AcDbPoint
 10
217.0637956006614
 20
-1.390165411011395
 30
0.0
  0
ENDBLK
  5
1ED0
330
1EC7
100
AcDbEntity
  8
0
100
AcDbBlockEnd
  0
BLOCK
  5
1EE1
330
1ED9
100
AcDbEntity
  8
0
100
AcDbBlockBegin
  2
*D25
 70
     1
 10
0.0
 20
0.0
 30
0.0
  3
*D25
  1

  0
LINE
  5
1EE3
330
1ED9
100
AcDbEntity
  8
D
 62
     0
370
    -2
100
AcDbLine
 10
221.6417956111105
 20
-1.397665411011394
 30
0.0
 11
221.5857956111105
 21
-1.397665411011394
 31
0.0
  0
LINE
  5
1EE4
330
1ED9
100
AcDbEntity
  8
D
 62
     0
370
    -2
100
AcDbLine
 10
221.5857956111105
 20
-1.397665411011394
 30
0.0
 11
221.5292408215953
 21
-1.846687550230114
 31
0.0
  0
LINE
  5
1EE5
330
1ED9
100
AcDbEntity
  8
D
 62
     0
370
    -2
100
AcDbLine
 10
221.5292408215953
 20
-1.846687550230114
 30
0.0
 11
221.4332408215953
 21
-1.846687550230114
 31
0.0
  0
MTEXT
  5
1EE6
330
1ED9
100
AcDbEntity
  8
D
 62
     0
100
AcDbMText
 10
221.3272408215953
 20
-1.846687550230114
 30
0.0
 40
0.04
 41
0.0
 46
0.0
 71
     5
 72
     1
  1
\A1;0.008
 73
     1
 44
1.0
  0
POINT
  5
1EE7
330
1ED9
100
AcDbEntity
  8
Defpoints
 62
     0
100
AcDbPoint
 10
221.6817956111105
 20
-1.397665411011394
 30
0.0
  0
POINT
  5
1EE8
330
1ED9
100
AcDbEntity
  8
Defpoints
 62
     0
100
AcDbPoint
 10
221.4332408215953
 20
-1.846687550230114
 30
0.0
  0
POINT
  5
1EE9
330
1ED9
100
AcDbEntity
  8
Defpoints
 62
     0
100
AcDbPoint
 10
217.0637956006614
 20
-1.390165411011395
 30
0.0
  0
ENDBLK
  5
1EE2
330
1ED9
100
AcDbEntity
  8
0
100
AcDbBlockEnd
  0
BLOCK
  5
1EF3
330
1EEB
100
AcDbEntity
  8
0
100
AcDbBlockBegin
  2
*D26
 70
     1
 10
0.0
 20
0.0
 30
0.0
  3
*D26
  1

  0
LINE
  5
1EF5
330
1EEB
100
AcDbEntity
  8
D
 62
     0
370
    -2
100
AcDbLine
 10
221.7417956111105
 20
-1.417665411011395
 30
0.0
 11
221.6857956111105
 21
-1.417665411011395
 31
0.0
  0
LINE
  5
1EF6
330
1EEB
100
AcDbEntity
  8
D
 62
     0
370
    -2
100
AcDbLine
 10
221.6857956111105
 20
-1.417665411011395
 30
0.0
 11
221.6354871153306
 21
-1.92051214881917
 31
0.0
  0
LINE
  5
1EF7
330
1EEB
100
AcDbEntity
  8
D
 62
     0
370
    -2
100
AcDbLine
 10
221.6354871153306
 20
-1.92051214881917
 30
0.0
 11
221.5394871153307
 21
-1.92051214881917
 31
0.0
  0
MTEXT
  5
1EF8
330
1EEB
100
AcDbEntity
  8
D
 62
     0
100
AcDbMText
 10
221.4301537819973
 20
-1.92051214881917
 30
0.0
 40
0.04
 41
0.0
 46
0.0
 71
     5
 72
     1
  1
\A1;0.028
 73
     1
 44
1.0
  0
POINT
  5
1EF9
330
1EEB
100
AcDbEntity
  8
Defpoints
 62
     0
100
AcDbPoint
 10
221.7817956111105
 20
-1.417665411011395
 30
0.0
  0
POINT
  5
1EFA
330
1EEB
100
AcDbEntity
  8
Defpoints
 62
     0
100
AcDbPoint
 10
221.5394871153307
 20
-1.92051214881917
 30
0.0
  0
POINT
  5
1EFB
330
1EEB
100
AcDbEntity
  8
Defpoints
 62
     0
100
AcDbPoint
 10
217.0637956006614
 20
-1.390165411011395
 30
0.0
  0
ENDBLK
  5
1EF4
330
1EEB
100
AcDbEntity
  8
0
100
AcDbBlockEnd
  0
BLOCK
  5
1F05
330
1EFD
100
AcDbEntity
  8
0
100
AcDbBlockBegin
  2
*D27
 70
     1
 10
0.0
 20
0.0
 30
0.0
  3
*D27
  1

  0
LINE
  5
1EFE
330
1EFD
100
AcDbEntity
  8
D
 62
     0
370
    -2
100
AcDbLine
 10
221.9037956111105
 20
-1.481665411011394
 30
0.0
 11
221.9597956111105
 21
-1.481665411011394
 31
0.0
  0
LINE
  5
1EFF
330
1EFD
100
AcDbEntity
  8
D
 62
     0
370
    -2
100
AcDbLine
 10
221.9597956111105
 20
-1.481665411011394
 30
0.0
 11
221.9546816323046
 21
-1.380127907585062
 31
0.0
  0
LINE
  5
1F00
330
1EFD
100
AcDbEntity
  8
D
 62
     0
370
    -2
100
AcDbLine
 10
221.9546816323046
 20
-1.380127907585062
 30
0.0
 11
222.0506816323046
 21
-1.380127907585062
 31
0.0
  0
MTEXT
  5
1F01
330
1EFD
100
AcDbEntity
  8
D
 62
     0
100
AcDbMText
 10
222.160014965638
 20
-1.380127907585062
 30
0.0
 40
0.04
 41
0.0
 46
0.0
 71
     5
 72
     1
  1
\A1;0.092
 73
     1
 44
1.0
  0
POINT
  5
1F02
330
1EFD
100
AcDbEntity
  8
Defpoints
 62
     0
100
AcDbPoint
 10
221.8637956111105
 20
-1.481665411011394
 30
0.0
  0
POINT
  5
1F03
330
1EFD
100
AcDbEntity
  8
Defpoints
 62
     0
100
AcDbPoint
 10
222.0506816323046
 20
-1.380127907585062
 30
0.0
  0
POINT
  5
1F04
330
1EFD
100
AcDbEntity
  8
Defpoints
 62
     0
100
AcDbPoint
 10
217.0637956006614
 20
-1.390165411011395
 30
0.0
  0
ENDBLK
  5
1F06
330
1EFD
100
AcDbEntity
  8
0
100
AcDbBlockEnd
  0
BLOCK
  5
1F10
330
1F08
100
AcDbEntity
  8
0
100
AcDbBlockBegin
  2
*D28
 70
     1
 10
0.0
 20
0.0
 30
0.0
  3
*D28
  1

  0
LINE
  5
1F09
330
1F08
100
AcDbEntity
  8
D
 62
     0
370
    -2
100
AcDbLine
 10
221.9037956111105
 20
-1.557665411011392
 30
0.0
 11
221.9597956111105
 21
-1.557665411011392
 31
0.0
  0
LINE
  5
1F0A
330
1F08
100
AcDbEntity
  8
D
 62
     0
370
    -2
100
AcDbLine
 10
221.9597956111105
 20
-1.557665411011392
 30
0.0
 11
221.9916245673937
 21
-1.638513250710445
 31
0.0
  0
LINE
  5
1F0B
330
1F08
100
AcDbEntity
  8
D
 62
     0
370
    -2
100
AcDbLine
 10
221.9916245673937
 20
-1.638513250710445
 30
0.0
 11
222.0876245673937
 21
-1.638513250710445
 31
0.0
  0
MTEXT
  5
1F0C
330
1F08
100
AcDbEntity
  8
D
 62
     0
100
AcDbMText
 10
222.1936245673937
 20
-1.638513250710445
 30
0.0
 40
0.04
 41
0.0
 46
0.0
 71
     5
 72
     1
  1
\A1;0.168
 73
     1
 44
1.0
  0
POINT
  5
1F0D
330
1F08
100
AcDbEntity
  8
Defpoints
 62
     0
100
AcDbPoint
 10
221.8637956111105
 20
-1.557665411011392
 30
0.0
  0
POINT
  5
1F0E
330
1F08
100
AcDbEntity
  8
Defpoints
 62
     0
100
AcDbPoint
 10
222.0876245673937
 20
-1.638513250710445
 30
0.0
  0
POINT
  5
1F0F
330
1F08
100
AcDbEntity
  8
Defpoints
 62
     0
100
AcDbPoint
 10
217.0637956006614
 20
-1.390165411011395
 30
0.0
  0
ENDBLK
  5
1F11
330
1F08
100
AcDbEntity
  8
0
100
AcDbBlockEnd
  0
BLOCK
  5
1F19
330
1F13
100
AcDbEntity
  8
0
100
AcDbBlockBegin
  2
*D29
 70
     1
 10
0.0
 20
0.0
 30
0.0
  3
*D29
  1

  0
LINE
  5
1F14
330
1F13
100
AcDbEntity
  8
D
 62
     0
370
    -2
100
AcDbLine
 10
222.0169629628209
 20
-1.5073942500061
 30
0.0
 11
221.9505173344593
 21
-1.512752142508169
 31
0.0
  0
MTEXT
  5
1F15
330
1F13
100
AcDbEntity
  8
D
 62
     0
100
AcDbMText
 10
222.1458778649639
 20
-1.496999101301394
 30
0.0
 40
0.04
 41
0.0
 46
0.0
 71
     5
 72
     1
  1
\A1;R0.038
 11
0.9967647072906061
 21
0.0803748611188371
 31
0.0
 73
     1
 44
1.0
  0
SOLID
  5
1F16
330
1F13
100
AcDbEntity
  8
D
 62
     0
100
AcDbTrace
 10
221.9498743355704
 20
-1.504778024849844
 30
0.0
 11
221.9511603333483
 21
-1.520726260166494
 31
0.0
 12
221.9026726285093
 22
-1.516610135841872
 32
0.0
 13
221.9026726285093
 23
-1.516610135841872
 33
0.0
  0
POINT
  5
1F17
330
1F13
100
AcDbEntity
  8
Defpoints
 62
     0
100
AcDbPoint
 10
221.9026726285093
 20
-1.516610135841872
 30
0.0
  0
POINT
  5
1F18
330
1F13
100
AcDbEntity
  8
Defpoints
 62
     0
100
AcDbPoint
 10
221.8647827905973
 20
-1.519665411011349
 30
0.0
  0
ENDBLK
  5
1F1A
330
1F13
100
AcDbEntity
  8
0
100
AcDbBlockEnd
  0
BLOCK
  5
1F22
330
1F1C
100
AcDbEntity
  8
0
100
AcDbBlockBegin
  2
*D30
 70
     1
 10
0.0
 20
0.0
 30
0.0
  3
*D30
  1

  0
LINE
  5
1F24
330
1F1C
100
AcDbEntity
  8
D
 62
     0
370
    -2
100
AcDbLine
 10
221.9170998710758
 20
-1.327899508819314
 30
0.0
 11
221.8423660047671
 21
-1.413982574909212
 31
0.0
  0
MTEXT
  5
1F25
330
1F1C
100
AcDbEntity
  8
D
 62
     0
100
AcDbMText
 10
221.999702223828
 20
-1.232753035843131
 30
0.0
 40
0.04
 41
0.0
 46
0.0
 71
     5
 72
     1
  1
\A1;R0.173
 11
0.6555742281918537
 21
0.7551307379061293
 31
0.0
 73
     1
 44
1.0
  0
SOLID
  5
1F26
330
1F1C
100
AcDbEntity
  8
D
 62
     0
100
AcDbTrace
 10
221.8363249588638
 20
-1.408737981083675
 30
0.0
 11
221.8484070506704
 21
-1.419227168734749
 31
0.0
 12
221.8108984418139
 22
-1.450228850328713
 32
0.0
 13
221.8108984418139
 23
-1.450228850328713
 33
0.0
  0
POINT
  5
1F27
330
1F1C
100
AcDbEntity
  8
Defpoints
 62
     0
100
AcDbPoint
 10
221.8108984418139
 20
-1.450228850328713
 30
0.0
  0
POINT
  5
1F28
330
1F1C
100
AcDbEntity
  8
Defpoints
 62
     0
100
AcDbPoint
 10
221.9243537566804
 20
-1.319544036999857
 30
0.0
  0
ENDBLK
  5
1F23
330
1F1C
100
AcDbEntity
  8
0
100
AcDbBlockEnd
  0
BLOCK
  5
1F30
330
1F2A
100
AcDbEntity
  8
0
100
AcDbBlockBegin
  2
*D31
 70
     1
 10
0.0
 20
0.0
 30
0.0
  3
*D31
  1

  0
LINE
  5
1F2B
330
1F2A
100
AcDbEntity
  8
D
 62
     0
370
    -2
100
AcDbLine
 10
221.8069307420357
 20
-1.149200073087101
 30
0.0
 11
221.7328684469532
 21
-1.37388210144833
 31
0.0
  0
MTEXT
  5
1F2C
330
1F2A
100
AcDbEntity
  8
D
 62
     0
100
AcDbMText
 10
221.847420082426
 20
-1.026367974570973
 30
0.0
 40
0.04
 41
0.0
 46
0.0
 71
     5
 72
     1
  1
\A1;R0.094
 11
0.3130619102341355
 21
0.9497327204853764
 31
0.0
 73
     1
 44
1.0
  0
SOLID
  5
1F2D
330
1F2A
100
AcDbEntity
  8
D
 62
     0
100
AcDbTrace
 10
221.7252705851894
 20
-1.371377606166447
 30
0.0
 11
221.7404663087171
 21
-1.376386596730199
 31
0.0
 12
221.717841475262
 22
-1.419469272031633
 32
0.0
 13
221.717841475262
 23
-1.419469272031633
 33
0.0
  0
POINT
  5
1F2E
330
1F2A
100
AcDbEntity
  8
Defpoints
 62
     0
100
AcDbPoint
 10
221.717841475262
 20
-1.419469272031633
 30
0.0
  0
POINT
  5
1F2F
330
1F2A
100
AcDbEntity
  8
Defpoints
 62
     0
100
AcDbPoint
 10
221.7473214718091
 20
-1.330036107519234
 30
0.0
  0
ENDBLK
  5
1F31
330
1F2A
100
AcDbEntity
  8
0
100
AcDbBlockEnd
  0
BLOCK
  5
1F39
330
1F33
100
AcDbEntity
  8
0
100
AcDbBlockBegin
  2
*D32
 70
     1
 10
0.0
 20
0.0
 30
0.0
  3
*D32
  1

  0
LINE
  5
1F34
330
1F33
100
AcDbEntity
  8
D
 62
     0
370
    -2
100
AcDbLine
 10
221.6013956157649
 20
-1.266627388665359
 30
0.0
 11
221.5994332058479
 21
-1.401483290074955
 31
0.0
  0
MTEXT
  5
1F35
330
1F33
100
AcDbEntity
  8
D
 62
     0
100
AcDbMText
 10
221.6032289613664
 20
-1.14064072729237
 30
0.0
 40
0.04
 41
0.0
 46
0.0
 71
     5
 72
     1
  1
\A1;R0.090
 11
0.0145503619166916
 21
0.9998941378806524
 31
0.0
 73
     1
 44
1.0
  0
SOLID
  5
1F36
330
1F33
100
AcDbEntity
  8
D
 62
     0
100
AcDbTrace
 10
221.5914340527449
 20
-1.401366887179621
 30
0.0
 11
221.607432358951
 21
-1.401599692970289
 31
0.0
 12
221.5987347884759
 22
-1.449478208693227
 32
0.0
 13
221.5987347884759
 23
-1.449478208693227
 33
0.0
  0
POINT
  5
1F37
330
1F33
100
AcDbEntity
  8
Defpoints
 62
     0
100
AcDbPoint
 10
221.5987347884759
 20
-1.449478208693227
 30
0.0
  0
POINT
  5
1F38
330
1F33
100
AcDbEntity
  8
Defpoints
 62
     0
100
AcDbPoint
 10
221.6000499210232
 20
-1.359102908605907
 30
0.0
  0
ENDBLK
  5
1F3A
330
1F33
100
AcDbEntity
  8
0
100
AcDbBlockEnd
  0
BLOCK
  5
1F42
330
1F3C
100
AcDbEntity
  8
0
100
AcDbBlockBegin
  2
*D33
 70
     1
 10
0.0
 20
0.0
 30
0.0
  3
*D33
  1

  0
LINE
  5
1F3D
330
1F3C
100
AcDbEntity
  8
D
 62
     0
370
    -2
100
AcDbLine
 10
221.4541233006609
 20
-1.316298507237945
 30
0.0
 11
221.4535179643652
 21
-1.422664620965177
 31
0.0
  0
MTEXT
  5
1F3E
330
1F3C
100
AcDbEntity
  8
D
 62
     0
100
AcDbMText
 10
221.45485933294
 20
-1.186967268290858
 30
0.0
 40
0.04
 41
0.0
 46
0.0
 71
     5
 72
     1
  1
\A1;R0.097
 11
0.0056909712298811
 21
0.9999838062921122
 31
0.0
 73
     1
 44
1.0
  0
SOLID
  5
1F3F
330
1F3C
100
AcDbEntity
  8
D
 62
     0
100
AcDbTrace
 10
221.4455180939149
 20
-1.422619093195338
 30
0.0
 11
221.4615178348156
 21
-1.422710148735017
 31
0.0
 12
221.4532447977462
 22
-1.470663843667199
 32
0.0
 13
221.4532447977462
 23
-1.470663843667199
 33
0.0
  0
POINT
  5
1F40
330
1F3C
100
AcDbEntity
  8
Defpoints
 62
     0
100
AcDbPoint
 10
221.4532447977462
 20
-1.470663843667199
 30
0.0
  0
POINT
  5
1F41
330
1F3C
100
AcDbEntity
  8
Defpoints
 62
     0
100
AcDbPoint
 10
221.4537956111105
 20
-1.373878176968845
 30
0.0
  0
ENDBLK
  5
1F43
330
1F3C
100
AcDbEntity
  8
0
100
AcDbBlockEnd
  0
BLOCK
  5
1F4B
330
1F45
100
AcDbEntity
  8
0
100
AcDbBlockBegin
  2
*D34
 70
     1
 10
0.0
 20
0.0
 30
0.0
  3
*D34
  1

  0
LINE
  5
1F46
330
1F45
100
AcDbEntity
  8
D
 62
     0
370
    -2
100
AcDbLine
 10
221.3162026440871
 20
-1.346522334358748
 30
0.0
 11
221.3176213184921
 21
-1.394501364808859
 31
0.0
  0
MTEXT
  5
1F47
330
1F45
100
AcDbEntity
  8
D
 62
     0
100
AcDbMText
 10
221.3123801047181
 20
-1.217245502312614
 30
0.0
 40
0.04
 41
0.0
 46
0.0
 71
     5
 72
     1
  1
\A1;R0.088
 11
0.0295557167701434
 21
-0.9995631343773153
 31
0.0
 73
     1
 44
1.0
  0
SOLID
  5
1F48
330
1F45
100
AcDbEntity
  8
D
 62
     0
100
AcDbTrace
 10
221.3256178235671
 20
-1.394264919074697
 30
0.0
 11
221.309624813417
 21
-1.39473781054302
 31
0.0
 12
221.319039992897
 22
-1.442480395258971
 32
0.0
 13
221.319039992897
 23
-1.442480395258971
 33
0.0
  0
POINT
  5
1F49
330
1F45
100
AcDbEntity
  8
Defpoints
 62
     0
100
AcDbPoint
 10
221.319039992897
 20
-1.442480395258971
 30
0.0
  0
POINT
  5
1F4A
330
1F45
100
AcDbEntity
  8
Defpoints
 62
     0
100
AcDbPoint
 10
221.3164460354147
 20
-1.354753736770311
 30
0.0
  0
ENDBLK
  5
1F4C
330
1F45
100
AcDbEntity
  8
0
100
AcDbBlockEnd
  0
BLOCK
  5
1F54
330
1F4E
100
AcDbEntity
  8
0
100
AcDbBlockBegin
  2
*D35
 70
     1
 10
0.0
 20
0.0
 30
0.0
  3
*D35
  1

  0
LINE
  5
1F4F
330
1F4E
100
AcDbEntity
  8
D
 62
     0
370
    -2
100
AcDbLine
 10
221.1814053029072
 20
-1.32851142296483
 30
0.0
 11
221.1783784417481
 21
-1.392827554732706
 31
0.0
  0
MTEXT
  5
1F50
330
1F4E
100
AcDbEntity
  8
D
 62
     0
100
AcDbMText
 10
221.1874852897213
 20
-1.199321079395922
 30
0.0
 40
0.04
 41
0.0
 46
0.0
 71
     5
 72
     1
  1
\A1;R0.092
 11
0.0470102073254302
 21
0.9988944090379224
 31
0.0
 73
     1
 44
1.0
  0
SOLID
  5
1F51
330
1F4E
100
AcDbEntity
  8
D
 62
     0
100
AcDbTrace
 10
221.1703872864758
 20
-1.392451473074101
 30
0.0
 11
221.1863695970204
 21
-1.393203636391309
 31
0.0
 12
221.1761219517964
 22
-1.440774486366526
 32
0.0
 13
221.1761219517964
 23
-1.440774486366526
 33
0.0
  0
POINT
  5
1F52
330
1F4E
100
AcDbEntity
  8
Defpoints
 62
     0
100
AcDbPoint
 10
221.1761219517964
 20
-1.440774486366526
 30
0.0
  0
POINT
  5
1F53
330
1F4E
100
AcDbEntity
  8
Defpoints
 62
     0
100
AcDbPoint
 10
221.1804647547491
 20
-1.348496620859659
 30
0.0
  0
ENDBLK
  5
1F55
330
1F4E
100
AcDbEntity
  8
0
100
AcDbBlockEnd
  0
BLOCK
  5
1F5D
330
1F57
100
AcDbEntity
  8
0
100
AcDbBlockBegin
  2
*D36
 70
     1
 10
0.0
 20
0.0
 30
0.0
  3
*D36
  1

  0
LINE
  5
1F58
330
1F57
100
AcDbEntity
  8
D
 62
     0
370
    -2
100
AcDbLine
 10
220.3044421534406
 20
-1.870988758154155
 30
0.0
 11
220.2081647820498
 21
-1.613169249458678
 31
0.0
  0
MTEXT
  5
1F59
330
1F57
100
AcDbEntity
  8
D
 62
     0
100
AcDbMText
 10
220.348521125297
 20
-1.989027074984292
 30
0.0
 40
0.04
 41
0.0
 46
0.0
 71
     5
 72
     1
  1
\A1;R0.199
 11
0.3498331099707382
 21
-0.9368120383343722
 31
0.0
 73
     1
 44
1.0
  0
SOLID
  5
1F5A
330
1F57
100
AcDbEntity
  8
D
 62
     0
100
AcDbTrace
 10
220.2156592783565
 20
-1.610370584578902
 30
0.0
 11
220.2006702857431
 21
-1.61596791433844
 31
0.0
 12
220.1913727927713
 22
-1.568202271618631
 32
0.0
 13
220.1913727927713
 23
-1.568202271618631
 33
0.0
  0
POINT
  5
1F5B
330
1F57
100
AcDbEntity
  8
Defpoints
 62
     0
100
AcDbPoint
 10
220.1913727927713
 20
-1.568202271618631
 30
0.0
  0
POINT
  5
1F5C
330
1F57
100
AcDbEntity
  8
Defpoints
 62
     0
100
AcDbPoint
 10
220.1217076716811
 20
-1.381647248011319
 30
0.0
  0
ENDBLK
  5
1F5E
330
1F57
100
AcDbEntity
  8
0
100
AcDbBlockEnd
  0
BLOCK
  5
1F66
330
1F60
100
AcDbEntity
  8
0
100
AcDbBlockBegin
  2
*D37
 70
     1
 10
0.0
 20
0.0
 30
0.0
  3
*D37
  1

  0
LINE
  5
1F61
330
1F60
100
AcDbEntity
  8
D
 62
     0
370
    -2
100
AcDbLine
 10
220.2583087984948
 20
-0.9705788057160518
 30
0.0
 11
220.174027404328
 21
-1.256138888903088
 31
0.0
  0
MTEXT
  5
1F62
330
1F60
100
AcDbEntity
  8
D
 62
     0
100
AcDbMText
 10
220.2939759145253
 20
-0.8497323873410635
 30
0.0
 40
0.04
 41
0.0
 46
0.0
 71
     5
 72
     1
  1
\A1;R0.814
 11
0.283072349448602
 21
0.9590985585317332
 31
0.0
 73
     1
 44
1.0
  0
SOLID
  5
1F63
330
1F60
100
AcDbEntity
  8
D
 62
     0
100
AcDbTrace
 10
220.1663546158597
 20
-1.253874310107498
 30
0.0
 11
220.1817001927963
 21
-1.258403467698684
 31
0.0
 12
220.1604399315544
 22
-1.302175619712613
 32
0.0
 13
220.1604399315544
 23
-1.302175619712613
 33
0.0
  0
POINT
  5
1F64
330
1F60
100
AcDbEntity
  8
Defpoints
 62
     0
100
AcDbPoint
 10
220.1604399315544
 20
-1.302175619712613
 30
0.0
  0
POINT
  5
1F65
330
1F60
100
AcDbEntity
  8
Defpoints
 62
     0
100
AcDbPoint
 10
219.9299898472673
 20
-2.082980753396249
 30
0.0
  0
ENDBLK
  5
1F67
330
1F60
100
AcDbEntity
  8
0
100
AcDbBlockEnd
  0
BLOCK
  5
1F6F
330
1F69
100
AcDbEntity
  8
0
100
AcDbBlockBegin
  2
*D38
 70
     1
 10
0.0
 20
0.0
 30
0.0
  3
*D38
  1

  0
LINE
  5
1F6A
330
1F69
100
AcDbEntity
  8
D
 62
     0
370
    -2
100
AcDbLine
 10
216.9681606927718
 20
-1.732712126013325
 30
0.0
 11
217.0795973813126
 21
-1.592190154393748
 31
0.0
  0
MTEXT
  5
1F6B
330
1F69
100
AcDbEntity
  8
D
 62
     0
100
AcDbMText
 10
216.89401239895
 20
-1.826213329041763
 30
0.0
 40
0.04
 41
0.0
 46
0.0
 71
     5
 72
     1
  1
\A1;R0.121
 11
0.6213544175008976
 21
0.7835296343164822
 31
0.0
 73
     1
 44
1.0
  0
SOLID
  5
1F6C
330
1F69
100
AcDbEntity
  8
D
 62
     0
100
AcDbTrace
 10
217.073329144238
 20
-1.587219319053744
 30
0.0
 11
217.0858656183871
 21
-1.597160989733765
 31
0.0
 12
217.1094223933526
 22
-1.554580731946558
 32
0.0
 13
217.1094223933526
 23
-1.554580731946558
 33
0.0
  0
POINT
  5
1F6D
330
1F69
100
AcDbEntity
  8
Defpoints
 62
     0
100
AcDbPoint
 10
217.1094223933526
 20
-1.554580731946558
 30
0.0
  0
POINT
  5
1F6E
330
1F69
100
AcDbEntity
  8
Defpoints
 62
     0
100
AcDbPoint
 10
217.1842956006615
 20
-1.460165411011359
 30
0.0
  0
ENDBLK
  5
1F70
330
1F69
100
AcDbEntity
  8
0
100
AcDbBlockEnd
  0
BLOCK
  5
1F78
330
1F72
100
AcDbEntity
  8
0
100
AcDbBlockBegin
  2
*D39
 70
     1
 10
0.0
 20
0.0
 30
0.0
  3
*D39
  1

  0
LINE
  5
1F73
330
1F72
100
AcDbEntity
  8
D
 62
     0
370
    -2
100
AcDbLine
 10
216.9626244056825
 20
-1.154491951428113
 30
0.0
 11
217.0688500746422
 21
-1.267427558161728
 31
0.0
  0
MTEXT
  5
1F74
330
1F72
100
AcDbEntity
  8
D
 62
     0
100
AcDbMText
 10
216.8808647650992
 20
-1.06756781429614
 30
0.0
 40
0.04
 41
0.0
 46
0.0
 71
     5
 72
     1
  1
\A1;R0.121
 11
0.6851366529325452
 21
-0.7284145569717764
 31
0.0
 73
     1
 44
1.0
  0
SOLID
  5
1F75
330
1F72
100
AcDbEntity
  8
D
 62
     0
100
AcDbTrace
 10
217.074677391098
 20
-1.261946464938262
 30
0.0
 11
217.0630227581864
 21
-1.272908651385193
 31
0.0
 12
217.101736633983
 22
-1.302391456896373
 32
0.0
 13
217.101736633983
 23
-1.302391456896373
 33
0.0
  0
POINT
  5
1F76
330
1F72
100
AcDbEntity
  8
Defpoints
 62
     0
100
AcDbPoint
 10
217.101736633983
 20
-1.302391456896373
 30
0.0
  0
POINT
  5
1F77
330
1F72
100
AcDbEntity
  8
Defpoints
 62
     0
100
AcDbPoint
 10
217.1842956006612
 20
-1.390165411011281
 30
0.0
  0
ENDBLK
  5
1F79
330
1F72
100
AcDbEntity
  8
0
100
AcDbBlockEnd
  0
BLOCK
  5
1F86
330
1F7B
100
AcDbEntity
  8
0
100
AcDbBlockBegin
  2
*D40
 70
     1
 10
0.0
 20
0.0
 30
0.0
  3
*D40
  1

  0
LINE
  5
1F92
330
1F7B
100
AcDbEntity
  8
D
 62
     0
370
    -2
100
AcDbLine
 10
219.0539850344544
 20
-1.580665411011395
 30
0.0
 11
219.0219487531944
 21
-1.580665411011395
 31
0.0
  0
LINE
  5
1F93
330
1F7B
100
AcDbEntity
  8
D
 62
     0
370
    -2
100
AcDbLine
 10
219.0539850344544
 20
-1.269665411011395
 30
0.0
 11
219.0219487531944
 21
-1.269665411011395
 31
0.0
  0
LINE
  5
1F94
330
1F7B
100
AcDbEntity
  8
D
 62
     0
370
    -2
100
AcDbLine
 10
219.0699487531944
 20
-1.532665411011395
 30
0.0
 11
219.0699487531944
 21
-1.317665411011395
 31
0.0
  0
LINE
  5
1F95
330
1F7B
100
AcDbEntity
  8
D
 62
     0
370
    -2
100
AcDbLine
 10
219.0699487531944
 20
-1.269665411011395
 30
0.0
 11
219.0699487531944
 21
-1.221665411011395
 31
0.0
  0
SOLID
  5
1F96
330
1F7B
100
AcDbEntity
  8
D
 62
     0
100
AcDbTrace
 10
219.0619487531944
 20
-1.532665411011395
 30
0.0
 11
219.0779487531944
 21
-1.532665411011395
 31
0.0
 12
219.0699487531944
 22
-1.580665411011395
 32
0.0
 13
219.0699487531944
 23
-1.580665411011395
 33
0.0
  0
SOLID
  5
1F97
330
1F7B
100
AcDbEntity
  8
D
 62
     0
100
AcDbTrace
 10
219.0619487531944
 20
-1.317665411011395
 30
0.0
 11
219.0779487531944
 21
-1.317665411011395
 31
0.0
 12
219.0699487531944
 22
-1.269665411011395
 32
0.0
 13
219.0699487531944
 23
-1.269665411011395
 33
0.0
  0
MTEXT
  5
1F98
330
1F7B
100
AcDbEntity
  8
D
 62
     0
100
AcDbMText
 10
219.0699487531944
 20
-1.122332077678026
 30
0.0
 40
0.04
 41
0.0
 46
0.0
 71
     5
 72
     1
  1
\A1;0.311\PREF
 11
0.0000000000000001
 21
1.0
 31
0.0
 73
     1
 44
1.0
  0
POINT
  5
1F99
330
1F7B
100
AcDbEntity
  8
Defpoints
 62
     0
100
AcDbPoint
 10
219.0939850344544
 20
-1.580665411011395
 30
0.0
  0
POINT
  5
1F9A
330
1F7B
100
AcDbEntity
  8
Defpoints
 62
     0
100
AcDbPoint
 10
219.0939850344544
 20
-1.269665411011395
 30
0.0
  0
POINT
  5
1F9B
330
1F7B
100
AcDbEntity
  8
Defpoints
 62
     0
100
AcDbPoint
 10
219.0699487531944
 20
-1.269665411011395
 30
0.0
  0
ENDBLK
  5
1F87
330
1F7B
100
AcDbEntity
  8
0
100
AcDbBlockEnd
  0
BLOCK
  5
1FA8
330
1F9D
100
AcDbEntity
  8
0
100
AcDbBlockBegin
  2
*D41
 70
     1
 10
0.0
 20
0.0
 30
0.0
  3
*D41
  1

  0
LINE
  5
1FB1
330
1F9D
100
AcDbEntity
  8
D
 62
     0
370
    -2
100
AcDbLine
 10
221.9027956111105
 20
-1.559665411011393
 30
0.0
 11
221.9027956111105
 21
-2.258543981761986
 31
0.0
  0
LINE
  5
1FB2
330
1F9D
100
AcDbEntity
  8
D
 62
     0
370
    -2
100
AcDbLine
 10
217.0637956006614
 20
-1.500165411011393
 30
0.0
 11
217.0637956006614
 21
-2.258543981761986
 31
0.0
  0
LINE
  5
1FB3
330
1F9D
100
AcDbEntity
  8
D
 62
     0
370
    -2
100
AcDbLine
 10
221.8547956111105
 20
-2.210543981761986
 30
0.0
 11
219.599295605886
 21
-2.210543981761986
 31
0.0
  0
LINE
  5
1FB4
330
1F9D
100
AcDbEntity
  8
D
 62
     0
370
    -2
100
AcDbLine
 10
217.1117956006614
 20
-2.210543981761986
 30
0.0
 11
219.3672956058859
 21
-2.210543981761986
 31
0.0
  0
SOLID
  5
1FB5
330
1F9D
100
AcDbEntity
  8
D
 62
     0
100
AcDbTrace
 10
221.8547956111105
 20
-2.202543981761986
 30
0.0
 11
221.8547956111105
 21
-2.218543981761986
 31
0.0
 12
221.9027956111105
 22
-2.210543981761986
 32
0.0
 13
221.9027956111105
 23
-2.210543981761986
 33
0.0
  0
SOLID
  5
1FB6
330
1F9D
100
AcDbEntity
  8
D
 62
     0
100
AcDbTrace
 10
217.1117956006614
 20
-2.202543981761986
 30
0.0
 11
217.1117956006614
 21
-2.218543981761986
 31
0.0
 12
217.0637956006614
 22
-2.210543981761986
 32
0.0
 13
217.0637956006614
 23
-2.210543981761986
 33
0.0
  0
MTEXT
  5
1FB7
330
1F9D
100
AcDbEntity
  8
D
 62
     0
100
AcDbMText
 10
219.4832956058859
 20
-2.210543981761986
 30
0.0
 40
0.04
 41
0.0
 46
0.0
 71
     5
 72
     1
  1
\A1;4.839\PREF
 73
     1
 44
1.0
  0
POINT
  5
1FB8
330
1F9D
100
AcDbEntity
  8
Defpoints
 62
     0
100
AcDbPoint
 10
221.9027956111105
 20
-1.519665411011393
 30
0.0
  0
POINT
  5
1FB9
330
1F9D
100
AcDbEntity
  8
Defpoints
 62
     0
100
AcDbPoint
 10
217.0637956006614
 20
-1.460165411011393
 30
0.0
  0
POINT
  5
1FBA
330
1F9D
100
AcDbEntity
  8
Defpoints
 62
     0
100
AcDbPoint
 10
217.0637956006614
 20
-2.210543981761986
 30
0.0
  0
ENDBLK
  5
1FA9
330
1F9D
100
AcDbEntity
  8
0
100
AcDbBlockEnd
  0
BLOCK
  5
233D
330
232A
100
AcDbEntity
  8
0
100
AcDbBlockBegin
  2
A$C23745F77
 70
     0
 10
0.0
 20
0.0
 30
0.0
  3
A$C23745F77
  1

  0
ARC
  5
232B
330
232A
100
AcDbEntity
  8
0
100
AcDbCircle
 10
-214.1976013841109
 20
0.8878500678735932
 30
0.0
 40
0.8141031250000029
100
AcDbArc
 50
51.40869651708102
 51
87.47921304375257
  0
ARC
  5
232C
330
232A
100
AcDbEntity
  8
0
100
AcDbCircle
 10
-216.9432956307165
 20
1.580665410258472
 30
0.0
 40
0.1204999999999998
100
AcDbArc
 50
90.0
 51
180.0
  0
LINE
  5
232D
330
232A
100
AcDbEntity
  8
0
100
AcDbLine
 10
-213.9127513299174
 20
1.413165410258471
 30
0.0
 11
-212.2618212612933
 21
1.413165410258471
 31
0.0
  0
LINE
  5
232E
330
232A
100
AcDbEntity
  8
0
100
AcDbLine
 10
-216.9432956307165
 20
1.390165410258472
 30
0.0
 11
-214.0127956307165
 21
1.390165410258472
 31
0.0
  0
ARC
  5
232F
330
232A
100
AcDbEntity
  8
0
100
AcDbCircle
 10
-216.9432956307165
 20
1.510665410258472
 30
0.0
 40
0.1204999999999998
100
AcDbArc
 50
179.999999999999
 51
270.0
  0
LINE
  5
2330
330
232A
100
AcDbEntity
  8
0
100
AcDbLine
 10
-217.0637956307165
 20
1.510665410258473
 30
0.0
 11
-217.0637956307165
 21
1.580665410258472
 31
0.0
  0
ARC
  5
2331
330
232A
100
AcDbEntity
  8
0
100
AcDbCircle
 10
-214.0058835596974
 20
1.589183573258587
 30
0.0
 40
0.1991381578947491
100
AcDbArc
 50
268.0108681009747
 51
297.8835762701238
  0
LINE
  5
2332
330
232A
100
AcDbEntity
  8
0
100
AcDbLine
 10
-213.0047956202675
 20
1.550165410258468
 30
0.0
 11
-213.1637958118103
 21
1.492796999287039
 31
0.0
  0
ARC
  5
2333
330
232A
100
AcDbEntity
  8
0
100
AcDbCircle
 10
-212.2628084407803
 20
1.451165410258473
 30
0.0
 40
0.0380128205128188
100
AcDbArc
 50
268.5118815942345
 51
91.48811840576554
  0
ARC
  5
2334
330
232A
100
AcDbEntity
  8
0
100
AcDbCircle
 10
-212.2032374746975
 20
1.651286784270002
 30
0.0
 40
0.1730625000000282
100
AcDbArc
 50
214.5392553586446
 51
249.5175371192572
  0
ARC
  5
2335
330
232A
100
AcDbEntity
  8
0
100
AcDbCircle
 10
-212.380269759569
 20
1.640794713750667
 30
0.0
 40
0.0941666666666642
100
AcDbArc
 50
225.9050221365588
 51
291.4751129153996
  0
ARC
  5
2336
330
232A
100
AcDbEntity
  8
0
100
AcDbCircle
 10
-212.527541310354
 20
1.611727912663964
 30
0.0
 40
0.0903848684210626
100
AcDbArc
 50
225.5863961881559
 51
334.7449935709349
  0
ARC
  5
2337
330
232A
100
AcDbEntity
  8
0
100
AcDbCircle
 10
-212.6737956202675
 20
1.596952644301024
 30
0.0
 40
0.0967872340425516
100
AcDbArc
 50
210.9572763308363
 51
329.0427236691633
  0
ARC
  5
2338
330
232A
100
AcDbEntity
  8
0
100
AcDbCircle
 10
-212.8111451959631
 20
1.616077084499529
 30
0.0
 40
0.0877650000000027
100
AcDbArc
 50
219.5730263356108
 51
308.2623002778291
  0
ARC
  5
2339
330
232A
100
AcDbEntity
  8
0
100
AcDbCircle
 10
-212.9471264766287
 20
1.622334200410262
 30
0.0
 40
0.0923800000000008
100
AcDbArc
 50
231.372102148209
 51
317.7034428676074
  0
LINE
  5
233A
330
232A
100
AcDbEntity
  8
0
100
AcDbLine
 10
-213.6457956202675
 20
1.518165410258472
 30
0.0
 11
-213.6897956307165
 21
1.524165410258472
 31
0.0
  0
LINE
  5
233B
330
232A
100
AcDbEntity
  8
0
100
AcDbLine
 10
-213.1637958118103
 20
1.492796999287039
 30
0.0
 11
-213.6457956202675
 21
1.518165410258472
 31
0.0
  0
LINE
  5
233C
330
232A
100
AcDbEntity
  8
0
100
AcDbLine
 10
-216.9432956307165
 20
1.701165410258472
 30
0.0
 11
-214.1617956307165
 21
1.701165410258472
 31
0.0
  0
ENDBLK
  5
233E
330
232A
100
AcDbEntity
  8
0
100
AcDbBlockEnd
  0
BLOCK
  5
2364
330
235C
100
AcDbEntity
  8
0
100
AcDbBlockBegin
  2
*D43
 70
     1
 10
0.0
 20
0.0
 30
0.0
  3
*D43
  1

  0
LINE
  5
235D
330
235C
100
AcDbEntity
  8
D
 62
     0
370
    -2
100
AcDbLine
 10
220.9237954195677
 20
-1.478033821982828
 30
0.0
 11
220.8677954195677
 21
-1.478033821982828
 31
0.0
  0
LINE
  5
235E
330
235C
100
AcDbEntity
  8
D
 62
     0
370
    -2
100
AcDbLine
 10
220.8677954195677
 20
-1.478033821982828
 30
0.0
 11
220.8114636495932
 21
-1.272353782041022
 31
0.0
  0
LINE
  5
235F
330
235C
100
AcDbEntity
  8
D
 62
     0
370
    -2
100
AcDbLine
 10
220.8114636495932
 20
-1.272353782041022
 30
0.0
 11
220.7154636495932
 21
-1.272353782041022
 31
0.0
  0
MTEXT
  5
2360
330
235C
100
AcDbEntity
  8
D
 62
     0
100
AcDbMText
 10
220.6061303162599
 20
-1.272353782041022
 30
0.0
 40
0.04
 41
0.0
 46
0.0
 71
     5
 72
     1
  1
\A1;0.088
 73
     1
 44
1.0
  0
POINT
  5
2361
330
235C
100
AcDbEntity
  8
Defpoints
 62
     0
100
AcDbPoint
 10
220.9637954195677
 20
-1.478033821982828
 30
0.0
  0
POINT
  5
2362
330
235C
100
AcDbEntity
  8
Defpoints
 62
     0
100
AcDbPoint
 10
220.7154636495932
 20
-1.272353782041022
 30
0.0
  0
POINT
  5
2363
330
235C
100
AcDbEntity
  8
Defpoints
 62
     0
100
AcDbPoint
 10
217.0637956006614
 20
-1.390165411011395
 30
0.0
  0
ENDBLK
  5
2365
330
235C
100
AcDbEntity
  8
0
100
AcDbBlockEnd
  0
BLOCK
  5
2374
330
236E
100
AcDbEntity
  8
0
100
AcDbBlockBegin
  2
*D44
 70
     1
 10
0.0
 20
0.0
 30
0.0
  3
*D44
  1

  0
LINE
  5
236F
330
236E
100
AcDbEntity
  8
D
 62
     0
370
    -2
100
AcDbLine
 10
220.9637954195677
 20
-1.518033821982828
 30
0.0
 11
220.9637954195677
 21
-1.796176321345058
 31
0.0
  0
MTEXT
  5
2370
330
236E
100
AcDbEntity
  8
D
 62
     0
100
AcDbMText
 10
220.9637954195677
 20
-1.905509654678355
 30
0.0
 40
0.04
 41
0.0
 46
0.0
 71
     5
 72
     1
  1
\A1;3.900
 11
0.0000000000000001
 21
1.0
 31
0.0
 73
     1
 44
1.0
  0
POINT
  5
2371
330
236E
100
AcDbEntity
  8
Defpoints
 62
     0
100
AcDbPoint
 10
220.9637954195677
 20
-1.478033821982828
 30
0.0
  0
POINT
  5
2372
330
236E
100
AcDbEntity
  8
Defpoints
 62
     0
100
AcDbPoint
 10
220.9637954195677
 20
-1.796176321345058
 30
0.0
  0
POINT
  5
2373
330
236E
100
AcDbEntity
  8
Defpoints
 62
     0
100
AcDbPoint
 10
217.0637956006614
 20
-1.390165411011395
 30
0.0
  0
ENDBLK
  5
2375
330
236E
100
AcDbEntity
  8
0
100
AcDbBlockEnd
  0
ENDSEC
  0
SECTION
  2
ENTITIES
  0
TEXT
  5
45
330
18
100
AcDbEntity
  8
T
100
AcDbText
 10
15.48616755326692
 20
1.693507973140668
 30
0.0
 40
0.12
  1
 
100
AcDbText
  0
TEXT
  5
69
330
18
100
AcDbEntity
  8
D
100
AcDbText
 10
5.604806811939204
 20
5.027631219471905
 30
0.0
 40
0.1
  1

100
AcDbText
  0
LINE
  5
F5C
330
18
100
AcDbEntity
  8
Title Block
100
AcDbLine
 10
222.8671132055122
 20
0.6807462179658899
 30
0.0
 11
222.8671132055122
 21
-4.19425378203411
 31
0.0
  0
LINE
  5
F5D
330
18
100
AcDbEntity
  8
Title Block
100
AcDbLine
 10
215.1171132055122
 20
-4.19425378203411
 30
0.0
 11
215.1171132055122
 21
0.6807462179658899
 31
0.0
  0
LINE
  5
F5E
330
18
100
AcDbEntity
  8
Title Block
100
AcDbLine
 10
222.8671132055122
 20
-4.19425378203411
 30
0.0
 11
215.1171132055122
 21
-4.19425378203411
 31
0.0
  0
MTEXT
  5
F60
330
18
100
AcDbEntity
  8
TITLE BLOCK TEXT
100
AcDbMText
 10
220.3446099066594
 20
-4.035675370464758
 30
0.0
 40
0.036
 41
0.0
 46
0.0
 71
     4
 72
     1
  1
TOLERANCES:\PX.XXX +/- 0.005"\PFRACTIONS +/- 1/64"\PANGLES +/- 1/2
  7
Roman
 73
     1
 44
1.0
  0
LINE
  5
F61
330
18
100
AcDbEntity
  8
Title Block
100
AcDbLine
 10
220.2832050155143
 20
-3.859688787552666
 30
0.0
 11
221.9689509740086
 21
-3.859688787552283
 31
0.0
  0
LINE
  5
F62
330
18
100
AcDbEntity
  8
Title Block
100
AcDbLine
 10
220.2808159956285
 20
-3.594253782034109
 30
0.0
 11
222.867113205512
 21
-3.594253782034109
 31
0.0
  0
LINE
  5
F63
330
18
100
AcDbEntity
  8
Title Block
100
AcDbLine
 10
220.2808159956286
 20
-4.19425378203411
 30
0.0
 11
220.2808159956286
 21
-3.379762381082252
 31
0.0
  0
TEXT
  5
F65
330
18
100
AcDbEntity
  8
TITLE BLOCK TEXT
100
AcDbText
 10
221.8279701110593
 20
-4.145839862090286
 30
0.0
 40
0.067392
  1
ISON-1016-01-09
  7
Roman
100
AcDbText
  0
LINE
  5
F67
330
18
100
AcDbEntity
  8
Title Block
100
AcDbLine
 10
221.1129344065043
 20
-3.966253782034112
 30
0.0
 11
222.867113205512
 21
-3.966253782034112
 31
0.0
  0
LINE
  5
F68
330
18
100
AcDbEntity
  8
Title Block
100
AcDbLine
 10
221.9689509740085
 20
-3.966253782034112
 30
0.0
 11
221.9689509740086
 21
-3.594253782034178
 31
0.0
  0
LINE
  5
F69
330
18
100
AcDbEntity
  8
Title Block
100
AcDbLine
 10
221.1129344065044
 20
-4.19425378203411
 30
0.0
 11
221.1129344065042
 21
-3.379762381082252
 31
0.0
  0
LINE
  5
F6A
330
18
100
AcDbEntity
  8
Title Block
100
AcDbLine
 10
221.7583542112901
 20
-4.19425378203411
 30
0.0
 11
221.7583542112901
 21
-3.966253782034112
 31
0.0
  0
LINE
  5
F6B
330
18
100
AcDbEntity
  8
Title Block
100
AcDbLine
 10
221.5589703949634
 20
-4.19425378203411
 30
0.0
 11
221.5589703949634
 21
-3.966253782034112
 31
0.0
  0
TEXT
  5
F6C
330
18
100
AcDbEntity
  8
TITLE BLOCK TEXT
100
AcDbText
 10
221.3761493243485
 20
-4.145839862090286
 30
0.0
 40
0.048
  1
2:1
  7
Roman
100
AcDbText
  0
MTEXT
  5
F6D
330
18
100
AcDbEntity
  8
TITLE BLOCK TEXT
100
AcDbMText
 10
221.6084994779424
 20
-4.014697940828336
 30
0.0
 40
0.036
 41
0.0
 46
0.0
 71
     4
 72
     1
  1
REV.
  7
Roman
 73
     1
 44
1.0
  0
LINE
  5
F6E
330
18
100
AcDbEntity
  8
Title Block
100
AcDbLine
 10
221.3188540139814
 20
-4.19425378203411
 30
0.0
 11
221.3188540139814
 21
-3.966253782034112
 31
0.0
  0
TEXT
  5
F6F
330
18
100
AcDbEntity
  8
TITLE BLOCK TEXT
100
AcDbText
 10
221.1908273965526
 20
-4.145839862090286
 30
0.0
 40
0.048
  1
B
  7
Roman
100
AcDbText
  0
MTEXT
  5
F70
330
18
100
AcDbEntity
  8
TITLE BLOCK TEXT
100
AcDbMText
 10
221.1579325797837
 20
-4.014697940828336
 30
0.0
 40
0.036
 41
0.0
 46
0.0
 71
     4
 72
     1
  1
SIZE
  7
Roman
 73
     1
 44
1.0
  0
MTEXT
  5
F71
330
18
100
AcDbEntity
  8
TITLE BLOCK TEXT
100
AcDbMText
 10
221.1463230824977
 20
-3.725798926643472
 30
0.0
 40
0.048
 41
0.0
 46
0.0
 71
     4
 72
     1
  1
OPEN\PLOCK PICK SET\PPICK BLADE
  7
Roman
 73
     1
 44
1.0
  0
MTEXT
  5
F72
330
18
100
AcDbEntity
  8
TITLE BLOCK TEXT
100
AcDbMText
 10
221.3491514798801
 20
-4.014697940828336
 30
0.0
 40
0.036
 41
0.0
 46
0.0
 71
     4
 72
     1
  1
SCALE
  7
Roman
 73
     1
 44
1.0
  0
TEXT
  5
F73
330
18
100
AcDbEntity
  8
TITLE BLOCK TEXT
100
AcDbText
 10
221.8354072920479
 20
-4.034713782034117
 30
0.0
 40
0.039
  1
DWG NO.
  7
Roman
100
AcDbText
  0
LINE
  5
F74
330
18
100
AcDbEntity
  8
Title Block
100
AcDbLine
 10
215.1171132055122
 20
0.6807462179658899
 30
0.0
 11
222.8671132055122
 21
0.6807462179658899
 31
0.0
  0
TEXT
  5
F75
330
18
100
AcDbEntity
  8
TITLE BLOCK TEXT
100
AcDbText
 10
220.6963132055122
 20
0.5849262179658635
 30
0.0
 40
0.039
  1
DESCRIPTION
  7
Roman
100
AcDbText
  0
LINE
  5
F76
330
18
100
AcDbEntity
  8
Title Block
100
AcDbLine
 10
219.8671132055122
 20
0.5307462179658895
 30
0.0
 11
222.8671132055122
 21
0.5307462179658895
 31
0.0
  0
LINE
  5
F77
330
18
100
AcDbEntity
  8
Title Block
100
AcDbLine
 10
219.8671132055122
 20
0.6807462179658899
 30
0.0
 11
222.8671132055122
 21
0.6807462179658899
 31
0.0
  0
TEXT
  5
F78
330
18
100
AcDbEntity
  8
TITLE BLOCK TEXT
100
AcDbText
 10
219.9151732055121
 20
0.5849262179658635
 30
0.0
 40
0.039
  1
REV
  7
Roman
100
AcDbText
  0
LINE
  5
F79
330
18
100
AcDbEntity
  8
Title Block
100
AcDbLine
 10
219.8671132055121
 20
0.3807462179658891
 30
0.0
 11
219.8671132055122
 21
0.6807462179658899
 31
0.0
  0
LINE
  5
F7A
330
18
100
AcDbEntity
  8
Title Block
100
AcDbLine
 10
220.0951132055123
 20
0.3807462179658891
 30
0.0
 11
220.0951132055123
 21
0.6807462179658899
 31
0.0
  0
TEXT
  5
F7B
330
18
100
AcDbEntity
  8
TITLE BLOCK TEXT
100
AcDbText
 10
222.4119532055121
 20
0.5849262179658635
 30
0.0
 40
0.039
  1
APPROVED
  7
Roman
100
AcDbText
  0
LINE
  5
F7C
330
18
100
AcDbEntity
  8
Title Block
100
AcDbLine
 10
221.7391132055121
 20
0.3807462179658891
 30
0.0
 11
221.7391132055121
 21
0.6807462179658899
 31
0.0
  0
LINE
  5
F7D
330
18
100
AcDbEntity
  8
Title Block
100
AcDbLine
 10
222.2671132055122
 20
0.3807462179658891
 30
0.0
 11
222.2671132055122
 21
0.6807462179658899
 31
0.0
  0
TEXT
  5
F7E
330
18
100
AcDbEntity
  8
TITLE BLOCK TEXT
100
AcDbText
 10
221.9357332055122
 20
0.5849262179658635
 30
0.0
 40
0.039
  1
DATE
  7
Roman
100
AcDbText
  0
LINE
  5
119C
330
18
100
AcDbEntity
  8
PICK
100
AcDbLine
 10
215.9464550908254
 20
-1.580665411011395
 30
0.0
 11
215.9464550908254
 21
-1.269665411011402
 31
0.0
  0
LINE
  5
119D
330
18
100
AcDbEntity
  8
PICK
100
AcDbLine
 10
215.9664550908254
 20
-1.580665411011395
 30
0.0
 11
215.9664550908254
 21
-1.269665411011402
 31
0.0
  0
LINE
  5
119F
330
18
100
AcDbEntity
  8
PICK
100
AcDbLine
 10
215.9664550908254
 20
-1.269665411011402
 30
0.0
 11
215.9464550908254
 21
-1.269665411011402
 31
0.0
  0
LINE
  5
11A0
330
18
100
AcDbEntity
  8
PICK
100
AcDbLine
 10
215.9464550908254
 20
-1.269665411011402
 30
0.0
 11
215.9664550908254
 21
-1.269665411011402
 31
0.0
  0
LINE
  5
11A1
330
18
100
AcDbEntity
  8
PICK
100
AcDbLine
 10
215.9464550908254
 20
-1.580665411011395
 30
0.0
 11
215.9664550908254
 21
-1.580665411011395
 31
0.0
  0
DIMENSION
  5
11A2
330
18
100
AcDbEntity
  8
D
100
AcDbDimension
280
     0
  2
*D0
 10
215.9464550908254
 20
-1.073153340859391
 30
0.0
 11
215.6644550908254
 21
-1.073153340859391
 31
0.0
 70
    32
  1
<> REF
 71
     5
 42
0.0199999999999818
 73
     0
 74
     0
 75
     0
  3
TPS3
100
AcDbAlignedDimension
 13
215.9664550908254
 23
-1.269665411011402
 33
0.0
 14
215.9464550908254
 24
-1.269665411011402
 34
0.0
100
AcDbRotatedDimension
  0
LINE
  5
123E
330
18
100
AcDbEntity
  8
Title Block
100
AcDbLine
 10
218.3670431001213
 20
-3.194056640204962
 30
0.0
 11
215.1171132055122
 21
-3.194056640204962
 31
0.0
  0
MTEXT
  5
1240
330
18
100
AcDbEntity
  8
D
100
AcDbMText
 10
216.6536727265738
 20
-3.963035119641034
 30
0.0
 40
0.04
 41
0.0
 46
0.0
 71
     5
 72
     1
  1
*****THIS VIEW IS 1:1 ONLY WHEN PRINTED \PON 11X17 PAPER.*****
 73
     1
 44
1.0
  0
LINE
  5
1241
330
18
100
AcDbEntity
  8
Title Block
100
AcDbLine
 10
218.3670431001213
 20
-4.19425378203411
 30
0.0
 11
218.3670431001213
 21
-3.194056640204962
 31
0.0
  0
LINE
  5
12AA
330
18
100
AcDbEntity
  8
Title Block
100
AcDbLine
 10
220.2808159956285
 20
-3.379762381082252
 30
0.0
 11
221.1129344065042
 21
-3.379762381082251
 31
0.0
  0
MTEXT
  5
137A
330
18
100
AcDbEntity
  8
D
100
AcDbMText
 10
216.6536727265738
 20
-3.39668549162647
 30
0.0
 40
0.04
 41
0.0
 46
0.0
 71
     5
 72
     1
  1
*****THIS VIEW IS 1:1 ONLY WHEN PRINTED \PON 11X17 PAPER.*****
 73
     1
 44
1.0
  0
MTEXT
  5
17D9
330
18
100
AcDbEntity
  8
TITLE BLOCK TEXT
100
AcDbMText
 10
221.1561052303493
 20
-3.91012371801049
 30
0.0
 40
0.048
 41
0.0
 46
0.0
 71
     4
 72
     1
  1
DATE: 5-18-2011
  7
Roman
 73
     1
 44
1.0
  0
LINE
  5
1D41
330
18
100
AcDbEntity
  8
PICK
100
AcDbLine
 10
217.1842956006615
 20
-1.580665411011395
 30
0.0
 11
220.1147956006615
 21
-1.580665411011395
 31
0.0
  0
LINE
  5
1D42
330
18
100
AcDbEntity
  8
PICK
100
AcDbLine
 10
217.1842956006615
 20
-1.269665411011395
 30
0.0
 11
219.9657956006615
 21
-1.269665411011395
 31
0.0
  0
LINE
  5
1D43
330
18
100
AcDbEntity
  8
PICK
100
AcDbLine
 10
217.0637956006614
 20
-1.460165411011393
 30
0.0
 11
217.0637956006614
 21
-1.390165411011395
 31
0.0
  0
ARC
  5
1D44
330
18
100
AcDbEntity
  8
PICK
100
AcDbCircle
 10
219.9299898472671
 20
-2.082980753396274
 30
0.0
 40
0.8141031250000029
100
AcDbArc
 50
51.40869651708104
 51
87.47921304375259
  0
ARC
  5
1D46
330
18
100
AcDbEntity
  8
PICK
100
AcDbCircle
 10
220.1217076716806
 20
-1.38164724801128
 30
0.0
 40
0.1991381578947491
100
AcDbArc
 50
268.0108681009747
 51
297.8835762701237
  0
ARC
  5
1D47
330
18
100
AcDbEntity
  8
PICK
100
AcDbCircle
 10
217.1842956006615
 20
-1.390165411011395
 30
0.0
 40
0.1204999999999998
100
AcDbArc
 50
90.0
 51
180.0
  0
ARC
  5
1D48
330
18
100
AcDbEntity
  8
PICK
100
AcDbCircle
 10
217.1842956006615
 20
-1.460165411011395
 30
0.0
 40
0.1204999999999998
100
AcDbArc
 50
179.999999999999
 51
270.0
  0
LINE
  5
1D49
330
18
100
AcDbEntity
  8
PICK
100
AcDbLine
 10
220.2148399014606
 20
-1.557665411011395
 30
0.0
 11
221.8657699700847
 21
-1.557665411011395
 31
0.0
  0
LINE
  5
1D4A
330
18
100
AcDbEntity
  8
PICK
100
AcDbLine
 10
220.4817956111105
 20
-1.452665411011395
 30
0.0
 11
220.4377956006614
 21
-1.446665411011395
 31
0.0
  0
LINE
  5
1D4B
330
18
100
AcDbEntity
  8
PICK
100
AcDbLine
 10
220.9637954195677
 20
-1.478033821982829
 30
0.0
 11
220.4817956111105
 21
-1.452665411011395
 31
0.0
  0
ARC
  5
1D4D
330
18
100
AcDbEntity
  8
PICK
100
AcDbCircle
 10
221.1804647547492
 20
-1.348496620859604
 30
0.0
 40
0.0923800000000008
100
AcDbArc
 50
231.3721021482092
 51
317.703442867607
  0
ARC
  5
1D4E
330
18
100
AcDbEntity
  8
PICK
100
AcDbCircle
 10
221.3164460354148
 20
-1.354753736770337
 30
0.0
 40
0.0877650000000027
100
AcDbArc
 50
219.5730263356093
 51
308.2623002778291
  0
ARC
  5
1D4F
330
18
100
AcDbEntity
  8
PICK
100
AcDbCircle
 10
221.4537956111105
 20
-1.373878176968842
 30
0.0
 40
0.0967872340425516
100
AcDbArc
 50
210.9572763308361
 51
329.0427236691631
  0
ARC
  5
1D50
330
18
100
AcDbEntity
  8
PICK
100
AcDbCircle
 10
221.600049921024
 20
-1.359102908605903
 30
0.0
 40
0.0903848684210626
100
AcDbArc
 50
225.5863961881555
 51
334.7449935709347
  0
ARC
  5
1D51
330
18
100
AcDbEntity
  8
PICK
100
AcDbCircle
 10
221.7473214718089
 20
-1.3300361075192
 30
0.0
 40
0.0941666666666642
100
AcDbArc
 50
225.9050221365592
 51
291.4751129153996
  0
ARC
  5
1D52
330
18
100
AcDbEntity
  8
PICK
100
AcDbCircle
 10
221.9243537566804
 20
-1.319544036999864
 30
0.0
 40
0.1730625000000282
100
AcDbArc
 50
214.5392553586447
 51
249.5175371192572
  0
ARC
  5
1D53
330
18
100
AcDbEntity
  8
PICK
100
AcDbCircle
 10
221.8647827905976
 20
-1.519665411011393
 30
0.0
 40
0.0380128205128188
100
AcDbArc
 50
268.5118815942345
 51
91.48811840576554
  0
POINT
  5
1D67
330
18
100
AcDbEntity
  8
D
100
AcDbPoint
 10
217.0637956006614
 20
-1.390165411011395
 30
0.0
  0
POINT
  5
1D68
330
18
100
AcDbEntity
  8
D
100
AcDbPoint
 10
217.1842956006615
 20
-1.269665411011395
 30
0.0
  0
POINT
  5
1D69
330
18
100
AcDbEntity
  8
D
100
AcDbPoint
 10
219.9657956006614
 20
-1.269665411011393
 30
0.0
  0
POINT
  5
1D6A
330
18
100
AcDbEntity
  8
D
100
AcDbPoint
 10
220.4377956006614
 20
-1.446665411011395
 30
0.0
  0
POINT
  5
1D6C
330
18
100
AcDbEntity
  8
D
100
AcDbPoint
 10
221.1227956111105
 20
-1.420665411011398
 30
0.0
  0
POINT
  5
1D6D
330
18
100
AcDbEntity
  8
D
100
AcDbPoint
 10
221.1227956111105
 20
-1.420665411011398
 30
0.0
  0
POINT
  5
1D6E
330
18
100
AcDbEntity
  8
D
100
AcDbPoint
 10
221.1227956111105
 20
-1.420665411011398
 30
0.0
  0
POINT
  5
1D6F
330
18
100
AcDbEntity
  8
D
100
AcDbPoint
 10
221.2487956111105
 20
-1.410665411011394
 30
0.0
  0
POINT
  5
1D70
330
18
100
AcDbEntity
  8
D
100
AcDbPoint
 10
221.3707956111105
 20
-1.423665411011393
 30
0.0
  0
POINT
  5
1D71
330
18
100
AcDbEntity
  8
D
100
AcDbPoint
 10
221.5367956111105
 20
-1.423665411011402
 30
0.0
  0
POINT
  5
1D72
330
18
100
AcDbEntity
  8
D
100
AcDbPoint
 10
221.6817956111105
 20
-1.397665411011394
 30
0.0
  0
POINT
  5
1D73
330
18
100
AcDbEntity
  8
D
100
AcDbPoint
 10
221.7817956111105
 20
-1.417665411011395
 30
0.0
  0
POINT
  5
1D74
330
18
100
AcDbEntity
  8
D
100
AcDbPoint
 10
221.8637956111105
 20
-1.481665411011394
 30
0.0
  0
POINT
  5
1D75
330
18
100
AcDbEntity
  8
D
100
AcDbPoint
 10
221.8637956111105
 20
-1.557665411011392
 30
0.0
  0
POINT
  5
1D76
330
18
100
AcDbEntity
  8
D
100
AcDbPoint
 10
220.2148399014606
 20
-1.557665411011395
 30
0.0
  0
POINT
  5
1D77
330
18
100
AcDbEntity
  8
D
100
AcDbPoint
 10
220.1147956006614
 20
-1.580665411011393
 30
0.0
  0
POINT
  5
1D78
330
18
100
AcDbEntity
  8
D
100
AcDbPoint
 10
217.1842956006615
 20
-1.580665411011395
 30
0.0
  0
POINT
  5
1D79
330
18
100
AcDbEntity
  8
D
100
AcDbPoint
 10
217.0637956006614
 20
-1.460165411011393
 30
0.0
  0
DIMENSION
  5
1D7A
330
18
100
AcDbEntity
  8
D
100
AcDbDimension
280
     0
  2
*D1
 10
217.0637956006614
 20
-1.390165411011395
 30
0.0
 11
217.0637956006614
 21
-1.07372913004942
 31
0.0
 70
   102
 71
     5
 42
0.0
 73
     0
 74
     0
 75
     0
  3
TPS3
100
AcDbOrdinateDimension
 13
217.0637956006614
 23
-1.390165411011395
 33
0.0
 14
217.0637956006614
 24
-1.176395796716121
 34
0.0
  0
DIMENSION
  5
1D83
330
18
100
AcDbEntity
  8
D
100
AcDbDimension
280
     0
  2
*D2
 10
217.0637956006614
 20
-1.390165411011395
 30
0.0
 11
216.7451221144759
 21
-1.390165411011395
 31
0.0
 70
    38
 71
     5
 42
0.0
 73
     0
 74
     0
 75
     0
  3
TPS3
100
AcDbOrdinateDimension
 13
217.0637956006614
 23
-1.390165411011395
 33
0.0
 14
216.8477887811425
 24
-1.390165411011395
 34
0.0
  0
DIMENSION
  5
1D8C
330
18
100
AcDbEntity
  8
D
100
AcDbDimension
280
     0
  2
*D3
 10
217.0637956006614
 20
-1.390165411011395
 30
0.0
 11
217.1842956006615
 21
-1.009349853184312
 31
0.0
 70
   102
 71
     5
 42
0.1204999999999927
 73
     0
 74
     0
 75
     0
  3
TPS3
100
AcDbOrdinateDimension
 13
217.1842956006615
 23
-1.269665411011395
 33
0.0
 14
217.1842956006615
 24
-1.10868318651768
 34
0.0
  0
DIMENSION
  5
1D95
330
18
100
AcDbEntity
  8
D
100
AcDbDimension
280
     0
  2
*D4
 10
217.0637956006614
 20
-1.390165411011395
 30
0.0
 11
216.7345277149559
 21
-1.460165411011393
 31
0.0
 70
    38
 71
     5
 42
0.0699999999999981
 73
     0
 74
     0
 75
     0
  3
TPS3
100
AcDbOrdinateDimension
 13
217.0637956006614
 23
-1.460165411011393
 33
0.0
 14
216.8405277149559
 24
-1.460165411011393
 34
0.0
  0
DIMENSION
  5
1D9E
330
18
100
AcDbEntity
  8
D
100
AcDbDimension
280
     0
  2
*D5
 10
217.0637956006614
 20
-1.390165411011395
 30
0.0
 11
217.1842956006615
 21
-1.846451492046206
 31
0.0
 70
   102
 71
     5
 42
0.1204999999999927
 73
     0
 74
     0
 75
     0
  3
TPS3
100
AcDbOrdinateDimension
 13
217.1842956006615
 23
-1.580665411011395
 33
0.0
 14
217.1842956006615
 24
-1.747118158712908
 34
0.0
  0
DIMENSION
  5
1DA7
330
18
100
AcDbEntity
  8
D
100
AcDbDimension
280
     0
  2
*D6
 10
217.0637956006614
 20
-1.390165411011395
 30
0.0
 11
216.8864146319466
 21
-1.580665411011395
 31
0.0
 70
    38
 71
     5
 42
0.1905000000000001
 73
     0
 74
     0
 75
     0
  3
TPS3
100
AcDbOrdinateDimension
 13
217.1842956006615
 23
-1.580665411011395
 33
0.0
 14
216.98574796528
 24
-1.580665411011395
 34
0.0
  0
DIMENSION
  5
1DB0
330
18
100
AcDbEntity
  8
D
100
AcDbDimension
280
     0
  2
*D7
 10
217.0637956006614
 20
-1.390165411011395
 30
0.0
 11
216.8718930362774
 21
-1.269665411011395
 31
0.0
 70
    38
 71
     5
 42
0.1204999999999998
 73
     0
 74
     0
 75
     0
  3
TPS3
100
AcDbOrdinateDimension
 13
217.1842956006615
 23
-1.269665411011395
 33
0.0
 14
216.9712263696107
 24
-1.269665411011395
 34
0.0
  0
DIMENSION
  5
1DB9
330
18
100
AcDbEntity
  8
D
100
AcDbDimension
280
     0
  2
*D8
 10
217.0637956006614
 20
-1.390165411011395
 30
0.0
 11
219.9657956006614
 21
-0.9721640997892777
 31
0.0
 70
   102
 71
     5
 42
2.901999999999986
 73
     0
 74
     0
 75
     0
  3
TPS3
100
AcDbOrdinateDimension
 13
219.9657956006614
 23
-1.269665411011393
 33
0.0
 14
219.9657956006614
 24
-1.084830766455979
 34
0.0
  0
DIMENSION
  5
1DC2
330
18
100
AcDbEntity
  8
D
100
AcDbDimension
280
     0
  2
*D9
 10
217.0637956006614
 20
-1.390165411011395
 30
0.0
 11
220.4377956006614
 21
-1.046621327411408
 31
0.0
 70
   102
 71
     5
 42
3.373999999999995
 73
     0
 74
     0
 75
     0
  3
TPS3
100
AcDbOrdinateDimension
 13
220.4377956006614
 23
-1.446665411011395
 33
0.0
 14
220.4377956006614
 24
-1.162621327411443
 34
0.0
  0
DIMENSION
  5
1DD4
330
18
100
AcDbEntity
  8
D
100
AcDbDimension
280
     0
  2
*D10
 10
217.0637956006614
 20
-1.390165411011395
 30
0.0
 11
221.1227956111105
 21
-0.8987287535262664
 31
0.0
 70
   102
 71
     5
 42
4.059000010449011
 73
     0
 74
     0
 75
     0
  3
TPS3
100
AcDbOrdinateDimension
 13
221.1227956111105
 23
-1.420665411011398
 33
0.0
 14
221.1227956111105
 24
-1.011395420192968
 34
0.0
  0
DIMENSION
  5
1DDD
330
18
100
AcDbEntity
  8
D
100
AcDbDimension
280
     0
  2
*D11
 10
217.0637956006614
 20
-1.390165411011395
 30
0.0
 11
221.2487956111105
 21
-0.8826142586367055
 31
0.0
 70
   102
 71
     5
 42
4.185000010449016
 73
     0
 74
     0
 75
     0
  3
TPS3
100
AcDbOrdinateDimension
 13
221.2487956111105
 23
-1.410665411011394
 33
0.0
 14
221.2487956111105
 24
-0.9919475919700744
 34
0.0
  0
DIMENSION
  5
1DE6
330
18
100
AcDbEntity
  8
D
100
AcDbDimension
280
     0
  2
*D12
 10
217.0637956006614
 20
-1.390165411011395
 30
0.0
 11
221.3707956111105
 21
-0.8753914097878332
 31
0.0
 70
   102
 71
     5
 42
4.30700001044903
 73
     0
 74
     0
 75
     0
  3
TPS3
100
AcDbOrdinateDimension
 13
221.3707956111105
 23
-1.423665411011393
 33
0.0
 14
221.3707956111105
 24
-0.9880580764545356
 34
0.0
  0
DIMENSION
  5
1DEF
330
18
100
AcDbEntity
  8
D
100
AcDbDimension
280
     0
  2
*D13
 10
217.0637956006614
 20
-1.390165411011395
 30
0.0
 11
221.5367956111105
 21
-0.8992849357084148
 31
0.0
 70
   102
 71
     5
 42
4.473000010449027
 73
     0
 74
     0
 75
     0
  3
TPS3
100
AcDbOrdinateDimension
 13
221.5367956111105
 23
-1.423665411011402
 33
0.0
 14
221.5367956111105
 24
-1.01528493570845
 34
0.0
  0
DIMENSION
  5
1DF8
330
18
100
AcDbEntity
  8
D
100
AcDbDimension
280
     0
  2
*D14
 10
217.0637956006614
 20
-1.390165411011395
 30
0.0
 11
221.6817956111105
 21
-0.8981725713441177
 31
0.0
 70
   102
 71
     5
 42
4.618000010449009
 73
     0
 74
     0
 75
     0
  3
TPS3
100
AcDbOrdinateDimension
 13
221.6817956111105
 23
-1.397665411011394
 33
0.0
 14
221.6817956111105
 24
-1.007505904677486
 34
0.0
  0
DIMENSION
  5
1E01
330
18
100
AcDbEntity
  8
D
100
AcDbDimension
280
     0
  2
*D15
 10
217.0637956006614
 20
-1.390165411011395
 30
0.0
 11
221.7817956111105
 21
-0.9720736167840426
 31
0.0
 70
   102
 71
     5
 42
4.718000010449003
 73
     0
 74
     0
 75
     0
  3
TPS3
100
AcDbOrdinateDimension
 13
221.7817956111105
 23
-1.417665411011395
 33
0.0
 14
221.7817956111105
 24
-1.081406950117411
 34
0.0
  0
DIMENSION
  5
1E0A
330
18
100
AcDbEntity
  8
D
100
AcDbDimension
280
     0
  2
*D16
 10
217.0637956006614
 20
-1.390165411011395
 30
0.0
 11
221.8637956111105
 21
-1.201181570533618
 31
0.0
 70
   102
 71
     5
 42
4.800000010449025
 73
     0
 74
     0
 75
     0
  3
TPS3
100
AcDbOrdinateDimension
 13
221.8637956111105
 23
-1.481665411011394
 33
0.0
 14
221.8637956111105
 24
-1.310514903866987
 34
0.0
  0
DIMENSION
  5
1E13
330
18
100
AcDbEntity
  8
D
100
AcDbDimension
280
     0
  2
*D17
 10
217.0637956006614
 20
-1.390165411011395
 30
0.0
 11
221.7749398395914
 21
-1.828732816731132
 31
0.0
 70
   230
 71
     5
 42
4.800000010449025
 73
     0
 74
     0
 75
     0
  3
TPS3
100
AcDbOrdinateDimension
 13
221.8637956111105
 23
-1.557665411011392
 33
0.0
 14
221.7749398395914
 24
-1.719399483397835
 34
0.0
  0
DIMENSION
  5
1E1C
330
18
100
AcDbEntity
  8
D
100
AcDbDimension
280
     0
  2
*D18
 10
217.0637956006614
 20
-1.390165411011395
 30
0.0
 11
220.2148399014606
 21
-1.887704217942622
 31
0.0
 70
   102
 71
     5
 42
3.1510443007991
 73
     0
 74
     0
 75
     0
  3
TPS3
100
AcDbOrdinateDimension
 13
220.2148399014606
 23
-1.557665411011395
 33
0.0
 14
220.2148399014606
 24
-1.785037551275991
 34
0.0
  0
DIMENSION
  5
1E25
330
18
100
AcDbEntity
  8
D
100
AcDbDimension
280
     0
  2
*D19
 10
217.0637956006614
 20
-1.390165411011395
 30
0.0
 11
220.1147956006614
 21
-1.898816582306976
 31
0.0
 70
   102
 71
     5
 42
3.050999999999959
 73
     0
 74
     0
 75
     0
  3
TPS3
100
AcDbOrdinateDimension
 13
220.1147956006614
 23
-1.580665411011393
 33
0.0
 14
220.1147956006614
 24
-1.792816582307011
 34
0.0
  0
DIMENSION
  5
1E2E
330
18
100
AcDbEntity
  8
D
100
AcDbDimension
280
     0
  2
*D20
 10
217.0637956006614
 20
-1.390165411011395
 30
0.0
 11
220.1169159242265
 21
-1.446665411011395
 31
0.0
 70
    38
 71
     5
 42
0.0565000000000007
 73
     0
 74
     0
 75
     0
  3
TPS3
100
AcDbOrdinateDimension
 13
220.4377956006614
 23
-1.446665411011395
 33
0.0
 14
220.2262492575599
 24
-1.446665411011395
 34
0.0
  0
DIMENSION
  5
1E42
330
18
100
AcDbEntity
  8
D
100
AcDbDimension
280
     0
  2
*D21
 10
217.0637956006614
 20
-1.390165411011395
 30
0.0
 11
220.7338737092532
 21
-1.104368486406031
 31
0.0
 70
    38
 71
     5
 42
0.0305000000000033
 73
     0
 74
     0
 75
     0
  3
TPS3
100
AcDbOrdinateDimension
 13
221.1227956111105
 23
-1.420665411011398
 33
0.0
 14
220.8365403759199
 24
-1.104368486406031
 34
0.0
  0
DIMENSION
  5
1EA9
330
18
100
AcDbEntity
  8
D
100
AcDbDimension
280
     0
  2
*D22
 10
217.0637956006614
 20
-1.390165411011395
 30
0.0
 11
220.8651369859388
 21
-1.033189842213403
 31
0.0
 70
    38
 71
     5
 42
0.0204999999999998
 73
     0
 74
     0
 75
     0
  3
TPS3
100
AcDbOrdinateDimension
 13
221.2487956111105
 23
-1.410665411011394
 33
0.0
 14
220.9678036526054
 24
-1.033189842213403
 34
0.0
  0
DIMENSION
  5
1EBB
330
18
100
AcDbEntity
  8
D
100
AcDbDimension
280
     0
  2
*D23
 10
217.0637956006614
 20
-1.390165411011395
 30
0.0
 11
221.104216426685
 21
-1.643024767529766
 31
0.0
 70
   166
 71
     5
 42
0.0334999999999988
 73
     0
 74
     0
 75
     0
  3
TPS3
100
AcDbOrdinateDimension
 13
221.3707956111105
 23
-1.423665411011393
 33
0.0
 14
221.2135497600183
 24
-1.643024767529766
 34
0.0
  0
DIMENSION
  5
1EC6
330
18
100
AcDbEntity
  8
D
100
AcDbDimension
280
     0
  2
*D24
 10
217.0637956006614
 20
-1.390165411011395
 30
0.0
 11
221.1926628716196
 21
-1.746497310025461
 31
0.0
 70
   166
 71
     5
 42
0.0335000000000072
 73
     0
 74
     0
 75
     0
  3
TPS3
100
AcDbOrdinateDimension
 13
221.5367956111105
 23
-1.423665411011402
 33
0.0
 14
221.3019962049529
 24
-1.746497310025461
 34
0.0
  0
DIMENSION
  5
1ED8
330
18
100
AcDbEntity
  8
D
100
AcDbDimension
280
     0
  2
*D25
 10
217.0637956006614
 20
-1.390165411011395
 30
0.0
 11
221.3272408215953
 21
-1.846687550230114
 31
0.0
 70
   166
 71
     5
 42
0.0074999999999994
 73
     0
 74
     0
 75
     0
  3
TPS3
100
AcDbOrdinateDimension
 13
221.6817956111105
 23
-1.397665411011394
 33
0.0
 14
221.4332408215953
 24
-1.846687550230114
 34
0.0
  0
DIMENSION
  5
1EEA
330
18
100
AcDbEntity
  8
D
100
AcDbDimension
280
     0
  2
*D26
 10
217.0637956006614
 20
-1.390165411011395
 30
0.0
 11
221.4301537819973
 21
-1.92051214881917
 31
0.0
 70
   166
 71
     5
 42
0.0275000000000001
 73
     0
 74
     0
 75
     0
  3
TPS3
100
AcDbOrdinateDimension
 13
221.7817956111105
 23
-1.417665411011395
 33
0.0
 14
221.5394871153307
 24
-1.92051214881917
 34
0.0
  0
DIMENSION
  5
1EFC
330
18
100
AcDbEntity
  8
D
100
AcDbDimension
280
     0
  2
*D27
 10
217.0637956006614
 20
-1.390165411011395
 30
0.0
 11
222.160014965638
 21
-1.380127907585062
 31
0.0
 70
    38
 71
     5
 42
0.0914999999999997
 73
     0
 74
     0
 75
     0
  3
TPS3
100
AcDbOrdinateDimension
 13
221.8637956111105
 23
-1.481665411011394
 33
0.0
 14
222.0506816323046
 24
-1.380127907585062
 34
0.0
  0
DIMENSION
  5
1F07
330
18
100
AcDbEntity
  8
D
100
AcDbDimension
280
     0
  2
*D28
 10
217.0637956006614
 20
-1.390165411011395
 30
0.0
 11
222.1936245673937
 21
-1.638513250710445
 31
0.0
 70
    38
 71
     5
 42
0.1674999999999969
 73
     0
 74
     0
 75
     0
  3
TPS3
100
AcDbOrdinateDimension
 13
221.8637956111105
 23
-1.557665411011392
 33
0.0
 14
222.0876245673937
 24
-1.638513250710445
 34
0.0
  0
DIMENSION
  5
1F12
330
18
100
AcDbEntity
  8
D
100
AcDbDimension
280
     0
  2
*D29
 10
221.8647827905973
 20
-1.519665411011349
 30
0.0
 11
222.1458778649639
 21
-1.496999101301394
 31
0.0
 70
   164
 71
     5
 42
0.0380128205131314
 73
     0
 74
     0
 75
     0
  3
TPS3
100
AcDbRadialDimension
 15
221.9026726285093
 25
-1.516610135841872
 35
0.0
 40
0.0
1001
ACAD
1000
DSTYLE
1002
{
1070
   288
1070
     1
1002
}
  0
DIMENSION
  5
1F1B
330
18
100
AcDbEntity
  8
D
100
AcDbDimension
280
     0
  2
*D30
 10
221.9243537566804
 20
-1.319544036999857
 30
0.0
 11
221.999702223828
 21
-1.232753035843131
 31
0.0
 70
   164
 71
     5
 42
0.1730624999999861
 73
     0
 74
     0
 75
     0
  3
TPS3
100
AcDbRadialDimension
 15
221.8108984418139
 25
-1.450228850328713
 35
0.0
 40
0.0
1001
ACAD
1000
DSTYLE
1002
{
1070
   288
1070
     1
1002
}
  0
DIMENSION
  5
1F29
330
18
100
AcDbEntity
  8
D
100
AcDbDimension
280
     0
  2
*D31
 10
221.7473214718091
 20
-1.330036107519234
 30
0.0
 11
221.847420082426
 21
-1.026367974570973
 31
0.0
 70
   164
 71
     5
 42
0.0941666666666947
 73
     0
 74
     0
 75
     0
  3
TPS3
100
AcDbRadialDimension
 15
221.717841475262
 25
-1.419469272031633
 35
0.0
 40
0.0
1001
ACAD
1000
DSTYLE
1002
{
1070
   279
1070
     1
1070
   288
1070
     1
1002
}
  0
DIMENSION
  5
1F32
330
18
100
AcDbEntity
  8
D
100
AcDbDimension
280
     0
  2
*D32
 10
221.6000499210232
 20
-1.359102908605907
 30
0.0
 11
221.6032289613664
 21
-1.14064072729237
 31
0.0
 70
   164
 71
     5
 42
0.0903848684210471
 73
     0
 74
     0
 75
     0
  3
TPS3
100
AcDbRadialDimension
 15
221.5987347884759
 25
-1.449478208693227
 35
0.0
 40
0.0
1001
ACAD
1000
DSTYLE
1002
{
1070
   279
1070
     1
1070
   288
1070
     1
1002
}
  0
DIMENSION
  5
1F3B
330
18
100
AcDbEntity
  8
D
100
AcDbDimension
280
     0
  2
*D33
 10
221.4537956111105
 20
-1.373878176968845
 30
0.0
 11
221.45485933294
 21
-1.186967268290858
 31
0.0
 70
   164
 71
     5
 42
0.0967872340425491
 73
     0
 74
     0
 75
     0
  3
TPS3
100
AcDbRadialDimension
 15
221.4532447977462
 25
-1.470663843667199
 35
0.0
 40
0.0
1001
ACAD
1000
DSTYLE
1002
{
1070
   279
1070
     1
1070
   288
1070
     1
1002
}
  0
DIMENSION
  5
1F44
330
18
100
AcDbEntity
  8
D
100
AcDbDimension
280
     0
  2
*D34
 10
221.3164460354147
 20
-1.354753736770311
 30
0.0
 11
221.3123801047181
 21
-1.217245502312614
 31
0.0
 70
   164
 71
     5
 42
0.0877650000000339
 73
     0
 74
     0
 75
     0
  3
TPS3
100
AcDbRadialDimension
 15
221.319039992897
 25
-1.442480395258971
 35
0.0
 40
0.0
1001
ACAD
1000
DSTYLE
1002
{
1070
   279
1070
     1
1070
   288
1070
     1
1002
}
  0
DIMENSION
  5
1F4D
330
18
100
AcDbEntity
  8
D
100
AcDbDimension
280
     0
  2
*D35
 10
221.1804647547491
 20
-1.348496620859659
 30
0.0
 11
221.1874852897213
 21
-1.199321079395922
 31
0.0
 70
   164
 71
     5
 42
0.0923799999999435
 73
     0
 74
     0
 75
     0
  3
TPS3
100
AcDbRadialDimension
 15
221.1761219517964
 25
-1.440774486366526
 35
0.0
 40
0.0
1001
ACAD
1000
DSTYLE
1002
{
1070
   279
1070
     1
1070
   288
1070
     1
1002
}
  0
DIMENSION
  5
1F56
330
18
100
AcDbEntity
  8
D
100
AcDbDimension
280
     0
  2
*D36
 10
220.1217076716811
 20
-1.381647248011319
 30
0.0
 11
220.348521125297
 21
-1.989027074984292
 31
0.0
 70
   164
 71
     5
 42
0.1991381578945237
 73
     0
 74
     0
 75
     0
  3
TPS3
100
AcDbRadialDimension
 15
220.1913727927713
 25
-1.568202271618631
 35
0.0
 40
0.0
1001
ACAD
1000
DSTYLE
1002
{
1070
   288
1070
     1
1002
}
  0
DIMENSION
  5
1F5F
330
18
100
AcDbEntity
  8
D
100
AcDbDimension
280
     0
  2
*D37
 10
219.9299898472673
 20
-2.082980753396249
 30
0.0
 11
220.2939759145253
 21
-0.8497323873410635
 31
0.0
 70
   164
 71
     5
 42
0.8141031249999528
 73
     0
 74
     0
 75
     0
  3
TPS3
100
AcDbRadialDimension
 15
220.1604399315544
 25
-1.302175619712613
 35
0.0
 40
0.0
1001
ACAD
1000
DSTYLE
1002
{
1070
   288
1070
     1
1002
}
  0
DIMENSION
  5
1F68
330
18
100
AcDbEntity
  8
D
100
AcDbDimension
280
     0
  2
*D38
 10
217.1842956006615
 20
-1.460165411011359
 30
0.0
 11
216.89401239895
 21
-1.826213329041763
 31
0.0
 70
   164
 71
     5
 42
0.120500000000078
 73
     0
 74
     0
 75
     0
  3
TPS3
100
AcDbRadialDimension
 15
217.1094223933526
 25
-1.554580731946558
 35
0.0
 40
0.0
1001
ACAD
1000
DSTYLE
1002
{
1070
   288
1070
     1
1002
}
  0
DIMENSION
  5
1F71
330
18
100
AcDbEntity
  8
D
100
AcDbDimension
280
     0
  2
*D39
 10
217.1842956006612
 20
-1.390165411011281
 30
0.0
 11
216.8808647650992
 21
-1.06756781429614
 31
0.0
 70
   164
 71
     5
 42
0.1204999999997369
 73
     0
 74
     0
 75
     0
  3
TPS3
100
AcDbRadialDimension
 15
217.101736633983
 25
-1.302391456896373
 35
0.0
 40
0.0
1001
ACAD
1000
DSTYLE
1002
{
1070
   288
1070
     1
1002
}
  0
DIMENSION
  5
1F7A
330
18
100
AcDbEntity
  8
D
100
AcDbDimension
280
     0
  2
*D40
 10
219.0699487531944
 20
-1.269665411011395
 30
0.0
 11
219.0699487531944
 21
-1.122332077678026
 31
0.0
 70
   160
  1
<>\PREF
 71
     5
 42
0.3109999999999999
 73
     0
 74
     0
 75
     0
  3
TPS3
100
AcDbAlignedDimension
 13
219.0939850344544
 23
-1.580665411011395
 33
0.0
 14
219.0939850344544
 24
-1.269665411011395
 34
0.0
 50
90.0
100
AcDbRotatedDimension
  0
DIMENSION
  5
1F9C
330
18
100
AcDbEntity
  8
D
100
AcDbDimension
280
     0
  2
*D41
 10
217.0637956006614
 20
-2.210543981761986
 30
0.0
 11
219.4832956058859
 21
-2.210543981761986
 31
0.0
 70
    32
  1
<>\PREF
 71
     5
 42
4.839000010449012
 73
     0
 74
     0
 75
     0
  3
TPS3
100
AcDbAlignedDimension
 13
221.9027956111105
 23
-1.519665411011393
 33
0.0
 14
217.0637956006614
 24
-1.460165411011393
 34
0.0
100
AcDbRotatedDimension
  0
LINE
  5
1FCB
330
18
100
AcDbEntity
  8
Title Block
100
AcDbLine
 10
219.8671132055122
 20
0.3807462179658891
 30
0.0
 11
222.8671132055122
 21
0.3807462179658891
 31
0.0
  0
TEXT
  5
1FCD
330
18
100
AcDbEntity
  8
TITLE BLOCK TEXT
100
AcDbText
 10
220.6963132055122
 20
0.4326230122350108
 30
0.0
 40
0.039
  1
CHANGE PROFILE
  7
Roman
100
AcDbText
  0
TEXT
  5
1FCE
330
18
100
AcDbEntity
  8
TITLE BLOCK TEXT
100
AcDbText
 10
219.9550618853451
 20
0.4326230122350108
 30
0.0
 40
0.039
  1
A
  7
Roman
100
AcDbText
  0
TEXT
  5
1FCF
330
18
100
AcDbEntity
  8
TITLE BLOCK TEXT
100
AcDbText
 10
221.8495417439704
 20
0.4326230122350108
 30
0.0
 40
0.039
  1
6-11-2011
  7
Roman
100
AcDbText
  0
TEXT
  5
1FD4
330
18
100
AcDbEntity
  8
SECTION
100
AcDbText
 10
221.6316151831223
 20
-4.145839862090286
 30
0.0
 40
0.048
  1
A
  7
Roman
100
AcDbText
  0
LINE
  5
2340
330
18
100
AcDbEntity
  8
PICK
100
AcDbLine
 10
221.1227956111105
 20
-1.420665411011398
 30
0.0
 11
220.9637954195677
 21
-1.478033821982828
 31
0.0
  0
POINT
  5
2341
330
18
100
AcDbEntity
  8
D
100
AcDbPoint
 10
220.9637954195677
 20
-1.478033821982828
 30
0.0
  0
DIMENSION
  5
235B
330
18
100
AcDbEntity
  8
D
100
AcDbDimension
280
     0
  2
*D43
 10
217.0637956006614
 20
-1.390165411011395
 30
0.0
 11
220.6061303162599
 21
-1.272353782041022
 31
0.0
 70
    38
 71
     5
 42
0.0878684109714332
 73
     0
 74
     0
 75
     0
  3
TPS3
100
AcDbOrdinateDimension
 13
220.9637954195677
 23
-1.478033821982828
 33
0.0
 14
220.7154636495932
 24
-1.272353782041022
 34
0.0
  0
DIMENSION
  5
236D
330
18
100
AcDbEntity
  8
D
100
AcDbDimension
280
     0
  2
*D44
 10
217.0637956006614
 20
-1.390165411011395
 30
0.0
 11
220.9637954195677
 21
-1.905509654678355
 31
0.0
 70
   102
 71
     5
 42
3.89999981890628
 73
     0
 74
     0
 75
     0
  3
TPS3
100
AcDbOrdinateDimension
 13
220.9637954195677
 23
-1.478033821982828
 33
0.0
 14
220.9637954195677
 24
-1.796176321345058
 34
0.0
  0
LWPOLYLINE
  5
2378
330
18
100
AcDbEntity
  8
D
100
AcDbPolyline
 90
       14
 70
     1
 43
0.0
 10
221.0069623993467
 20
-1.99897985011222
 42
0.5205670505517463
 10
221.0069623993467
 20
-1.99897985011222
 42
0.5205670505517463
 10
221.0150742630009
 20
-1.947649780236986
 42
0.5205670505517463
 10
221.0177780311885
 20
-1.89361810025241
 42
0.5205670505517463
 10
221.0231855675633
 20
-1.842288291477927
 42
0.5205670505517463
 10
221.0069623993467
 20
-1.793659831711977
 42
0.5205670505517463
 10
220.9664047583512
 20
-1.761240771501093
 42
0.5205670505517463
 10
220.9204395809807
 20
-1.782853391274727
 42
0.5205670505517463
 10
220.8961051082018
 20
-1.828780240931394
 42
0.5205670505517463
 10
220.8934013400143
 20
-1.880110310806628
 42
0.5205670505517463
 10
220.8906975718268
 20
-1.93144038068192
 42
0.5205670505517463
 10
220.8879938036394
 20
-1.985472060666495
 42
0.5205670505517463
 10
220.9312552128225
 20
-2.012487639557946
 42
0.5205670505517463
 10
221.0069623993467
 20
-1.99897985011222
  0
LWPOLYLINE
  5
2379
330
18
100
AcDbEntity
  8
D
100
AcDbPolyline
 90
       16
 70
     1
 43
0.0
 10
220.7500227941283
 20
-1.217735669631053
 42
0.5205670505517463
 10
220.7500227941283
 20
-1.217735669631053
 42
0.5205670505517463
 10
220.6959463121954
 20
-1.215034059521769
 42
0.5205670505517463
 10
220.6445730393582
 20
-1.209630839303144
 42
0.5205670505517463
 10
220.5904965574254
 20
-1.204227880185328
 42
0.5205670505517463
 10
220.5391232845883
 20
-1.204227880185328
 42
0.5205670505517463
 10
220.4958618754052
 20
-1.23394506918612
 42
0.5205670505517463
 10
220.4742311708137
 20
-1.279871918842729
 42
0.5205670505517463
 10
220.4769349390012
 20
-1.331201988718021
 42
0.5205670505517463
 10
220.5310119800259
 20
-1.342008429155271
 42
0.5205670505517463
 10
220.5823846937712
 20
-1.342008429155271
 42
0.5205670505517463
 10
220.6337579666084
 20
-1.33930681904593
 42
0.5205670505517463
 10
220.6851306803538
 20
-1.33930681904593
 42
0.5205670505517463
 10
220.7337996259117
 20
-1.325798768499396
 42
0.5205670505517463
 10
220.7581346577825
 20
-1.277170569834254
 42
0.5205670505517463
 10
220.7500227941283
 20
-1.217735669631053
  0
ARC
  5
2381
330
18
100
AcDbEntity
  8
Title Block
100
AcDbCircle
 10
215.6540998007536
 20
-3.675798545005555
 30
0.0
 40
0.0602499999999999
100
AcDbArc
 50
90.0
 51
180.0
  0
ARC
  5
2382
330
18
100
AcDbEntity
  8
Title Block
100
AcDbCircle
 10
217.0269469240564
 20
-4.022206216197995
 30
0.0
 40
0.4070515625000015
100
AcDbArc
 50
51.40869651708104
 51
87.47921304375259
  0
LINE
  5
2383
330
18
100
AcDbEntity
  8
Title Block
100
AcDbLine
 10
215.6540998007536
 20
-3.771048545005555
 30
0.0
 11
217.1193498007536
 21
-3.771048545005555
 31
0.0
  0
ARC
  5
2384
330
18
100
AcDbEntity
  8
Title Block
100
AcDbCircle
 10
215.6540998007536
 20
-3.710798545005555
 30
0.0
 40
0.0602499999999999
100
AcDbArc
 50
179.999999999999
 51
270.0
  0
LINE
  5
2385
330
18
100
AcDbEntity
  8
Title Block
100
AcDbLine
 10
215.5938498007536
 20
-3.710798545005554
 30
0.0
 11
215.5938498007536
 21
-3.675798545005555
 31
0.0
  0
LINE
  5
2386
330
18
100
AcDbEntity
  8
Title Block
100
AcDbLine
 10
217.6233498059781
 20
-3.691048545005557
 30
0.0
 11
217.5438497102067
 21
-3.719732750491272
 31
0.0
  0
ARC
  5
2387
330
18
100
AcDbEntity
  8
Title Block
100
AcDbCircle
 10
217.9943433957217
 20
-3.740548545005554
 30
0.0
 40
0.0190064102564094
100
AcDbArc
 50
268.5118815942345
 51
91.48811840576554
  0
ARC
  5
2388
330
18
100
AcDbEntity
  8
Title Block
100
AcDbCircle
 10
218.0241288787631
 20
-3.64048785799979
 30
0.0
 40
0.0865312500000141
100
AcDbArc
 50
214.5392553586447
 51
249.5175371192572
  0
ARC
  5
2389
330
18
100
AcDbEntity
  8
Title Block
100
AcDbCircle
 10
217.9356127363273
 20
-3.645733893259458
 30
0.0
 40
0.0470833333333321
100
AcDbArc
 50
225.9050221365592
 51
291.4751129153996
  0
ARC
  5
238A
330
18
100
AcDbEntity
  8
Title Block
100
AcDbCircle
 10
217.8619769609348
 20
-3.660267293802809
 30
0.0
 40
0.0451924342105313
100
AcDbArc
 50
225.5863961881555
 51
334.7449935709347
  0
ARC
  5
238B
330
18
100
AcDbEntity
  8
Title Block
100
AcDbCircle
 10
217.7888498059781
 20
-3.667654927984279
 30
0.0
 40
0.0483936170212758
100
AcDbArc
 50
210.9572763308361
 51
329.0427236691631
  0
ARC
  5
238C
330
18
100
AcDbEntity
  8
Title Block
100
AcDbCircle
 10
217.7201750181303
 20
-3.658092707885026
 30
0.0
 40
0.0438825000000013
100
AcDbArc
 50
219.5730263356093
 51
308.2623002778291
  0
ARC
  5
238D
330
18
100
AcDbEntity
  8
Title Block
100
AcDbCircle
 10
217.6521843777975
 20
-3.65496414992966
 30
0.0
 40
0.0461900000000004
100
AcDbArc
 50
231.3721021482092
 51
317.703442867607
  0
LINE
  5
238E
330
18
100
AcDbEntity
  8
Title Block
100
AcDbLine
 10
217.5438497102067
 20
-3.719732750491272
 30
0.0
 11
217.3028498059781
 21
-3.707048545005555
 31
0.0
  0
LINE
  5
238F
330
18
100
AcDbEntity
  8
Title Block
100
AcDbLine
 10
217.3028498059781
 20
-3.707048545005555
 30
0.0
 11
217.2808498007536
 21
-3.704048545005555
 31
0.0
  0
LINE
  5
2390
330
18
100
AcDbEntity
  8
Title Block
100
AcDbLine
 10
217.1693719511532
 20
-3.759548545005555
 30
0.0
 11
217.9948369854652
 21
-3.759548545005555
 31
0.0
  0
ARC
  5
2391
330
18
100
AcDbEntity
  8
Title Block
100
AcDbCircle
 10
217.1228058362632
 20
-3.671539463505498
 30
0.0
 40
0.0995690789473746
100
AcDbArc
 50
268.0108681009747
 51
297.8835762701237
  0
LINE
  5
2392
330
18
100
AcDbEntity
  8
Title Block
100
AcDbLine
 10
215.6540998007536
 20
-3.615548545005555
 30
0.0
 11
217.0448498007536
 21
-3.615548545005555
 31
0.0
  0
LWPOLYLINE
  5
23B0
330
18
100
AcDbEntity
  8
SECTION
100
AcDbPolyline
 90
        3
 70
     1
 43
0.0
 10
220.5719583091764
 20
-1.045785193981926
 10
220.5070064038926
 20
-1.158285193981926
 10
220.6369102144603
 20
-1.158285193981926
  0
TEXT
  5
23B1
330
18
100
AcDbEntity
  8
SECTION
100
AcDbText
 10
220.5514686819007
 20
-1.13971875481162
 30
0.0
 40
0.048
  1
A
  7
Roman
100
AcDbText
  0
TEXT
  5
23B2
330
18
100
AcDbEntity
  8
SECTION
100
AcDbText
 10
220.7968282752943
 20
-1.841474031615926
 30
0.0
 40
0.048
  1
A
  7
Roman
100
AcDbText
  0
LWPOLYLINE
  5
23B3
330
18
100
AcDbEntity
  8
SECTION
100
AcDbPolyline
 90
        3
 70
     1
 43
0.0
 10
220.8173179025701
 20
-1.747540470786232
 10
220.7523659972863
 20
-1.860040470786232
 10
220.8822698078539
 20
-1.860040470786232
  0
MTEXT
  5
23C3
330
18
100
AcDbEntity
  8
TITLE BLOCK TEXT
100
AcDbMText
 10
220.3431312761054
 20
-3.489393816339566
 30
0.0
 40
0.048
 41
0.0
 46
0.0
 71
     4
 72
     1
  1
MOCK UP QTY: 30\PPROD QTY: 2500
  7
Roman
 73
     1
 44
1.0
  0
MTEXT
  5
23C4
330
18
100
AcDbEntity
  8
TITLE BLOCK TEXT
100
AcDbMText
 10
220.3496846080446
 20
-3.746666059204761
 30
0.0
 40
0.036
 41
0.0
 46
0.0
 71
     4
 72
     1
  1
MATL: 1095 STEEL\PMATL CERTS REQUIRED\PFINISH: DEBUR, TUMBLE
  7
Roman
 73
     1
 44
1.0
  0
MTEXT
  5
23C5
330
18
100
AcDbEntity
  8
TITLE BLOCK TEXT
100
AcDbMText
 10
221.3459265286971
 20
-3.342274995093253
 30
0.0
 40
0.036
 41
0.0
 46
0.0
 71
     4
 72
     1
  1
NOTES:\P-CAD FILES AVAILABLE WITH ORDER.\P-ACAD 2000 DWG OR ACAD DXF PROVIDED.\P-CAD FILE IN MAIN VIEW IS DRAWN 1:1.\P-BORDER IS SCALED TO PRINT.\P-LAYED TO CUT IS CALLED "PICK"
  7
Roman
 73
     1
 44
1.0
  0
ENDSEC
  0
SECTION
  2
OBJECTS
  0
DICTIONARY
  5
C
330
0
100
AcDbDictionary
281
     1
  3
ACAD_COLOR
350
23FF
  3
ACAD_GROUP
350
D
  3
ACAD_LAYOUT
350
107
  3
ACAD_MATERIAL
350
23D2
  3
ACAD_MLEADERSTYLE
350
2424
  3
ACAD_MLINESTYLE
350
E
  3
ACAD_PLOTSETTINGS
350
108
  3
ACAD_PLOTSTYLENAME
350
105
  3
ACAD_SCALELIST
350
2402
  3
ACAD_TABLESTYLE
350
2400
  3
ACAD_VISUALSTYLE
350
23EB
  3
AcadDim
350
2A8
  3
ACDB_RECOMPOSE_DATA
350
2457
  3
AcDbVariableDictionary
350
244D
  3
ASE_INDEX_DICTIONARY
350
29C
  0
DICTIONARY
  5
242C
330
F
100
AcDbDictionary
280
     1
281
     1
  3
ADSK_XREC_LAYER_RECONCILED
360
242D
  0
DICTIONARY
  5
242E
330
24
100
AcDbDictionary
280
     1
281
     1
  3
ADSK_XREC_LAYER_RECONCILED
360
242F
  0
DICTIONARY
  5
2430
330
25
100
AcDbDictionary
280
     1
281
     1
  3
ADSK_XREC_LAYER_RECONCILED
360
2431
  0
DICTIONARY
  5
2432
330
26
100
AcDbDictionary
280
     1
281
     1
  3
ADSK_XREC_LAYER_RECONCILED
360
2433
  0
DICTIONARY
  5
2434
330
27
100
AcDbDictionary
280
     1
281
     1
  3
ADSK_XREC_LAYER_RECONCILED
360
2435
  0
DICTIONARY
  5
2436
330
28
100
AcDbDictionary
280
     1
281
     1
  3
ADSK_XREC_LAYER_RECONCILED
360
2437
  0
DICTIONARY
  5
2438
330
2A
100
AcDbDictionary
280
     1
281
     1
  3
ADSK_XREC_LAYER_RECONCILED
360
2439
  0
DICTIONARY
  5
243A
330
371
100
AcDbDictionary
280
     1
281
     1
  3
ADSK_XREC_LAYER_RECONCILED
360
243B
  0
DICTIONARY
  5
243C
330
372
100
AcDbDictionary
280
     1
281
     1
  3
ADSK_XREC_LAYER_RECONCILED
360
243D
  0
DICTIONARY
  5
243E
330
373
100
AcDbDictionary
280
     1
281
     1
  3
ADSK_XREC_LAYER_RECONCILED
360
243F
  0
DICTIONARY
  5
2440
330
374
100
AcDbDictionary
280
     1
281
     1
  3
ADSK_XREC_LAYER_RECONCILED
360
2441
  0
DICTIONARY
  5
2442
330
496
100
AcDbDictionary
280
     1
281
     1
  3
ADSK_XREC_LAYER_RECONCILED
360
2443
  0
DICTIONARY
  5
2444
330
4F0
100
AcDbDictionary
280
     1
281
     1
  3
ADSK_XREC_LAYER_RECONCILED
360
2445
  0
DICTIONARY
  5
2446
330
504
100
AcDbDictionary
280
     1
281
     1
  3
ADSK_XREC_LAYER_RECONCILED
360
2447
  0
DICTIONARY
  5
AF8
330
AF7
100
AcDbDictionary
280
     1
281
     1
  3
ADSK_XREC_LAYER_RECONCILED
360
2448
  0
DICTIONARY
  5
2449
330
1197
100
AcDbDictionary
280
     1
281
     1
  3
ADSK_XREC_LAYER_RECONCILED
360
244A
  0
DICTIONARY
  5
244B
330
22FE
100
AcDbDictionary
280
     1
281
     1
  3
ADSK_XREC_LAYER_RECONCILED
360
244C
  0
DICTIONARY
  5
23FF
102
{ACAD_REACTORS
330
C
102
}
330
C
100
AcDbDictionary
281
     1
  0
DICTIONARY
  5
D
102
{ACAD_REACTORS
330
C
102
}
330
C
100
AcDbDictionary
281
     1
  0
DICTIONARY
  5
107
102
{ACAD_REACTORS
330
C
102
}
330
C
100
AcDbDictionary
281
     1
  3
Layout1
350
10A
  3
Model
350
109
  0
DICTIONARY
  5
23D2
102
{ACAD_REACTORS
330
C
102
}
330
C
100
AcDbDictionary
281
     1
  3
ByBlock
350
23DB
  3
ByLayer
350
23D3
  3
Global
350
23E3
  0
DICTIONARY
  5
2424
102
{ACAD_REACTORS
330
C
102
}
330
C
100
AcDbDictionary
281
     1
  3
Standard
350
2425
  0
DICTIONARY
  5
E
102
{ACAD_REACTORS
330
C
102
}
330
C
100
AcDbDictionary
281
     1
  3
STANDARD
350
1B
  0
DICTIONARY
  5
108
102
{ACAD_REACTORS
330
C
102
}
330
C
100
AcDbDictionary
281
     1
  3
hp-a-fit
350
11C
  3
hp-B-1-1
350
11B
  0
ACDBDICTIONARYWDFLT
  5
105
102
{ACAD_REACTORS
330
C
102
}
330
C
100
AcDbDictionary
281
     1
  3
Normal
350
106
100
AcDbDictionaryWithDefault
340
106
  0
DICTIONARY
  5
2402
102
{ACAD_REACTORS
330
C
102
}
330
C
100
AcDbDictionary
281
     1
  3
A0
350
2403
  3
A1
350
2404
  3
A2
350
2405
  3
A3
350
2406
  3
A4
350
2407
  3
A5
350
2408
  3
A6
350
2409
  3
A7
350
240A
  3
A8
350
240B
  3
A9
350
240C
  3
B0
350
240D
  3
B1
350
240E
  3
B2
350
240F
  3
B3
350
2410
  3
B4
350
2411
  3
B5
350
2412
  3
B6
350
2413
  3
B7
350
2414
  3
B8
350
2415
  3
B9
350
2416
  3
C0
350
2417
  3
C1
350
2418
  3
C2
350
2419
  3
C3
350
241A
  3
C4
350
241B
  3
C5
350
241C
  3
C6
350
241D
  3
C7
350
241E
  3
C8
350
241F
  3
C9
350
2420
  3
D0
350
2421
  3
D1
350
2422
  3
D2
350
2423
  0
DICTIONARY
  5
2400
102
{ACAD_REACTORS
330
C
102
}
330
C
100
AcDbDictionary
281
     1
  3
Standard
350
2401
  0
DICTIONARY
  5
23EB
102
{ACAD_REACTORS
330
C
102
}
330
C
100
AcDbDictionary
281
     1
  3
2dWireframe
350
23F1
  3
3D Hidden
350
23F3
  3
3dWireframe
350
23F2
  3
Basic
350
23F0
  3
Brighten
350
23F7
  3
ColorChange
350
23FB
  3
Conceptual
350
23F4
  3
Dim
350
23F6
  3
EdgeColorOff
350
23FE
  3
Facepattern
350
23FA
  3
Flat
350
23EC
  3
FlatWithEdges
350
23ED
  3
Gouraud
350
23EE
  3
GouraudWithEdges
350
23EF
  3
JitterOff
350
23FC
  3
Linepattern
350
23F9
  3
OverhangOff
350
23FD
  3
Realistic
350
23F5
  3
Thicken
350
23F8
  0
XRECORD
  5
2A8
102
{ACAD_REACTORS
330
C
102
}
330
C
100
AcDbXrecord
280
     1
 90
   990106
  3

 60
     0
 61
     0
 62
     2
 63
     2
 64
     0
 65
     0
 66
     0
 67
     3
 68
     0
 69
     0
 70
     0
 71
     0
 72
     0
 40
0.0
170
     2
340
1240
  0
XRECORD
  5
2457
102
{ACAD_REACTORS
330
C
102
}
330
C
100
AcDbXrecord
280
     1
 90
        1
330
2401
  0
DICTIONARY
  5
244D
102
{ACAD_REACTORS
330
C
102
}
330
C
100
AcDbDictionary
281
     1
  3
CANNOSCALE
350
2451
  3
CMLEADERSTYLE
350
244F
  3
CTABLESTYLE
350
244E
  3
LAYEREVAL
350
2453
  3
LAYERNOTIFY
350
2454
  3
LIGHTINGUNITS
350
2452
  3
MSLTSCALE
350
2450
  0
DICTIONARY
  5
29C
102
{ACAD_REACTORS
330
C
102
}
330
C
100
AcDbDictionary
281
     1
  3
ASEBlockHierarchyIndexRecord
350
29E
1001
DCO15
1040
1663581020.26
  0
XRECORD
  5
242D
102
{ACAD_REACTORS
330
242C
102
}
330
242C
100
AcDbXrecord
280
     1
290
     1
  0
XRECORD
  5
242F
102
{ACAD_REACTORS
330
242E
102
}
330
242E
100
AcDbXrecord
280
     1
290
     1
  0
XRECORD
  5
2431
102
{ACAD_REACTORS
330
2430
102
}
330
2430
100
AcDbXrecord
280
     1
290
     1
  0
XRECORD
  5
2433
102
{ACAD_REACTORS
330
2432
102
}
330
2432
100
AcDbXrecord
280
     1
290
     1
  0
XRECORD
  5
2435
102
{ACAD_REACTORS
330
2434
102
}
330
2434
100
AcDbXrecord
280
     1
290
     1
  0
XRECORD
  5
2437
102
{ACAD_REACTORS
330
2436
102
}
330
2436
100
AcDbXrecord
280
     1
290
     1
  0
XRECORD
  5
2439
102
{ACAD_REACTORS
330
2438
102
}
330
2438
100
AcDbXrecord
280
     1
290
     1
  0
XRECORD
  5
243B
102
{ACAD_REACTORS
330
243A
102
}
330
243A
100
AcDbXrecord
280
     1
290
     1
  0
XRECORD
  5
243D
102
{ACAD_REACTORS
330
243C
102
}
330
243C
100
AcDbXrecord
280
     1
290
     1
  0
XRECORD
  5
243F
102
{ACAD_REACTORS
330
243E
102
}
330
243E
100
AcDbXrecord
280
     1
290
     1
  0
XRECORD
  5
2441
102
{ACAD_REACTORS
330
2440
102
}
330
2440
100
AcDbXrecord
280
     1
290
     1
  0
XRECORD
  5
2443
102
{ACAD_REACTORS
330
2442
102
}
330
2442
100
AcDbXrecord
280
     1
290
     1
  0
XRECORD
  5
2445
102
{ACAD_REACTORS
330
2444
102
}
330
2444
100
AcDbXrecord
280
     1
290
     1
  0
XRECORD
  5
2447
102
{ACAD_REACTORS
330
2446
102
}
330
2446
100
AcDbXrecord
280
     1
290
     1
  0
XRECORD
  5
2448
102
{ACAD_REACTORS
330
AF8
102
}
330
AF8
100
AcDbXrecord
280
     1
290
     1
  0
XRECORD
  5
244A
102
{ACAD_REACTORS
330
2449
102
}
330
2449
100
AcDbXrecord
280
     1
290
     1
  0
XRECORD
  5
244C
102
{ACAD_REACTORS
330
244B
102
}
330
244B
100
AcDbXrecord
280
     1
290
     1
  0
LAYOUT
  5
10A
102
{ACAD_REACTORS
330
107
102
}
330
107
100
AcDbPlotSettings
  1

  2
C:\PROGRAM FILES\ACAD2000\plotters\HP-5000PLT.pc3
  4

  6

 40
0.0
 41
0.0
 42
0.0
 43
0.0
 44
0.0
 45
0.0
 46
0.0
 47
0.0
 48
0.0
 49
0.0
140
0.0
141
0.0
142
1.0
143
1.0
 70
   688
 72
     0
 73
     0
 74
     5
  7
tps-s1_BLACK.ctb
 75
    16
147
1.0
 76
     0
 77
     2
 78
   300
148
0.0
149
0.0
100
AcDbLayout
  1
Layout1
 70
     0
 71
     1
 10
0.0
 20
0.0
 11
12.0
 21
9.0
 12
0.0
 22
0.0
 32
0.0
 14
1.000000000000000E+20
 24
1.000000000000000E+20
 34
1.000000000000000E+20
 15
-1.000000000000000E+20
 25
-1.000000000000000E+20
 35
-1.000000000000000E+20
146
0.0
 13
0.0
 23
0.0
 33
0.0
 16
1.0
 26
0.0
 36
0.0
 17
0.0
 27
1.0
 37
0.0
 76
     0
330
15
  0
LAYOUT
  5
109
102
{ACAD_REACTORS
330
107
102
}
330
107
100
AcDbPlotSettings
  1

  2
EPSON Stylus Photo 1400 Series
  4
User262
  6
BORDER
 40
3.757083177566528
 41
3.757076978683471
 42
3.757080078125
 43
3.757080078125
 44
279.3999938964844
 45
431.7999877929687
 46
12.192
 47
15.24
 48
0.0
 49
0.0
140
0.0
141
0.0
142
1.0
143
0.5
 70
 11940
 72
     0
 73
     1
 74
     3
  7
tps-s1_BLACK.ctb
 75
     0
147
2.0
 76
     0
 77
     2
 78
   300
148
-5463.97467542001
149
106.5340460636664
100
AcDbLayout
  1
Model
 70
     1
 71
     0
 10
0.0
 20
0.0
 11
12.0
 21
9.0
 12
0.0
 22
0.0
 32
0.0
 14
0.0
 24
0.0
 34
0.0
 15
0.0
 25
0.0
 35
0.0
146
0.0
 13
0.0
 23
0.0
 33
0.0
 16
1.0
 26
0.0
 36
0.0
 17
0.0
 27
1.0
 37
0.0
 76
     0
330
18
331
23D0
  0
MATERIAL
  5
23DB
102
{ACAD_XDICTIONARY
360
23DC
102
}
102
{ACAD_REACTORS
330
23D2
102
}
330
23D2
100
AcDbMaterial
  1
ByBlock
 72
     0
 43
0.0208333333333333
 43
0.0
 43
0.0
 43
0.0
 43
0.0
 43
0.0208333333333333
 43
0.0
 43
0.0
 43
0.0
 43
0.0
 43
1.0
 43
0.0
 43
0.0
 43
0.0
 43
0.0
 43
1.0
 77
     0
 47
0.0208333333333333
 47
0.0
 47
0.0
 47
0.0
 47
0.0
 47
0.0208333333333333
 47
0.0
 47
0.0
 47
0.0
 47
0.0
 47
1.0
 47
0.0
 47
0.0
 47
0.0
 47
0.0
 47
1.0
171
     0
 49
0.0208333333333333
 49
0.0
 49
0.0
 49
0.0
 49
0.0
 49
0.0208333333333333
 49
0.0
 49
0.0
 49
0.0
 49
0.0
 49
1.0
 49
0.0
 49
0.0
 49
0.0
 49
0.0
 49
1.0
175
     0
142
0.0208333333333333
142
0.0
142
0.0
142
0.0
142
0.0
142
0.0208333333333333
142
0.0
142
0.0
142
0.0
142
0.0
142
1.0
142
0.0
142
0.0
142
0.0
142
0.0
142
1.0
179
     0
144
0.0208333333333333
144
0.0
144
0.0
144
0.0
144
0.0
144
0.0208333333333333
144
0.0
144
0.0
144
0.0
144
0.0
144
1.0
144
0.0
144
0.0
144
0.0
144
0.0
144
1.0
147
0.0208333333333333
147
0.0
147
0.0
147
0.0
147
0.0
147
0.0208333333333333
147
0.0
147
0.0
147
0.0
147
0.0
147
1.0
147
0.0
147
0.0
147
0.0
147
0.0
147
1.0
  0
MATERIAL
  5
23D3
102
{ACAD_XDICTIONARY
360
23D4
102
}
102
{ACAD_REACTORS
330
23D2
102
}
330
23D2
100
AcDbMaterial
  1
ByLayer
 72
     0
 43
0.0208333333333333
 43
0.0
 43
0.0
 43
0.0
 43
0.0
 43
0.0208333333333333
 43
0.0
 43
0.0
 43
0.0
 43
0.0
 43
1.0
 43
0.0
 43
0.0
 43
0.0
 43
0.0
 43
1.0
 77
     0
 47
0.0208333333333333
 47
0.0
 47
0.0
 47
0.0
 47
0.0
 47
0.0208333333333333
 47
0.0
 47
0.0
 47
0.0
 47
0.0
 47
1.0
 47
0.0
 47
0.0
 47
0.0
 47
0.0
 47
1.0
171
     0
 49
0.0208333333333333
 49
0.0
 49
0.0
 49
0.0
 49
0.0
 49
0.0208333333333333
 49
0.0
 49
0.0
 49
0.0
 49
0.0
 49
1.0
 49
0.0
 49
0.0
 49
0.0
 49
0.0
 49
1.0
175
     0
142
0.0208333333333333
142
0.0
142
0.0
142
0.0
142
0.0
142
0.0208333333333333
142
0.0
142
0.0
142
0.0
142
0.0
142
1.0
142
0.0
142
0.0
142
0.0
142
0.0
142
1.0
179
     0
144
0.0208333333333333
144
0.0
144
0.0
144
0.0
144
0.0
144
0.0208333333333333
144
0.0
144
0.0
144
0.0
144
0.0
144
1.0
144
0.0
144
0.0
144
0.0
144
0.0
144
1.0
147
0.0208333333333333
147
0.0
147
0.0
147
0.0
147
0.0
147
0.0208333333333333
147
0.0
147
0.0
147
0.0
147
0.0
147
1.0
147
0.0
147
0.0
147
0.0
147
0.0
147
1.0
  0
MATERIAL
  5
23E3
102
{ACAD_XDICTIONARY
360
23E4
102
}
102
{ACAD_REACTORS
330
23D2
102
}
330
23D2
100
AcDbMaterial
  1
Global
 72
     0
 43
0.0208333333333333
 43
0.0
 43
0.0
 43
0.0
 43
0.0
 43
0.0208333333333333
 43
0.0
 43
0.0
 43
0.0
 43
0.0
 43
1.0
 43
0.0
 43
0.0
 43
0.0
 43
0.0
 43
1.0
 77
     0
 47
0.0208333333333333
 47
0.0
 47
0.0
 47
0.0
 47
0.0
 47
0.0208333333333333
 47
0.0
 47
0.0
 47
0.0
 47
0.0
 47
1.0
 47
0.0
 47
0.0
 47
0.0
 47
0.0
 47
1.0
171
     0
 49
0.0208333333333333
 49
0.0
 49
0.0
 49
0.0
 49
0.0
 49
0.0208333333333333
 49
0.0
 49
0.0
 49
0.0
 49
0.0
 49
1.0
 49
0.0
 49
0.0
 49
0.0
 49
0.0
 49
1.0
175
     0
142
0.0208333333333333
142
0.0
142
0.0
142
0.0
142
0.0
142
0.0208333333333333
142
0.0
142
0.0
142
0.0
142
0.0
142
1.0
142
0.0
142
0.0
142
0.0
142
0.0
142
1.0
179
     0
144
0.0208333333333333
144
0.0
144
0.0
144
0.0
144
0.0
144
0.0208333333333333
144
0.0
144
0.0
144
0.0
144
0.0
144
1.0
144
0.0
144
0.0
144
0.0
144
0.0
144
1.0
147
0.0208333333333333
147
0.0
147
0.0
147
0.0
147
0.0
147
0.0208333333333333
147
0.0
147
0.0
147
0.0
147
0.0
147
1.0
147
0.0
147
0.0
147
0.0
147
0.0
147
1.0
  0
MLEADERSTYLE
  5
2425
102
{ACAD_REACTORS
330
2424
102
}
330
2424
100
AcDbMLeaderStyle
179
     2
170
     2
171
     1
172
     0
 90
        2
 40
0.0
 41
0.0
173
     1
 91
-1056964608
340
12
 92
       -2
290
     1
 42
0.09
291
     1
 43
0.36
  3
Standard
 44
0.18
300

342
10
174
     1
178
     6
175
     1
176
     0
 93
-1056964608
 45
0.18
292
     0
297
     0
 46
0.18
 94
-1056964608
 47
1.0
 49
1.0
140
1.0
293
     1
141
0.0
294
     1
177
     0
142
1.0
295
     1
296
     0
143
0.125
271
     0
272
     9
273
     9
  0
MLINESTYLE
  5
1B
102
{ACAD_REACTORS
330
E
102
}
330
E
100
AcDbMlineStyle
  2
STANDARD
 70
     0
  3

 62
     0
 51
90.0
 52
90.0
 71
     2
 49
0.5
 62
   256
  6
BYLAYER
 49
-0.5
 62
   256
  6
BYLAYER
  0
PLOTSETTINGS
  5
11C
102
{ACAD_REACTORS
330
108
102
}
330
108
100
AcDbPlotSettings
  1
hp-a-fit
  2
HP-5000PLT.pc3
  4
ANSI_A_(8.50_x_11.00_Inches)
  6
BORDER
 40
5.027082920074462
 41
5.027082920074462
 42
9.345077514648437
 43
5.11175537109375
 44
215.8999938964844
 45
279.3999938964844
 46
0.0
 47
0.0
 48
0.0
 49
0.0
140
0.0
141
0.0
142
1.0
143
1.509315367403764
 70
  1712
 72
     0
 73
     1
 74
     3
  7
tps-s1.ctb
 75
     0
147
0.6625520561154433
 76
     0
 77
     2
 78
   300
148
-12.7
149
-19.05
  0
PLOTSETTINGS
  5
11B
102
{ACAD_REACTORS
330
108
102
}
330
108
100
AcDbPlotSettings
  1
hp-B-1-1
  2
HP-5000PLT.pc3
  4
ANSI_B_(11.00_x_17.00_Inches)
  6
BORDER
 40
5.027082920074462
 41
5.027082920074462
 42
9.26043701171875
 43
5.027069091796875
 44
279.3999938964844
 45
431.7999877929687
 46
0.0
 47
0.0
 48
0.0
 49
0.0
140
0.0
141
0.0
142
1.0
143
1.0
 70
  1712
 72
     0
 73
     1
 74
     3
  7
tps-s1.ctb
 75
    16
147
1.0
 76
     0
 77
     2
 78
   300
148
-12.7
149
-19.05
  0
ACDBPLACEHOLDER
  5
106
102
{ACAD_REACTORS
330
105
102
}
330
105
  0
SCALE
  5
2403
102
{ACAD_REACTORS
330
2402
102
}
330
2402
100
AcDbScale
 70
     0
300
1:1
140
1.0
141
1.0
290
     1
  0
SCALE
  5
2404
102
{ACAD_REACTORS
330
2402
102
}
330
2402
100
AcDbScale
 70
     0
300
1:2
140
1.0
141
2.0
290
     0
  0
SCALE
  5
2405
102
{ACAD_REACTORS
330
2402
102
}
330
2402
100
AcDbScale
 70
     0
300
1:4
140
1.0
141
4.0
290
     0
  0
SCALE
  5
2406
102
{ACAD_REACTORS
330
2402
102
}
330
2402
100
AcDbScale
 70
     0
300
1:5
140
1.0
141
5.0
290
     0
  0
SCALE
  5
2407
102
{ACAD_REACTORS
330
2402
102
}
330
2402
100
AcDbScale
 70
     0
300
1:8
140
1.0
141
8.0
290
     0
  0
SCALE
  5
2408
102
{ACAD_REACTORS
330
2402
102
}
330
2402
100
AcDbScale
 70
     0
300
1:10
140
1.0
141
10.0
290
     0
  0
SCALE
  5
2409
102
{ACAD_REACTORS
330
2402
102
}
330
2402
100
AcDbScale
 70
     0
300
1:16
140
1.0
141
16.0
290
     0
  0
SCALE
  5
240A
102
{ACAD_REACTORS
330
2402
102
}
330
2402
100
AcDbScale
 70
     0
300
1:20
140
1.0
141
20.0
290
     0
  0
SCALE
  5
240B
102
{ACAD_REACTORS
330
2402
102
}
330
2402
100
AcDbScale
 70
     0
300
1:30
140
1.0
141
30.0
290
     0
  0
SCALE
  5
240C
102
{ACAD_REACTORS
330
2402
102
}
330
2402
100
AcDbScale
 70
     0
300
1:40
140
1.0
141
40.0
290
     0
  0
SCALE
  5
240D
102
{ACAD_REACTORS
330
2402
102
}
330
2402
100
AcDbScale
 70
     0
300
1:50
140
1.0
141
50.0
290
     0
  0
SCALE
  5
240E
102
{ACAD_REACTORS
330
2402
102
}
330
2402
100
AcDbScale
 70
     0
300
1:100
140
1.0
141
100.0
290
     0
  0
SCALE
  5
240F
102
{ACAD_REACTORS
330
2402
102
}
330
2402
100
AcDbScale
 70
     0
300
2:1
140
2.0
141
1.0
290
     0
  0
SCALE
  5
2410
102
{ACAD_REACTORS
330
2402
102
}
330
2402
100
AcDbScale
 70
     0
300
4:1
140
4.0
141
1.0
290
     0
  0
SCALE
  5
2411
102
{ACAD_REACTORS
330
2402
102
}
330
2402
100
AcDbScale
 70
     0
300
8:1
140
8.0
141
1.0
290
     0
  0
SCALE
  5
2412
102
{ACAD_REACTORS
330
2402
102
}
330
2402
100
AcDbScale
 70
     0
300
10:1
140
10.0
141
1.0
290
     0
  0
SCALE
  5
2413
102
{ACAD_REACTORS
330
2402
102
}
330
2402
100
AcDbScale
 70
     0
300
100:1
140
100.0
141
1.0
290
     0
  0
SCALE
  5
2414
102
{ACAD_REACTORS
330
2402
102
}
330
2402
100
AcDbScale
 70
     0
300
1/128" = 1'-0"
140
0.0078125
141
12.0
290
     0
  0
SCALE
  5
2415
102
{ACAD_REACTORS
330
2402
102
}
330
2402
100
AcDbScale
 70
     0
300
1/64" = 1'-0"
140
0.015625
141
12.0
290
     0
  0
SCALE
  5
2416
102
{ACAD_REACTORS
330
2402
102
}
330
2402
100
AcDbScale
 70
     0
300
1/32" = 1'-0"
140
0.03125
141
12.0
290
     0
  0
SCALE
  5
2417
102
{ACAD_REACTORS
330
2402
102
}
330
2402
100
AcDbScale
 70
     0
300
1/16" = 1'-0"
140
0.0625
141
12.0
290
     0
  0
SCALE
  5
2418
102
{ACAD_REACTORS
330
2402
102
}
330
2402
100
AcDbScale
 70
     0
300
3/32" = 1'-0"
140
0.09375
141
12.0
290
     0
  0
SCALE
  5
2419
102
{ACAD_REACTORS
330
2402
102
}
330
2402
100
AcDbScale
 70
     0
300
1/8" = 1'-0"
140
0.125
141
12.0
290
     0
  0
SCALE
  5
241A
102
{ACAD_REACTORS
330
2402
102
}
330
2402
100
AcDbScale
 70
     0
300
3/16" = 1'-0"
140
0.1875
141
12.0
290
     0
  0
SCALE
  5
241B
102
{ACAD_REACTORS
330
2402
102
}
330
2402
100
AcDbScale
 70
     0
300
1/4" = 1'-0"
140
0.25
141
12.0
290
     0
  0
SCALE
  5
241C
102
{ACAD_REACTORS
330
2402
102
}
330
2402
100
AcDbScale
 70
     0
300
3/8" = 1'-0"
140
0.375
141
12.0
290
     0
  0
SCALE
  5
241D
102
{ACAD_REACTORS
330
2402
102
}
330
2402
100
AcDbScale
 70
     0
300
1/2" = 1'-0"
140
0.5
141
12.0
290
     0
  0
SCALE
  5
241E
102
{ACAD_REACTORS
330
2402
102
}
330
2402
100
AcDbScale
 70
     0
300
3/4" = 1'-0"
140
0.75
141
12.0
290
     0
  0
SCALE
  5
241F
102
{ACAD_REACTORS
330
2402
102
}
330
2402
100
AcDbScale
 70
     0
300
1" = 1'-0"
140
1.0
141
12.0
290
     0
  0
SCALE
  5
2420
102
{ACAD_REACTORS
330
2402
102
}
330
2402
100
AcDbScale
 70
     0
300
1-1/2" = 1'-0"
140
1.5
141
12.0
290
     0
  0
SCALE
  5
2421
102
{ACAD_REACTORS
330
2402
102
}
330
2402
100
AcDbScale
 70
     0
300
3" = 1'-0"
140
3.0
141
12.0
290
     0
  0
SCALE
  5
2422
102
{ACAD_REACTORS
330
2402
102
}
330
2402
100
AcDbScale
 70
     0
300
6" = 1'-0"
140
6.0
141
12.0
290
     0
  0
SCALE
  5
2423
102
{ACAD_REACTORS
330
2402
102
}
330
2402
100
AcDbScale
 70
     0
300
1'-0" = 1'-0"
140
12.0
141
12.0
290
     0
  0
TABLESTYLE
  5
2401
102
{ACAD_XDICTIONARY
360
2455
102
}
102
{ACAD_REACTORS
330
2400
102
}
330
2400
100
AcDbTableStyle
280
     0
  3
Standard
 70
     0
 71
     0
 40
0.06
 41
0.06
280
     0
281
     0
  7
STANDARD
140
0.18
170
     2
 62
     0
 63
     7
283
     0
 90
      512
 91
        0
  1

274
    -2
284
     1
 64
     0
275
    -2
285
     1
 65
     0
276
    -2
286
     1
 66
     0
277
    -2
287
     1
 67
     0
278
    -2
288
     1
 68
     0
279
    -2
289
     1
 69
     0
  7
STANDARD
140
0.25
170
     5
 62
     0
 63
     7
283
     0
 90
      512
 91
        0
  1

274
    -2
284
     1
 64
     0
275
    -2
285
     1
 65
     0
276
    -2
286
     1
 66
     0
277
    -2
287
     1
 67
     0
278
    -2
288
     1
 68
     0
279
    -2
289
     1
 69
     0
  7
STANDARD
140
0.18
170
     5
 62
     0
 63
     7
283
     0
 90
      512
 91
        0
  1

274
    -2
284
     1
 64
     0
275
    -2
285
     1
 65
     0
276
    -2
286
     1
 66
     0
277
    -2
287
     1
 67
     0
278
    -2
288
     1
 68
     0
279
    -2
289
     1
 69
     0
  0
VISUALSTYLE
  5
23F1
102
{ACAD_REACTORS
330
23EB
102
}
330
23EB
100
AcDbVisualStyle
  2
2dWireframe
 70
     4
177
     2
291
     0
 71
     0
176
     1
 72
     2
176
     1
 73
     0
176
     1
 90
        0
176
     1
 40
0.6
176
     1
 41
30.0
176
     1
 63
     7
421
 16777215
176
     1
 74
     1
176
     1
 91
        4
176
     1
 64
     7
176
     1
 65
   257
176
     1
 75
     1
176
     1
175
     1
176
     1
 42
1.0
176
     1
 92
        0
176
     1
 66
   257
176
     1
 43
1.0
176
     1
 76
     1
176
     1
 77
     6
176
     1
 78
     2
176
     1
 67
     7
176
     1
 79
     5
176
     1
170
     0
176
     1
171
     0
176
     1
290
     0
176
     1
 93
        1
176
     1
 44
0.0
176
     1
173
     0
176
     1
  0
VISUALSTYLE
  5
23F3
102
{ACAD_REACTORS
330
23EB
102
}
330
23EB
100
AcDbVisualStyle
  2
3D Hidden
 70
     6
177
     2
291
     0
 71
     1
176
     1
 72
     2
176
     1
 73
     2
176
     1
 90
        0
176
     1
 40
0.6
176
     1
 41
30.0
176
     1
 63
     7
421
 16777215
176
     1
 74
     2
176
     1
 91
        2
176
     1
 64
     7
176
     1
 65
   257
176
     1
 75
     2
176
     1
175
     1
176
     1
 42
179.0
176
     1
 92
        0
176
     1
 66
   257
176
     1
 43
1.0
176
     1
 76
     1
176
     1
 77
     6
176
     1
 78
     2
176
     1
 67
     7
176
     1
 79
     3
176
     1
170
     0
176
     1
171
     0
176
     1
290
     0
176
     1
 93
        1
176
     1
 44
0.0
176
     1
173
     0
176
     1
  0
VISUALSTYLE
  5
23F2
102
{ACAD_REACTORS
330
23EB
102
}
330
23EB
100
AcDbVisualStyle
  2
3dWireframe
 70
     5
177
     2
291
     0
 71
     0
176
     1
 72
     2
176
     1
 73
     0
176
     1
 90
        0
176
     1
 40
0.6
176
     1
 41
30.0
176
     1
 63
     7
421
 16777215
176
     1
 74
     1
176
     1
 91
        4
176
     1
 64
     7
176
     1
 65
   257
176
     1
 75
     1
176
     1
175
     1
176
     1
 42
1.0
176
     1
 92
        0
176
     1
 66
   257
176
     1
 43
1.0
176
     1
 76
     1
176
     1
 77
     6
176
     1
 78
     2
176
     1
 67
     7
176
     1
 79
     5
176
     1
170
     0
176
     1
171
     0
176
     1
290
     0
176
     1
 93
        1
176
     1
 44
0.0
176
     1
173
     0
176
     1
  0
VISUALSTYLE
  5
23F0
102
{ACAD_REACTORS
330
23EB
102
}
330
23EB
100
AcDbVisualStyle
  2
Basic
 70
     7
177
     2
291
     1
 71
     1
176
     1
 72
     0
176
     1
 73
     1
176
     1
 90
        0
176
     1
 40
0.6
176
     1
 41
30.0
176
     1
 63
     7
421
 16777215
176
     1
 74
     0
176
     1
 91
        4
176
     1
 64
     7
176
     1
 65
   257
176
     1
 75
     1
176
     1
175
     1
176
     1
 42
1.0
176
     1
 92
        8
176
     1
 66
     7
176
     1
 43
1.0
176
     1
 76
     1
176
     1
 77
     6
176
     1
 78
     2
176
     1
 67
     7
176
     1
 79
     5
176
     1
170
     0
176
     1
171
     0
176
     1
290
     0
176
     1
 93
        1
176
     1
 44
0.0
176
     1
173
     0
176
     1
  0
VISUALSTYLE
  5
23F7
102
{ACAD_REACTORS
330
23EB
102
}
330
23EB
100
AcDbVisualStyle
  2
Brighten
 70
    12
177
     2
291
     1
 71
     2
176
     1
 72
     2
176
     1
 73
     0
176
     1
 90
        0
176
     1
 40
0.6
176
     1
 41
30.0
176
     1
 63
     7
421
 16777215
176
     1
 74
     1
176
     1
 91
        4
176
     1
 64
     7
176
     1
 65
   257
176
     1
 75
     1
176
     1
175
     1
176
     1
 42
1.0
176
     1
 92
        8
176
     1
 66
     7
176
     1
 43
1.0
176
     1
 76
     1
176
     1
 77
     6
176
     1
 78
     2
176
     1
 67
     7
176
     1
 79
     5
176
     1
170
     0
176
     1
171
     0
176
     1
290
     0
176
     1
 93
        1
176
     1
 44
50.0
176
     1
173
     0
176
     1
  0
VISUALSTYLE
  5
23FB
102
{ACAD_REACTORS
330
23EB
102
}
330
23EB
100
AcDbVisualStyle
  2
ColorChange
 70
    16
177
     2
291
     1
 71
     2
176
     1
 72
     2
176
     1
 73
     3
176
     1
 90
        0
176
     1
 40
0.6
176
     1
 41
30.0
176
     1
 63
     8
421
  8421504
176
     1
 74
     1
176
     1
 91
        4
176
     1
 64
     7
176
     1
 65
   257
176
     1
 75
     1
176
     1
175
     1
176
     1
 42
1.0
176
     1
 92
        8
176
     1
 66
     8
424
  8421504
176
     1
 43
1.0
176
     1
 76
     1
176
     1
 77
     6
176
     1
 78
     2
176
     1
 67
     7
176
     1
 79
     5
176
     1
170
     0
176
     1
171
     0
176
     1
290
     0
176
     1
 93
        1
176
     1
 44
0.0
176
     1
173
     0
176
     1
  0
VISUALSTYLE
  5
23F4
102
{ACAD_REACTORS
330
23EB
102
}
330
23EB
100
AcDbVisualStyle
  2
Conceptual
 70
     9
177
     2
291
     0
 71
     3
176
     1
 72
     2
176
     1
 73
     0
176
     1
 90
        0
176
     1
 40
0.6
176
     1
 41
30.0
176
     1
 63
     7
421
 16777215
176
     1
 74
     2
176
     1
 91
        2
176
     1
 64
     7
176
     1
 65
   257
176
     1
 75
     1
176
     1
175
     1
176
     1
 42
179.0
176
     1
 92
        8
176
     1
 66
     7
176
     1
 43
1.0
176
     1
 76
     1
176
     1
 77
     6
176
     1
 78
     2
176
     1
 67
     7
176
     1
 79
     3
176
     1
170
     0
176
     1
171
     0
176
     1
290
     0
176
     1
 93
        1
176
     1
 44
0.0
176
     1
173
     0
176
     1
  0
VISUALSTYLE
  5
23F6
102
{ACAD_REACTORS
330
23EB
102
}
330
23EB
100
AcDbVisualStyle
  2
Dim
 70
    11
177
     2
291
     1
 71
     2
176
     1
 72
     2
176
     1
 73
     0
176
     1
 90
        0
176
     1
 40
0.6
176
     1
 41
30.0
176
     1
 63
     7
421
 16777215
176
     1
 74
     1
176
     1
 91
        4
176
     1
 64
     7
176
     1
 65
   257
176
     1
 75
     1
176
     1
175
     1
176
     1
 42
1.0
176
     1
 92
        8
176
     1
 66
     7
176
     1
 43
1.0
176
     1
 76
     1
176
     1
 77
     6
176
     1
 78
     2
176
     1
 67
     7
176
     1
 79
     5
176
     1
170
     0
176
     1
171
     0
176
     1
290
     0
176
     1
 93
        1
176
     1
 44
-50.0
176
     1
173
     0
176
     1
  0
VISUALSTYLE
  5
23FE
102
{ACAD_REACTORS
330
23EB
102
}
330
23EB
100
AcDbVisualStyle
  2
EdgeColorOff
 70
    22
177
     2
291
     1
 71
     2
176
     0
 72
     2
176
     0
 73
     0
176
     0
 90
        0
176
     0
 40
0.6
176
     0
 41
30.0
176
     0
 63
     7
421
 16777215
176
     0
 74
     1
176
     0
 91
        4
176
     0
 64
     7
176
     0
 65
   257
176
     0
 75
     1
176
     0
175
     1
176
     0
 42
1.0
176
     0
 92
        8
176
     2
 66
     7
176
     0
 43
1.0
176
     0
 76
     1
176
     0
 77
     6
176
     0
 78
     2
176
     0
 67
     7
176
     0
 79
     5
176
     0
170
     0
176
     0
171
     0
176
     0
290
     0
176
     0
 93
        1
176
     0
 44
0.0
176
     0
173
     0
176
     0
  0
VISUALSTYLE
  5
23FA
102
{ACAD_REACTORS
330
23EB
102
}
330
23EB
100
AcDbVisualStyle
  2
Facepattern
 70
    15
177
     2
291
     1
 71
     2
176
     1
 72
     2
176
     1
 73
     0
176
     1
 90
        0
176
     1
 40
0.6
176
     1
 41
30.0
176
     1
 63
     7
421
 16777215
176
     1
 74
     1
176
     1
 91
        4
176
     1
 64
     7
176
     1
 65
   257
176
     1
 75
     1
176
     1
175
     1
176
     1
 42
1.0
176
     1
 92
        8
176
     1
 66
     7
176
     1
 43
1.0
176
     1
 76
     1
176
     1
 77
     6
176
     1
 78
     2
176
     1
 67
     7
176
     1
 79
     5
176
     1
170
     0
176
     1
171
     0
176
     1
290
     0
176
     1
 93
        1
176
     1
 44
0.0
176
     1
173
     0
176
     1
  0
VISUALSTYLE
  5
23EC
102
{ACAD_REACTORS
330
23EB
102
}
330
23EB
100
AcDbVisualStyle
  2
Flat
 70
     0
177
     2
291
     1
 71
     2
176
     1
 72
     1
176
     1
 73
     1
176
     1
 90
        2
176
     1
 40
0.6
176
     1
 41
30.0
176
     1
 63
     7
421
 16777215
176
     1
 74
     0
176
     1
 91
        4
176
     1
 64
     7
176
     1
 65
   257
176
     1
 75
     1
176
     1
175
     1
176
     1
 42
1.0
176
     1
 92
        8
176
     1
 66
     7
176
     1
 43
1.0
176
     1
 76
     1
176
     1
 77
     6
176
     1
 78
     2
176
     1
 67
     7
176
     1
 79
     5
176
     1
170
     0
176
     1
171
     0
176
     1
290
     0
176
     1
 93
       13
176
     1
 44
0.0
176
     1
173
     0
176
     1
  0
VISUALSTYLE
  5
23ED
102
{ACAD_REACTORS
330
23EB
102
}
330
23EB
100
AcDbVisualStyle
  2
FlatWithEdges
 70
     1
177
     2
291
     1
 71
     2
176
     1
 72
     1
176
     1
 73
     1
176
     1
 90
        2
176
     1
 40
0.6
176
     1
 41
30.0
176
     1
 63
     7
421
 16777215
176
     1
 74
     1
176
     1
 91
        4
176
     1
 64
     7
176
     1
 65
   257
176
     1
 75
     1
176
     1
175
     1
176
     1
 42
1.0
176
     1
 92
        0
176
     1
 66
   257
176
     1
 43
1.0
176
     1
 76
     1
176
     1
 77
     6
176
     1
 78
     2
176
     1
 67
     7
176
     1
 79
     5
176
     1
170
     0
176
     1
171
     0
176
     1
290
     0
176
     1
 93
       13
176
     1
 44
0.0
176
     1
173
     0
176
     1
  0
VISUALSTYLE
  5
23EE
102
{ACAD_REACTORS
330
23EB
102
}
330
23EB
100
AcDbVisualStyle
  2
Gouraud
 70
     2
177
     2
291
     1
 71
     2
176
     1
 72
     2
176
     1
 73
     1
176
     1
 90
        2
176
     1
 40
0.6
176
     1
 41
30.0
176
     1
 63
     7
421
 16777215
176
     1
 74
     0
176
     1
 91
        4
176
     1
 64
     7
176
     1
 65
   257
176
     1
 75
     1
176
     1
175
     1
176
     1
 42
1.0
176
     1
 92
        0
176
     1
 66
     7
176
     1
 43
1.0
176
     1
 76
     1
176
     1
 77
     6
176
     1
 78
     2
176
     1
 67
     7
176
     1
 79
     5
176
     1
170
     0
176
     1
171
     0
176
     1
290
     0
176
     1
 93
       13
176
     1
 44
0.0
176
     1
173
     0
176
     1
  0
VISUALSTYLE
  5
23EF
102
{ACAD_REACTORS
330
23EB
102
}
330
23EB
100
AcDbVisualStyle
  2
GouraudWithEdges
 70
     3
177
     2
291
     1
 71
     2
176
     1
 72
     2
176
     1
 73
     1
176
     1
 90
        2
176
     1
 40
0.6
176
     1
 41
30.0
176
     1
 63
     7
421
 16777215
176
     1
 74
     1
176
     1
 91
        4
176
     1
 64
     7
176
     1
 65
   257
176
     1
 75
     1
176
     1
175
     1
176
     1
 42
1.0
176
     1
 92
        0
176
     1
 66
   257
176
     1
 43
1.0
176
     1
 76
     1
176
     1
 77
     6
176
     1
 78
     2
176
     1
 67
     7
176
     1
 79
     5
176
     1
170
     0
176
     1
171
     0
176
     1
290
     0
176
     1
 93
       13
176
     1
 44
0.0
176
     1
173
     0
176
     1
  0
VISUALSTYLE
  5
23FC
102
{ACAD_REACTORS
330
23EB
102
}
330
23EB
100
AcDbVisualStyle
  2
JitterOff
 70
    20
177
     2
291
     1
 71
     2
176
     0
 72
     2
176
     0
 73
     0
176
     0
 90
        0
176
     0
 40
0.6
176
     0
 41
30.0
176
     0
 63
     7
421
 16777215
176
     0
 74
     1
176
     0
 91
        4
176
     0
 64
     7
176
     0
 65
   257
176
     0
 75
     1
176
     0
175
     1
176
     0
 42
1.0
176
     0
 92
       10
176
     2
 66
     7
176
     0
 43
1.0
176
     0
 76
     1
176
     0
 77
     6
176
     0
 78
     2
176
     0
 67
     7
176
     0
 79
     5
176
     0
170
     0
176
     0
171
     0
176
     0
290
     0
176
     0
 93
        1
176
     0
 44
0.0
176
     0
173
     0
176
     0
  0
VISUALSTYLE
  5
23F9
102
{ACAD_REACTORS
330
23EB
102
}
330
23EB
100
AcDbVisualStyle
  2
Linepattern
 70
    14
177
     2
291
     1
 71
     2
176
     1
 72
     2
176
     1
 73
     0
176
     1
 90
        0
176
     1
 40
0.6
176
     1
 41
30.0
176
     1
 63
     7
421
 16777215
176
     1
 74
     1
176
     1
 91
        4
176
     1
 64
     7
176
     1
 65
   257
176
     1
 75
     7
176
     1
175
     7
176
     1
 42
1.0
176
     1
 92
        8
176
     1
 66
     7
176
     1
 43
1.0
176
     1
 76
     1
176
     1
 77
     6
176
     1
 78
     2
176
     1
 67
     7
176
     1
 79
     5
176
     1
170
     0
176
     1
171
     0
176
     1
290
     0
176
     1
 93
        1
176
     1
 44
0.0
176
     1
173
     0
176
     1
  0
VISUALSTYLE
  5
23FD
102
{ACAD_REACTORS
330
23EB
102
}
330
23EB
100
AcDbVisualStyle
  2
OverhangOff
 70
    21
177
     2
291
     1
 71
     2
176
     0
 72
     2
176
     0
 73
     0
176
     0
 90
        0
176
     0
 40
0.6
176
     0
 41
30.0
176
     0
 63
     7
421
 16777215
176
     0
 74
     1
176
     0
 91
        4
176
     0
 64
     7
176
     0
 65
   257
176
     0
 75
     1
176
     0
175
     1
176
     0
 42
1.0
176
     0
 92
        9
176
     2
 66
     7
176
     0
 43
1.0
176
     0
 76
     1
176
     0
 77
     6
176
     0
 78
     2
176
     0
 67
     7
176
     0
 79
     5
176
     0
170
     0
176
     0
171
     0
176
     0
290
     0
176
     0
 93
        1
176
     0
 44
0.0
176
     0
173
     0
176
     0
  0
VISUALSTYLE
  5
23F5
102
{ACAD_REACTORS
330
23EB
102
}
330
23EB
100
AcDbVisualStyle
  2
Realistic
 70
     8
177
     2
291
     0
 71
     2
176
     1
 72
     2
176
     1
 73
     0
176
     1
 90
        0
176
     1
 40
0.6
176
     1
 41
30.0
176
     1
 63
     7
421
 16777215
176
     1
 74
     1
176
     1
 91
        0
176
     1
 64
     7
176
     1
 65
   257
176
     1
 75
     1
176
     1
175
     1
176
     1
 42
1.0
176
     1
 92
        8
176
     1
 66
     8
424
  7895160
176
     1
 43
1.0
176
     1
 76
     1
176
     1
 77
     6
176
     1
 78
     2
176
     1
 67
     7
176
     1
 79
     5
176
     1
170
     0
176
     1
171
     0
176
     1
290
     0
176
     1
 93
       13
176
     1
 44
0.0
176
     1
173
     0
176
     1
  0
VISUALSTYLE
  5
23F8
102
{ACAD_REACTORS
330
23EB
102
}
330
23EB
100
AcDbVisualStyle
  2
Thicken
 70
    13
177
     2
291
     1
 71
     2
176
     1
 72
     2
176
     1
 73
     0
176
     1
 90
        0
176
     1
 40
0.6
176
     1
 41
30.0
176
     1
 63
     7
421
 16777215
176
     1
 74
     1
176
     1
 91
        4
176
     1
 64
     7
176
     1
 65
   257
176
     1
 75
     1
176
     1
175
     1
176
     1
 42
1.0
176
     1
 92
       12
176
     1
 66
     7
176
     1
 43
1.0
176
     1
 76
     1
176
     1
 77
     6
176
     1
 78
     2
176
     1
 67
     7
176
     1
 79
     5
176
     1
170
     0
176
     1
171
     0
176
     1
290
     0
176
     1
 93
        1
176
     1
 44
0.0
176
     1
173
     0
176
     1
  0
DICTIONARYVAR
  5
2451
102
{ACAD_REACTORS
330
244D
102
}
330
244D
100
DictionaryVariables
280
     0
  1
1:1
  0
DICTIONARYVAR
  5
244F
102
{ACAD_REACTORS
330
244D
102
}
330
244D
100
DictionaryVariables
280
     0
  1
STANDARD
  0
DICTIONARYVAR
  5
244E
102
{ACAD_REACTORS
330
244D
102
}
330
244D
100
DictionaryVariables
280
     0
  1
STANDARD
  0
DICTIONARYVAR
  5
2453
102
{ACAD_REACTORS
330
244D
102
}
330
244D
100
DictionaryVariables
280
     0
  1
1
  0
DICTIONARYVAR
  5
2454
102
{ACAD_REACTORS
330
244D
102
}
330
244D
100
DictionaryVariables
280
     0
  1
15
  0
DICTIONARYVAR
  5
2452
102
{ACAD_REACTORS
330
244D
102
}
330
244D
100
DictionaryVariables
280
     0
  1
0
  0
DICTIONARYVAR
  5
2450
102
{ACAD_REACTORS
330
244D
102
}
330
244D
100
DictionaryVariables
280
     0
  1
0
  0
XRECORD
  5
29E
102
{ACAD_REACTORS
330
29C
102
}
330
29C
100
AcDbXrecord
280
     1
330
0
  0
DICTIONARY
  5
23DC
330
23DB
100
AcDbDictionary
280
     1
281
     1
  3
BUMPTILE
360
23DE
  3
DIFFUSETILE
360
23DD
  3
OPACITYTILE
360
23E1
  3
REFLECTIONTILE
360
23E0
  3
REFRACTIONTILE
360
23E2
  3
SPECULARTILE
360
23DF
  0
DICTIONARY
  5
23D4
330
23D3
100
AcDbDictionary
280
     1
281
     1
  3
BUMPTILE
360
23D6
  3
DIFFUSETILE
360
23D5
  3
OPACITYTILE
360
23D9
  3
REFLECTIONTILE
360
23D8
  3
REFRACTIONTILE
360
23DA
  3
SPECULARTILE
360
23D7
  0
DICTIONARY
  5
23E4
330
23E3
100
AcDbDictionary
280
     1
281
     1
  3
BUMPTILE
360
23E6
  3
DIFFUSETILE
360
23E5
  3
OPACITYTILE
360
23E9
  3
REFLECTIONTILE
360
23E8
  3
REFRACTIONTILE
360
23EA
  3
SPECULARTILE
360
23E7
  0
DICTIONARY
  5
2455
330
2401
100
AcDbDictionary
280
     1
281
     1
  3
ACAD_ROUNDTRIP_2008_TABLESTYLE_CELLSTYLEMAP
360
2456
  0
XRECORD
  5
23DE
102
{ACAD_REACTORS
330
23DC
102
}
330
23DC
100
AcDbXrecord
280
     1
270
     1
271
     1
  0
XRECORD
  5
23DD
102
{ACAD_REACTORS
330
23DC
102
}
330
23DC
100
AcDbXrecord
280
     1
270
     1
271
     1
  0
XRECORD
  5
23E1
102
{ACAD_REACTORS
330
23DC
102
}
330
23DC
100
AcDbXrecord
280
     1
270
     1
271
     1
  0
XRECORD
  5
23E0
102
{ACAD_REACTORS
330
23DC
102
}
330
23DC
100
AcDbXrecord
280
     1
270
     1
271
     1
  0
XRECORD
  5
23E2
102
{ACAD_REACTORS
330
23DC
102
}
330
23DC
100
AcDbXrecord
280
     1
270
     1
271
     1
  0
XRECORD
  5
23DF
102
{ACAD_REACTORS
330
23DC
102
}
330
23DC
100
AcDbXrecord
280
     1
270
     1
271
     1
  0
XRECORD
  5
23D6
102
{ACAD_REACTORS
330
23D4
102
}
330
23D4
100
AcDbXrecord
280
     1
270
     1
271
     1
  0
XRECORD
  5
23D5
102
{ACAD_REACTORS
330
23D4
102
}
330
23D4
100
AcDbXrecord
280
     1
270
     1
271
     1
  0
XRECORD
  5
23D9
102
{ACAD_REACTORS
330
23D4
102
}
330
23D4
100
AcDbXrecord
280
     1
270
     1
271
     1
  0
XRECORD
  5
23D8
102
{ACAD_REACTORS
330
23D4
102
}
330
23D4
100
AcDbXrecord
280
     1
270
     1
271
     1
  0
XRECORD
  5
23DA
102
{ACAD_REACTORS
330
23D4
102
}
330
23D4
100
AcDbXrecord
280
     1
270
     1
271
     1
  0
XRECORD
  5
23D7
102
{ACAD_REACTORS
330
23D4
102
}
330
23D4
100
AcDbXrecord
280
     1
270
     1
271
     1
  0
XRECORD
  5
23E6
102
{ACAD_REACTORS
330
23E4
102
}
330
23E4
100
AcDbXrecord
280
     1
270
     1
271
     1
  0
XRECORD
  5
23E5
102
{ACAD_REACTORS
330
23E4
102
}
330
23E4
100
AcDbXrecord
280
     1
270
     1
271
     1
  0
XRECORD
  5
23E9
102
{ACAD_REACTORS
330
23E4
102
}
330
23E4
100
AcDbXrecord
280
     1
270
     1
271
     1
  0
XRECORD
  5
23E8
102
{ACAD_REACTORS
330
23E4
102
}
330
23E4
100
AcDbXrecord
280
     1
270
     1
271
     1
  0
XRECORD
  5
23EA
102
{ACAD_REACTORS
330
23E4
102
}
330
23E4
100
AcDbXrecord
280
     1
270
     1
271
     1
  0
XRECORD
  5
23E7
102
{ACAD_REACTORS
330
23E4
102
}
330
23E4
100
AcDbXrecord
280
     1
270
     1
271
     1
  0
CELLSTYLEMAP
  5
2456
102
{ACAD_REACTORS
330
2455
102
}
330
2455
100
AcDbCellStyleMap
 90
        3
300
CELLSTYLE
  1
TABLEFORMAT_BEGIN
 90
        5
170
     1
 91
        0
 92
    32768
 62
   257
 93
        1
300
CONTENTFORMAT
  1
CONTENTFORMAT_BEGIN
 90
        0
 91
        0
 92
      512
 93
        0
300

 40
0.0
140
1.0
 94
        5
 62
     0
340
10
144
0.25
309
CONTENTFORMAT_END
171
     0
 94
        0
309
TABLEFORMAT_END
  1
CELLSTYLE_BEGIN
 90
        1
 91
        1
300
_TITLE
309
CELLSTYLE_END
300
CELLSTYLE
  1
TABLEFORMAT_BEGIN
 90
        5
170
     1
 91
        0
 92
        0
 62
   257
 93
        1
300
CONTENTFORMAT
  1
CONTENTFORMAT_BEGIN
 90
        0
 91
        0
 92
      512
 93
        0
300

 40
0.0
140
1.0
 94
        5
 62
     0
340
10
144
0.18
309
CONTENTFORMAT_END
171
     0
 94
        0
309
TABLEFORMAT_END
  1
CELLSTYLE_BEGIN
 90
        2
 91
        1
300
_HEADER
309
CELLSTYLE_END
300
CELLSTYLE
  1
TABLEFORMAT_BEGIN
 90
        5
170
     1
 91
        0
 92
        0
 62
   257
 93
        1
300
CONTENTFORMAT
  1
CONTENTFORMAT_BEGIN
 90
        0
 91
        0
 92
      512
 93
        0
300

 40
0.0
140
1.0
 94
        2
 62
     0
340
10
144
0.18
309
CONTENTFORMAT_END
171
     0
 94
        0
309
TABLEFORMAT_END
  1
CELLSTYLE_BEGIN
 90
        3
 91
        2
300
_DATA
309
CELLSTYLE_END
  0
ENDSEC
  0
EOF
