  0
SECTION
  2
HEADER
  9
$ACADVER
  1
AC1024
  9
$ACADMAINTVER
 70
     6
  9
$DWGCODEPAGE
  3
ANSI_932
  9
$LASTSAVEDBY
  1
Schuyler
  9
$INSBASE
 10
0.0
 20
0.0
 30
0.0
  9
$EXTMIN
 10
214.836885864041
 20
-5.999676172326758
 30
0.0
  9
$EXTMAX
 10
222.8671132055122
 20
0.6807462179658899
 30
0.0
  9
$LIMMIN
 10
0.0
 20
0.0
  9
$LIMMAX
 10
17.0
 20
11.0
  9
$ORTHOMODE
 70
     0
  9
$REGENMODE
 70
     1
  9
$FILLMODE
 70
     1
  9
$QTEXTMODE
 70
     0
  9
$MIRRTEXT
 70
     0
  9
$LTSCALE
 40
3.2
  9
$ATTMODE
 70
     1
  9
$TEXTSIZE
 40
0.1
  9
$TRACEWID
 40
0.05
  9
$TEXTSTYLE
  7
STANDARD
  9
$CLAYER
  8
D
  9
$CELTYPE
  6
BYLAYER
  9
$CECOLOR
 62
   256
  9
$CELTSCALE
 40
1.0
  9
$DISPSILH
 70
     0
  9
$DIMSCALE
 40
0.4
  9
$DIMASZ
 40
0.12
  9
$DIMEXO
 40
0.1
  9
$DIMDLI
 40
0.22
  9
$DIMRND
 40
0.0
  9
$DIMDLE
 40
0.0
  9
$DIMEXE
 40
0.12
  9
$DIMTP
 40
0.0
  9
$DIMTM
 40
0.0
  9
$DIMTXT
 40
0.1
  9
$DIMCEN
 40
0.0
  9
$DIMTSZ
 40
0.0
  9
$DIMTOL
 70
     0
  9
$DIMLIM
 70
     0
  9
$DIMTIH
 70
     0
  9
$DIMTOH
 70
     0
  9
$DIMSE1
 70
     0
  9
$DIMSE2
 70
     0
  9
$DIMTAD
 70
     0
  9
$DIMZIN
 70
     3
  9
$DIMBLK
  1

  9
$DIMASO
 70
     1
  9
$DIMSHO
 70
     0
  9
$DIMPOST
  1

  9
$DIMAPOST
  1

  9
$DIMALT
 70
     0
  9
$DIMALTD
 70
     2
  9
$DIMALTF
 40
25.4
  9
$DIMLFAC
 40
1.0
  9
$DIMTOFL
 70
     0
  9
$DIMTVP
 40
0.0
  9
$DIMTIX
 70
     0
  9
$DIMSOXD
 70
     0
  9
$DIMSAH
 70
     0
  9
$DIMBLK1
  1

  9
$DIMBLK2
  1

  9
$DIMSTYLE
  2
TPS3
  9
$DIMCLRD
 70
     0
  9
$DIMCLRE
 70
     0
  9
$DIMCLRT
 70
     0
  9
$DIMTFAC
 40
1.0
  9
$DIMGAP
 40
0.09
  9
$DIMJUST
 70
     0
  9
$DIMSD1
 70
     0
  9
$DIMSD2
 70
     0
  9
$DIMTOLJ
 70
     1
  9
$DIMTZIN
 70
     3
  9
$DIMALTZ
 70
     0
  9
$DIMALTTZ
 70
     0
  9
$DIMUPT
 70
     0
  9
$DIMDEC
 70
     3
  9
$DIMTDEC
 70
     3
  9
$DIMALTU
 70
     2
  9
$DIMALTTD
 70
     2
  9
$DIMTXSTY
  7
STANDARD
  9
$DIMAUNIT
 70
     0
  9
$DIMADEC
 70
     0
  9
$DIMALTRND
 40
0.0
  9
$DIMAZIN
 70
     0
  9
$DIMDSEP
 70
    46
  9
$DIMATFIT
 70
     3
  9
$DIMFRAC
 70
     0
  9
$DIMLDRBLK
  1

  9
$DIMLUNIT
 70
     2
  9
$DIMLWD
 70
    -2
  9
$DIMLWE
 70
    -2
  9
$DIMTMOVE
 70
     0
  9
$DIMFXL
 40
1.0
  9
$DIMFXLON
 70
     0
  9
$DIMJOGANG
 40
0.7853981633974483
  9
$DIMTFILL
 70
     0
  9
$DIMTFILLCLR
 70
     0
  9
$DIMARCSYM
 70
     0
  9
$DIMLTYPE
  6

  9
$DIMLTEX1
  6

  9
$DIMLTEX2
  6

  9
$DIMTXTDIRECTION
 70
     0
  9
$LUNITS
 70
     2
  9
$LUPREC
 70
     3
  9
$SKETCHINC
 40
0.1
  9
$FILLETRAD
 40
0.0
  9
$AUNITS
 70
     0
  9
$AUPREC
 70
     1
  9
$MENU
  1
ACAD
  9
$ELEVATION
 40
0.0
  9
$PELEVATION
 40
0.0
  9
$THICKNESS
 40
0.0
  9
$LIMCHECK
 70
     0
  9
$CHAMFERA
 40
0.0
  9
$CHAMFERB
 40
0.0
  9
$CHAMFERC
 40
0.0
  9
$CHAMFERD
 40
0.0
  9
$SKPOLY
 70
     0
  9
$TDCREATE
 40
2455057.585952812
  9
$TDUCREATE
 40
2455057.752619480
  9
$TDUPDATE
 40
2455849.034010903
  9
$TDUUPDATE
 40
2455849.200677570
  9
$TDINDWG
 40
11.8504838426
  9
$TDUSRTIMER
 40
11.8504838426
  9
$USRTIMER
 70
     1
  9
$ANGBASE
 50
0.0
  9
$ANGDIR
 70
     0
  9
$PDMODE
 70
     3
  9
$PDSIZE
 40
0.02
  9
$PLINEWID
 40
0.0
  9
$SPLFRAME
 70
     0
  9
$SPLINETYPE
 70
     6
  9
$SPLINESEGS
 70
     8
  9
$HANDSEED
  5
2C86
  9
$SURFTAB1
 70
     6
  9
$SURFTAB2
 70
     6
  9
$SURFTYPE
 70
     6
  9
$SURFU
 70
     6
  9
$SURFV
 70
     6
  9
$UCSBASE
  2

  9
$UCSNAME
  2

  9
$UCSORG
 10
217.0637956006614
 20
-1.390165411011395
 30
0.0
  9
$UCSXDIR
 10
1.0
 20
0.0
 30
0.0
  9
$UCSYDIR
 10
0.0
 20
1.0
 30
0.0
  9
$UCSORTHOREF
  2

  9
$UCSORTHOVIEW
 70
     0
  9
$UCSORGTOP
 10
0.0
 20
0.0
 30
0.0
  9
$UCSORGBOTTOM
 10
0.0
 20
0.0
 30
0.0
  9
$UCSORGLEFT
 10
0.0
 20
0.0
 30
0.0
  9
$UCSORGRIGHT
 10
0.0
 20
0.0
 30
0.0
  9
$UCSORGFRONT
 10
0.0
 20
0.0
 30
0.0
  9
$UCSORGBACK
 10
0.0
 20
0.0
 30
0.0
  9
$PUCSBASE
  2

  9
$PUCSNAME
  2

  9
$PUCSORG
 10
0.0
 20
0.0
 30
0.0
  9
$PUCSXDIR
 10
1.0
 20
0.0
 30
0.0
  9
$PUCSYDIR
 10
0.0
 20
1.0
 30
0.0
  9
$PUCSORTHOREF
  2

  9
$PUCSORTHOVIEW
 70
     0
  9
$PUCSORGTOP
 10
0.0
 20
0.0
 30
0.0
  9
$PUCSORGBOTTOM
 10
0.0
 20
0.0
 30
0.0
  9
$PUCSORGLEFT
 10
0.0
 20
0.0
 30
0.0
  9
$PUCSORGRIGHT
 10
0.0
 20
0.0
 30
0.0
  9
$PUCSORGFRONT
 10
0.0
 20
0.0
 30
0.0
  9
$PUCSORGBACK
 10
0.0
 20
0.0
 30
0.0
  9
$USERI1
 70
     0
  9
$USERI2
 70
     0
  9
$USERI3
 70
     0
  9
$USERI4
 70
     0
  9
$USERI5
 70
     0
  9
$USERR1
 40
0.0
  9
$USERR2
 40
0.0
  9
$USERR3
 40
0.0
  9
$USERR4
 40
0.0
  9
$USERR5
 40
0.0
  9
$WORLDVIEW
 70
     1
  9
$SHADEDGE
 70
     3
  9
$SHADEDIF
 70
    70
  9
$TILEMODE
 70
     1
  9
$MAXACTVP
 70
    16
  9
$PINSBASE
 10
0.0
 20
0.0
 30
0.0
  9
$PLIMCHECK
 70
     0
  9
$PEXTMIN
 10
1.000000000000000E+20
 20
1.000000000000000E+20
 30
1.000000000000000E+20
  9
$PEXTMAX
 10
-1.000000000000000E+20
 20
-1.000000000000000E+20
 30
-1.000000000000000E+20
  9
$PLIMMIN
 10
0.0
 20
0.0
  9
$PLIMMAX
 10
12.0
 20
9.0
  9
$UNITMODE
 70
     0
  9
$VISRETAIN
 70
     0
  9
$PLINEGEN
 70
     0
  9
$PSLTSCALE
 70
     0
  9
$TREEDEPTH
 70
  3020
  9
$CMLSTYLE
  2
STANDARD
  9
$CMLJUST
 70
     0
  9
$CMLSCALE
 40
1.0
  9
$PROXYGRAPHICS
 70
     1
  9
$MEASUREMENT
 70
     0
  9
$CELWEIGHT
370
    -1
  9
$ENDCAPS
280
     0
  9
$JOINSTYLE
280
     0
  9
$LWDISPLAY
290
     0
  9
$INSUNITS
 70
     0
  9
$HYPERLINKBASE
  1

  9
$STYLESHEET
  1
tps-s1_BLACK.ctb
  9
$XEDIT
290
     1
  9
$CEPSNTYPE
380
     0
  9
$PSTYLEMODE
290
     1
  9
$FINGERPRINTGUID
  2
{AF1BFB27-CCE5-11D3-9728-005004AD2079}
  9
$VERSIONGUID
  2
{FE13076D-83D7-4E78-B510-1D0596265FD4}
  9
$EXTNAMES
290
     1
  9
$PSVPSCALE
 40
0.0
  9
$OLESTARTUP
290
     0
  9
$SORTENTS
280
   127
  9
$INDEXCTL
280
     0
  9
$HIDETEXT
280
     0
  9
$XCLIPFRAME
280
     2
  9
$HALOGAP
280
     0
  9
$OBSCOLOR
 70
   257
  9
$OBSLTYPE
280
     0
  9
$INTERSECTIONDISPLAY
280
     0
  9
$INTERSECTIONCOLOR
 70
   257
  9
$DIMASSOC
280
     1
  9
$PROJECTNAME
  1

  9
$CAMERADISPLAY
290
     0
  9
$LENSLENGTH
 40
50.0
  9
$CAMERAHEIGHT
 40
0.0
  9
$STEPSPERSEC
 40
2.0
  9
$STEPSIZE
 40
6.0
  9
$3DDWFPREC
 40
2.0
  9
$PSOLWIDTH
 40
0.25
  9
$PSOLHEIGHT
 40
4.0
  9
$LOFTANG1
 40
1.570796326794896
  9
$LOFTANG2
 40
1.570796326794896
  9
$LOFTMAG1
 40
0.0
  9
$LOFTMAG2
 40
0.0
  9
$LOFTPARAM
 70
     7
  9
$LOFTNORMALS
280
     1
  9
$LATITUDE
 40
37.795
  9
$LONGITUDE
 40
-122.394
  9
$NORTHDIRECTION
 40
0.0
  9
$TIMEZONE
 70
 -8000
  9
$LIGHTGLYPHDISPLAY
280
     1
  9
$TILEMODELIGHTSYNCH
280
     1
  9
$CMATERIAL
347
2C02
  9
$SOLIDHIST
280
     1
  9
$SHOWHIST
280
     1
  9
$DWFFRAME
280
     2
  9
$DGNFRAME
280
     0
  9
$REALWORLDSCALE
290
     1
  9
$INTERFERECOLOR
 62
     1
  9
$INTERFEREOBJVS
345
2C24
  9
$INTERFEREVPVS
346
2C21
  9
$CSHADOW
280
     0
  9
$SHADOWPLANELOCATION
 40
0.0
  0
ENDSEC
  0
SECTION
  2
CLASSES
  0
CLASS
  1
ACDBDICTIONARYWDFLT
  2
AcDbDictionaryWithDefault
  3
ObjectDBX Classes
 90
        0
 91
        1
280
     0
281
     0
  0
CLASS
  1
PLOTSETTINGS
  2
AcDbPlotSettings
  3
ObjectDBX Classes
 90
        0
 91
        2
280
     0
281
     0
  0
CLASS
  1
SORTENTSTABLE
  2
AcDbSortentsTable
  3
ObjectDBX Classes
 90
        0
 91
        1
280
     0
281
     0
  0
CLASS
  1
MATERIAL
  2
AcDbMaterial
  3
ObjectDBX Classes
 90
     1153
 91
        3
280
     0
281
     0
  0
CLASS
  1
VISUALSTYLE
  2
AcDbVisualStyle
  3
ObjectDBX Classes
 90
     4095
 91
       19
280
     0
281
     0
  0
CLASS
  1
TABLESTYLE
  2
AcDbTableStyle
  3
ObjectDBX Classes
 90
     4095
 91
        1
280
     0
281
     0
  0
CLASS
  1
SCALE
  2
AcDbScale
  3
ObjectDBX Classes
 90
     1153
 91
       33
280
     0
281
     0
  0
CLASS
  1
MLEADERSTYLE
  2
AcDbMLeaderStyle
  3
ACDB_MLEADERSTYLE_CLASS
 90
     4095
 91
        1
280
     0
281
     0
  0
CLASS
  1
DICTIONARYVAR
  2
AcDbDictionaryVar
  3
ObjectDBX Classes
 90
        0
 91
        7
280
     0
281
     0
  0
CLASS
  1
CELLSTYLEMAP
  2
AcDbCellStyleMap
  3
ObjectDBX Classes
 90
     1152
 91
        1
280
     0
281
     0
  0
ENDSEC
  0
SECTION
  2
TABLES
  0
TABLE
  2
VPORT
  5
8
330
0
100
AcDbSymbolTable
 70
     1
  0
VPORT
  5
2BFF
330
8
100
AcDbSymbolTableRecord
100
AcDbViewportTableRecord
  2
*Active
 70
     0
 10
0.0
 20
0.0
 11
1.0
 21
1.0
 12
218.9921132055122
 22
-1.377342420474561
 13
0.0
 23
0.0
 14
1.0
 24
1.0
 15
0.0
 25
0.0
 16
0.0
 26
0.0
 36
1.0
 17
0.0
 27
0.0
 37
0.0
 40
5.634107609134608
 41
1.85287610619469
 42
0.0
 43
0.0
 44
0.0
 50
0.0
 51
0.0
 71
     0
 72
   100
 73
     1
 74
     0
 75
     0
 76
     0
 77
     0
 78
     2
281
     0
 65
     1
110
217.0637956006614
120
-1.390165411011395
130
0.0
111
1.0
121
0.0
131
0.0
112
0.0
122
1.0
132
0.0
 79
     0
146
0.0
348
2C20
 60
     3
 61
     5
292
     1
282
     1
141
0.0
142
0.0
 63
   250
421
  3355443
  0
ENDTAB
  0
TABLE
  2
LTYPE
  5
5
330
0
100
AcDbSymbolTable
 70
     4
  0
LTYPE
  5
12
330
5
100
AcDbSymbolTableRecord
100
AcDbLinetypeTableRecord
  2
BYBLOCK
 70
     0
  3

 72
    65
 73
     0
 40
0.0
  0
LTYPE
  5
13
330
5
100
AcDbSymbolTableRecord
100
AcDbLinetypeTableRecord
  2
BYLAYER
 70
     0
  3

 72
    65
 73
     0
 40
0.0
  0
LTYPE
  5
14
330
5
100
AcDbSymbolTableRecord
100
AcDbLinetypeTableRecord
  2
CONTINUOUS
 70
     0
  3
Solid line
 72
    65
 73
     0
 40
0.0
  0
LTYPE
  5
1D
330
5
100
AcDbSymbolTableRecord
100
AcDbLinetypeTableRecord
  2
H
 70
     0
  3
_ _ _ _ _ _ _ _ _ _ _ _ _ _ _ _ _ _ _ _ _ _ _
 72
    65
 73
     2
 40
0.375
 49
0.25
 74
     0
 49
-0.125
 74
     0
  0
LTYPE
  5
1E
330
5
100
AcDbSymbolTableRecord
100
AcDbLinetypeTableRecord
  2
C
 70
     0
  3
____ _ ____ _ ____ _ ____ _ ____ _ ____ _ ____
 72
    65
 73
     4
 40
2.0
 49
1.25
 74
     0
 49
-0.25
 74
     0
 49
0.25
 74
     0
 49
-0.25
 74
     0
  0
LTYPE
  5
726
330
5
100
AcDbSymbolTableRecord
100
AcDbLinetypeTableRecord
  2
ACAD_ISO08W100
 70
     0
  3
ISO long-dash short-dash ____ __ ____ __ ____ _
 72
    65
 73
     4
 40
36.0
 49
24.0
 74
     0
 49
-3.0
 74
     0
 49
6.0
 74
     0
 49
-3.0
 74
     0
  0
ENDTAB
  0
TABLE
  2
LAYER
  5
2
330
0
100
AcDbSymbolTable
 70
    17
  0
LAYER
  5
F
102
{ACAD_XDICTIONARY
360
2C5C
102
}
330
2
100
AcDbSymbolTableRecord
100
AcDbLayerTableRecord
  2
0
 70
     0
 62
     7
  6
CONTINUOUS
370
    -3
390
106
347
2C12
  0
LAYER
  5
24
102
{ACAD_XDICTIONARY
360
2C5E
102
}
330
2
100
AcDbSymbolTableRecord
100
AcDbLayerTableRecord
  2
H
 70
     0
 62
     1
  6
H
370
    -3
390
106
347
2C12
  0
LAYER
  5
25
102
{ACAD_XDICTIONARY
360
2C60
102
}
330
2
100
AcDbSymbolTableRecord
100
AcDbLayerTableRecord
  2
C
 70
     0
 62
     1
  6
C
370
    -3
390
106
347
2C12
  0
LAYER
  5
26
102
{ACAD_XDICTIONARY
360
2C62
102
}
330
2
100
AcDbSymbolTableRecord
100
AcDbLayerTableRecord
  2
BORDER
 70
     0
 62
     3
  6
CONTINUOUS
370
    -3
390
106
347
2C12
  0
LAYER
  5
27
102
{ACAD_XDICTIONARY
360
2C64
102
}
330
2
100
AcDbSymbolTableRecord
100
AcDbLayerTableRecord
  2
X
 70
     0
 62
     1
  6
CONTINUOUS
370
    -3
390
106
347
2C12
  0
LAYER
  5
28
102
{ACAD_XDICTIONARY
360
2C66
102
}
330
2
100
AcDbSymbolTableRecord
100
AcDbLayerTableRecord
  2
T
 70
     0
 62
    50
  6
CONTINUOUS
370
    -3
390
106
347
2C12
  0
LAYER
  5
2A
102
{ACAD_XDICTIONARY
360
2C68
102
}
330
2
100
AcDbSymbolTableRecord
100
AcDbLayerTableRecord
  2
D
 70
     0
 62
     7
  6
CONTINUOUS
370
    -3
390
106
347
2C12
  0
LAYER
  5
371
102
{ACAD_XDICTIONARY
360
2C6A
102
}
330
2
100
AcDbSymbolTableRecord
100
AcDbLayerTableRecord
  2
FRAME 070
 70
     0
 62
     5
  6
CONTINUOUS
370
    -3
390
106
347
2C12
  0
LAYER
  5
372
102
{ACAD_XDICTIONARY
360
2C6C
102
}
330
2
100
AcDbSymbolTableRecord
100
AcDbLayerTableRecord
  2
SECTION
 70
     0
 62
     6
  6
ACAD_ISO08W100
370
    -3
390
106
347
2C12
  0
LAYER
  5
373
102
{ACAD_XDICTIONARY
360
2C6E
102
}
330
2
100
AcDbSymbolTableRecord
100
AcDbLayerTableRecord
  2
FRAME 025
 70
     0
 62
     7
  6
CONTINUOUS
370
    -3
390
106
347
2C12
  0
LAYER
  5
374
102
{ACAD_XDICTIONARY
360
2C70
102
}
330
2
100
AcDbSymbolTableRecord
100
AcDbLayerTableRecord
  2
Title Block
 70
     0
 62
    30
  6
CONTINUOUS
370
    -3
390
106
347
2C12
  0
LAYER
  5
496
102
{ACAD_XDICTIONARY
360
2C72
102
}
330
2
100
AcDbSymbolTableRecord
100
AcDbLayerTableRecord
  2
TITLE BLOCK TEXT
 70
     0
 62
   253
  6
CONTINUOUS
370
    -3
390
106
347
2C12
  0
LAYER
  5
4CC
330
2
100
AcDbSymbolTableRecord
100
AcDbLayerTableRecord
  2
Defpoints
 70
     0
 62
     7
  6
CONTINUOUS
290
     0
370
    -3
390
106
347
2C12
  0
LAYER
  5
4F0
102
{ACAD_XDICTIONARY
360
2C74
102
}
330
2
100
AcDbSymbolTableRecord
100
AcDbLayerTableRecord
  2
ti tubing 075
 70
     0
 62
    41
  6
CONTINUOUS
370
    -3
390
106
347
2C12
  0
LAYER
  5
504
102
{ACAD_XDICTIONARY
360
2C76
102
}
330
2
100
AcDbSymbolTableRecord
100
AcDbLayerTableRecord
  2
ti tubing 2.0
 70
     0
 62
   101
  6
CONTINUOUS
370
    -3
390
106
347
2C12
  0
LAYER
  5
AF7
102
{ACAD_XDICTIONARY
360
AF8
102
}
330
2
100
AcDbSymbolTableRecord
100
AcDbLayerTableRecord
  2
Layer 1
 70
     0
 62
     7
  6
CONTINUOUS
370
    -3
390
106
347
2C12
  0
LAYER
  5
1197
102
{ACAD_XDICTIONARY
360
2C79
102
}
330
2
100
AcDbSymbolTableRecord
100
AcDbLayerTableRecord
  2
PICK
 70
     0
 62
   211
  6
CONTINUOUS
370
    -3
390
106
347
2C12
  0
ENDTAB
  0
TABLE
  2
STYLE
  5
3
330
0
100
AcDbSymbolTable
 70
     6
  0
STYLE
  5
10
330
3
100
AcDbSymbolTableRecord
100
AcDbTextStyleTableRecord
  2
STANDARD
 70
     0
 40
0.0
 41
1.0
 50
0.0
 71
     0
 42
0.1
  3
txt
  4

  0
STYLE
  5
376
330
3
100
AcDbSymbolTableRecord
100
AcDbTextStyleTableRecord
  2
ISO Proportional
 70
     0
 40
0.0
 41
1.0
 50
0.0
 71
     0
 42
2.5
  3
isocp.shx
  4

  0
STYLE
  5
3D0
330
3
100
AcDbSymbolTableRecord
100
AcDbTextStyleTableRecord
  2
Roman
 70
     0
 40
0.0
 41
1.0
 50
0.0
 71
     0
 42
0.065
  3
romans
  4

  0
STYLE
  5
725
330
3
100
AcDbSymbolTableRecord
100
AcDbTextStyleTableRecord
  2

 70
     1
 40
0.0
 41
1.0
 50
0.0
 71
     0
 42
0.1
  3
ltypeshp.shx
  4

  0
STYLE
  5
A85
330
3
100
AcDbSymbolTableRecord
100
AcDbTextStyleTableRecord
  2
Annotative
 70
     0
 40
0.0
 41
1.0
 50
0.0
 71
     0
 42
0.2
  3
ARIAL.TTF
  4

1001
AcadAnnotative
1000
AnnotativeData
1002
{
1070
     1
1070
     1
1002
}
1001
ACAD
1000
Arial
1071
       34
  0
STYLE
  5
A86
330
3
100
AcDbSymbolTableRecord
100
AcDbTextStyleTableRecord
  2
small
 70
     0
 40
0.1
 41
1.0
 50
0.0
 71
     0
 42
0.2
  3
ARIAL.TTF
  4

1001
ACAD
1000
Arial
1071
       34
  0
ENDTAB
  0
TABLE
  2
VIEW
  5
6
330
0
100
AcDbSymbolTable
 70
     1
  0
VIEW
  5
20
330
6
100
AcDbSymbolTableRecord
100
AcDbViewTableRecord
  2
BORDER
 70
     0
 40
4.875
 10
218.9921132055122
 20
-1.75675378203411
 41
7.75
 11
0.0
 21
0.0
 31
1.0
 12
0.0
 22
0.0
 32
0.0
 42
0.0
 43
0.0
 44
0.0
 50
0.0
 71
     0
281
     0
 72
     0
 73
     0
348
2C20
  0
ENDTAB
  0
TABLE
  2
UCS
  5
7
330
0
100
AcDbSymbolTable
 70
     0
  0
ENDTAB
  0
TABLE
  2
APPID
  5
9
330
0
100
AcDbSymbolTable
 70
    11
  0
APPID
  5
11
330
9
100
AcDbSymbolTableRecord
100
AcDbRegAppTableRecord
  2
ACAD
 70
     0
  0
APPID
  5
175
330
9
100
AcDbSymbolTableRecord
100
AcDbRegAppTableRecord
  2
SI-MECH
 70
     0
  0
APPID
  5
29D
330
9
100
AcDbSymbolTableRecord
100
AcDbRegAppTableRecord
  2
DCO15
 70
     0
  0
APPID
  5
A8A
330
9
100
AcDbSymbolTableRecord
100
AcDbRegAppTableRecord
  2
AcadAnnoPO
 70
     0
  0
APPID
  5
A8B
330
9
100
AcDbSymbolTableRecord
100
AcDbRegAppTableRecord
  2
AcadAnnotative
 70
     0
  0
APPID
  5
A8C
330
9
100
AcDbSymbolTableRecord
100
AcDbRegAppTableRecord
  2
ACAD_DSTYLE_DIMJAG
 70
     0
  0
APPID
  5
A8D
330
9
100
AcDbSymbolTableRecord
100
AcDbRegAppTableRecord
  2
ACAD_DSTYLE_DIMTALN
 70
     0
  0
APPID
  5
A8E
330
9
100
AcDbSymbolTableRecord
100
AcDbRegAppTableRecord
  2
ACAD_MLEADERVER
 70
     0
  0
APPID
  5
A8F
330
9
100
AcDbSymbolTableRecord
100
AcDbRegAppTableRecord
  2
ACAD_DSTYLE_DIMBREAK
 70
     0
  0
APPID
  5
A90
330
9
100
AcDbSymbolTableRecord
100
AcDbRegAppTableRecord
  2
ACAD_EXEMPT_FROM_CAD_STANDARDS
 70
     0
  0
APPID
  5
A91
330
9
100
AcDbSymbolTableRecord
100
AcDbRegAppTableRecord
  2
ACAD_DSTYLE_DIMRADIAL_EXTENSION
 70
     0
  0
ENDTAB
  0
TABLE
  2
DIMSTYLE
  5
A
330
0
100
AcDbSymbolTable
 70
     5
100
AcDbDimStyleTable
 71
     2
340
49A
340
8C
  0
DIMSTYLE
105
8C
330
A
100
AcDbSymbolTableRecord
100
AcDbDimStyleTableRecord
  2
THREE
 70
     0
 41
0.12
 42
0.1
 43
0.22
 44
0.12
 73
     0
 78
     3
140
0.1
141
0.0
271
     3
272
     3
284
     3
340
10
  0
DIMSTYLE
105
49A
102
{ACAD_REACTORS
330
11A2
330
290A
330
2913
330
291C
330
2925
330
2933
330
293C
330
2945
330
2950
330
295B
330
2966
330
2971
330
297C
330
2987
330
2992
330
299B
330
29A6
330
29B1
330
29BC
330
29C7
330
29D2
330
29DD
330
29E8
330
29F3
330
29FE
330
2A09
330
2A12
330
2A1D
330
2A26
330
2A31
330
2A3A
330
2A43
330
2A4C
330
2A57
330
2A69
330
2A7B
330
2AA6
330
2ABF
330
2ADC
330
2AE7
330
2AF2
330
2B04
330
2B1D
330
2B36
330
2B3F
330
2B48
330
2B51
330
2B5A
330
2B63
330
2B6C
330
2B7A
330
2B83
330
2B8C
330
2B95
330
2B9E
330
2BB6
102
}
330
A
100
AcDbSymbolTableRecord
100
AcDbDimStyleTableRecord
  2
TPS3
 70
     0
 40
0.4
 41
0.12
 42
0.1
 43
0.22
 44
0.12
 73
     0
 74
     0
 78
     3
140
0.1
141
0.0
271
     3
272
     3
284
     3
340
10
  0
DIMSTYLE
105
A87
330
A
100
AcDbSymbolTableRecord
100
AcDbDimStyleTableRecord
  2
Standard
 70
     0
340
10
  0
DIMSTYLE
105
A88
330
A
100
AcDbSymbolTableRecord
100
AcDbDimStyleTableRecord
  2
Annotative
 70
     0
 40
0.0
340
10
1001
AcadAnnotative
1000
AnnotativeData
1002
{
1070
     1
1070
     1
1002
}
1001
ACAD_DSTYLE_DIMJAG
1070
   388
1040
1.5
1001
ACAD_DSTYLE_DIMTALN
1070
   392
1070
     0
  0
DIMSTYLE
105
A89
102
{ACAD_REACTORS
330
AA8
330
AAA
330
AAC
330
AAE
330
AB0
330
AB2
330
AB4
330
AB6
330
AB8
330
ABA
330
ABC
330
ABE
330
ACD
330
ACF
330
AD1
330
AD3
330
AD5
330
AD7
102
}
330
A
100
AcDbSymbolTableRecord
100
AcDbDimStyleTableRecord
  2
small
 70
     0
 41
0.075
140
0.1
175
     1
279
     1
340
A86
1001
ACAD_DSTYLE_DIMBREAK
1070
   391
1040
0.125
1001
ACAD_DSTYLE_DIMJAG
1070
   388
1040
1.5
1001
ACAD_DSTYLE_DIMTALN
1070
   392
1070
     0
  0
ENDTAB
  0
TABLE
  2
BLOCK_RECORD
  5
1
330
0
100
AcDbSymbolTable
 70
    78
  0
BLOCK_RECORD
  5
18
330
1
100
AcDbSymbolTableRecord
100
AcDbBlockTableRecord
  2
*MODEL_SPACE
340
109
 70
     0
280
     1
281
     0
  0
BLOCK_RECORD
  5
15
330
1
100
AcDbSymbolTableRecord
100
AcDbBlockTableRecord
  2
*PAPER_SPACE
340
10A
 70
     0
280
     1
281
     0
  0
BLOCK_RECORD
  5
9A4
102
{ACAD_XDICTIONARY
360
9AD
102
}
330
1
100
AcDbSymbolTableRecord
100
AcDbBlockTableRecord
  2
A$C0F5103D6
340
0
 70
     1
280
     1
281
     0
  0
BLOCK_RECORD
  5
9B1
330
1
100
AcDbSymbolTableRecord
100
AcDbBlockTableRecord
  2
*D1
340
0
 70
     0
280
     1
281
     0
  0
BLOCK_RECORD
  5
9BE
330
1
100
AcDbSymbolTableRecord
100
AcDbBlockTableRecord
  2
*D2
340
0
 70
     0
280
     1
281
     0
  0
BLOCK_RECORD
  5
9CC
330
1
100
AcDbSymbolTableRecord
100
AcDbBlockTableRecord
  2
*D3
340
0
 70
     0
280
     1
281
     0
  0
BLOCK_RECORD
  5
9D9
330
1
100
AcDbSymbolTableRecord
100
AcDbBlockTableRecord
  2
*D4
340
0
 70
     0
280
     1
281
     0
  0
BLOCK_RECORD
  5
9E5
330
1
100
AcDbSymbolTableRecord
100
AcDbBlockTableRecord
  2
*D5
340
0
 70
     0
280
     1
281
     0
  0
BLOCK_RECORD
  5
9EE
330
1
100
AcDbSymbolTableRecord
100
AcDbBlockTableRecord
  2
*D6
340
0
 70
     0
280
     1
281
     0
  0
BLOCK_RECORD
  5
9FB
330
1
100
AcDbSymbolTableRecord
100
AcDbBlockTableRecord
  2
*D7
340
0
 70
     0
280
     1
281
     0
  0
BLOCK_RECORD
  5
A07
330
1
100
AcDbSymbolTableRecord
100
AcDbBlockTableRecord
  2
*D8
340
0
 70
     0
280
     1
281
     0
  0
BLOCK_RECORD
  5
A12
330
1
100
AcDbSymbolTableRecord
100
AcDbBlockTableRecord
  2
*D9
340
0
 70
     0
280
     1
281
     0
  0
BLOCK_RECORD
  5
A1B
330
1
100
AcDbSymbolTableRecord
100
AcDbBlockTableRecord
  2
*D10
340
0
 70
     0
280
     1
281
     0
  0
BLOCK_RECORD
  5
A26
330
1
100
AcDbSymbolTableRecord
100
AcDbBlockTableRecord
  2
*D11
340
0
 70
     0
280
     1
281
     0
  0
BLOCK_RECORD
  5
A32
330
1
100
AcDbSymbolTableRecord
100
AcDbBlockTableRecord
  2
*D12
340
0
 70
     0
280
     1
281
     0
  0
BLOCK_RECORD
  5
A3B
330
1
100
AcDbSymbolTableRecord
100
AcDbBlockTableRecord
  2
*D13
340
0
 70
     0
280
     1
281
     0
  0
BLOCK_RECORD
  5
A47
330
1
100
AcDbSymbolTableRecord
100
AcDbBlockTableRecord
  2
*D14
340
0
 70
     0
280
     1
281
     0
  0
BLOCK_RECORD
  5
A54
330
1
100
AcDbSymbolTableRecord
100
AcDbBlockTableRecord
  2
*D15
340
0
 70
     0
280
     1
281
     0
  0
BLOCK_RECORD
  5
A60
330
1
100
AcDbSymbolTableRecord
100
AcDbBlockTableRecord
  2
*D16
340
0
 70
     0
280
     1
281
     0
  0
BLOCK_RECORD
  5
A6C
330
1
100
AcDbSymbolTableRecord
100
AcDbBlockTableRecord
  2
*D17
340
0
 70
     0
280
     1
281
     0
  0
BLOCK_RECORD
  5
A79
330
1
100
AcDbSymbolTableRecord
100
AcDbBlockTableRecord
  2
*D18
340
0
 70
     0
280
     1
281
     0
  0
BLOCK_RECORD
  5
A92
330
1
100
AcDbSymbolTableRecord
100
AcDbBlockTableRecord
  2
smaller diamond
340
0
 70
     0
280
     1
281
     0
  0
BLOCK_RECORD
  5
11A3
330
1
100
AcDbSymbolTableRecord
100
AcDbBlockTableRecord
  2
*D20
340
0
 70
     0
280
     1
281
     0
  0
BLOCK_RECORD
  5
17BC
330
1
100
AcDbSymbolTableRecord
100
AcDbBlockTableRecord
  2
A$C34542D0D
340
0
 70
     0
280
     1
281
     0
  0
BLOCK_RECORD
  5
1A8F
330
1
100
AcDbSymbolTableRecord
100
AcDbBlockTableRecord
  2
A$C38DA0378
340
0
 70
     0
280
     1
281
     0
  0
BLOCK_RECORD
  5
290B
330
1
100
AcDbSymbolTableRecord
100
AcDbBlockTableRecord
  2
*D23
340
0
 70
     0
280
     1
281
     0
  0
BLOCK_RECORD
  5
2914
330
1
100
AcDbSymbolTableRecord
100
AcDbBlockTableRecord
  2
*D24
340
0
 70
     0
280
     1
281
     0
  0
BLOCK_RECORD
  5
291D
330
1
100
AcDbSymbolTableRecord
100
AcDbBlockTableRecord
  2
*D25
340
0
 70
     0
280
     1
281
     0
  0
BLOCK_RECORD
  5
2926
330
1
100
AcDbSymbolTableRecord
100
AcDbBlockTableRecord
  2
*D26
340
0
 70
     0
280
     1
281
     0
  0
BLOCK_RECORD
  5
2934
330
1
100
AcDbSymbolTableRecord
100
AcDbBlockTableRecord
  2
*D27
340
0
 70
     0
280
     1
281
     0
  0
BLOCK_RECORD
  5
293D
330
1
100
AcDbSymbolTableRecord
100
AcDbBlockTableRecord
  2
*D28
340
0
 70
     0
280
     1
281
     0
  0
BLOCK_RECORD
  5
2946
330
1
100
AcDbSymbolTableRecord
100
AcDbBlockTableRecord
  2
*D29
340
0
 70
     0
280
     1
281
     0
  0
BLOCK_RECORD
  5
2951
330
1
100
AcDbSymbolTableRecord
100
AcDbBlockTableRecord
  2
*D30
340
0
 70
     0
280
     1
281
     0
  0
BLOCK_RECORD
  5
295C
330
1
100
AcDbSymbolTableRecord
100
AcDbBlockTableRecord
  2
*D31
340
0
 70
     0
280
     1
281
     0
  0
BLOCK_RECORD
  5
2967
330
1
100
AcDbSymbolTableRecord
100
AcDbBlockTableRecord
  2
*D32
340
0
 70
     0
280
     1
281
     0
  0
BLOCK_RECORD
  5
2972
330
1
100
AcDbSymbolTableRecord
100
AcDbBlockTableRecord
  2
*D33
340
0
 70
     0
280
     1
281
     0
  0
BLOCK_RECORD
  5
297D
330
1
100
AcDbSymbolTableRecord
100
AcDbBlockTableRecord
  2
*D34
340
0
 70
     0
280
     1
281
     0
  0
BLOCK_RECORD
  5
2988
330
1
100
AcDbSymbolTableRecord
100
AcDbBlockTableRecord
  2
*D35
340
0
 70
     0
280
     1
281
     0
  0
BLOCK_RECORD
  5
2993
330
1
100
AcDbSymbolTableRecord
100
AcDbBlockTableRecord
  2
*D36
340
0
 70
     0
280
     1
281
     0
  0
BLOCK_RECORD
  5
299C
330
1
100
AcDbSymbolTableRecord
100
AcDbBlockTableRecord
  2
*D37
340
0
 70
     0
280
     1
281
     0
  0
BLOCK_RECORD
  5
29A7
330
1
100
AcDbSymbolTableRecord
100
AcDbBlockTableRecord
  2
*D38
340
0
 70
     0
280
     1
281
     0
  0
BLOCK_RECORD
  5
29B2
330
1
100
AcDbSymbolTableRecord
100
AcDbBlockTableRecord
  2
*D39
340
0
 70
     0
280
     1
281
     0
  0
BLOCK_RECORD
  5
29BD
330
1
100
AcDbSymbolTableRecord
100
AcDbBlockTableRecord
  2
*D40
340
0
 70
     0
280
     1
281
     0
  0
BLOCK_RECORD
  5
29C8
330
1
100
AcDbSymbolTableRecord
100
AcDbBlockTableRecord
  2
*D41
340
0
 70
     0
280
     1
281
     0
  0
BLOCK_RECORD
  5
29D3
330
1
100
AcDbSymbolTableRecord
100
AcDbBlockTableRecord
  2
*D42
340
0
 70
     0
280
     1
281
     0
  0
BLOCK_RECORD
  5
29DE
330
1
100
AcDbSymbolTableRecord
100
AcDbBlockTableRecord
  2
*D43
340
0
 70
     0
280
     1
281
     0
  0
BLOCK_RECORD
  5
29E9
330
1
100
AcDbSymbolTableRecord
100
AcDbBlockTableRecord
  2
*D44
340
0
 70
     0
280
     1
281
     0
  0
BLOCK_RECORD
  5
29F4
330
1
100
AcDbSymbolTableRecord
100
AcDbBlockTableRecord
  2
*D45
340
0
 70
     0
280
     1
281
     0
  0
BLOCK_RECORD
  5
29FF
330
1
100
AcDbSymbolTableRecord
100
AcDbBlockTableRecord
  2
*D46
340
0
 70
     0
280
     1
281
     0
  0
BLOCK_RECORD
  5
2A0A
330
1
100
AcDbSymbolTableRecord
100
AcDbBlockTableRecord
  2
*D47
340
0
 70
     0
280
     1
281
     0
  0
BLOCK_RECORD
  5
2A13
330
1
100
AcDbSymbolTableRecord
100
AcDbBlockTableRecord
  2
*D48
340
0
 70
     0
280
     1
281
     0
  0
BLOCK_RECORD
  5
2A1E
330
1
100
AcDbSymbolTableRecord
100
AcDbBlockTableRecord
  2
*D49
340
0
 70
     0
280
     1
281
     0
  0
BLOCK_RECORD
  5
2A27
330
1
100
AcDbSymbolTableRecord
100
AcDbBlockTableRecord
  2
*D50
340
0
 70
     0
280
     1
281
     0
  0
BLOCK_RECORD
  5
2A32
330
1
100
AcDbSymbolTableRecord
100
AcDbBlockTableRecord
  2
*D51
340
0
 70
     0
280
     1
281
     0
  0
BLOCK_RECORD
  5
2A3B
330
1
100
AcDbSymbolTableRecord
100
AcDbBlockTableRecord
  2
*D52
340
0
 70
     0
280
     1
281
     0
  0
BLOCK_RECORD
  5
2A44
330
1
100
AcDbSymbolTableRecord
100
AcDbBlockTableRecord
  2
*D53
340
0
 70
     0
280
     1
281
     0
  0
BLOCK_RECORD
  5
2A4D
330
1
100
AcDbSymbolTableRecord
100
AcDbBlockTableRecord
  2
*D54
340
0
 70
     0
280
     1
281
     0
  0
BLOCK_RECORD
  5
2A58
330
1
100
AcDbSymbolTableRecord
100
AcDbBlockTableRecord
  2
*D55
340
0
 70
     0
280
     1
281
     0
  0
BLOCK_RECORD
  5
2A6A
330
1
100
AcDbSymbolTableRecord
100
AcDbBlockTableRecord
  2
*D56
340
0
 70
     0
280
     1
281
     0
  0
BLOCK_RECORD
  5
2A7C
330
1
100
AcDbSymbolTableRecord
100
AcDbBlockTableRecord
  2
*D57
340
0
 70
     0
280
     1
281
     0
  0
BLOCK_RECORD
  5
2AA7
330
1
100
AcDbSymbolTableRecord
100
AcDbBlockTableRecord
  2
*D58
340
0
 70
     0
280
     1
281
     0
  0
BLOCK_RECORD
  5
2AC0
330
1
100
AcDbSymbolTableRecord
100
AcDbBlockTableRecord
  2
*D59
340
0
 70
     0
280
     1
281
     0
  0
BLOCK_RECORD
  5
2ADD
330
1
100
AcDbSymbolTableRecord
100
AcDbBlockTableRecord
  2
*D60
340
0
 70
     0
280
     1
281
     0
  0
BLOCK_RECORD
  5
2AE8
330
1
100
AcDbSymbolTableRecord
100
AcDbBlockTableRecord
  2
*D61
340
0
 70
     0
280
     1
281
     0
  0
BLOCK_RECORD
  5
2AF3
330
1
100
AcDbSymbolTableRecord
100
AcDbBlockTableRecord
  2
*D62
340
0
 70
     0
280
     1
281
     0
  0
BLOCK_RECORD
  5
2B05
330
1
100
AcDbSymbolTableRecord
100
AcDbBlockTableRecord
  2
*D63
340
0
 70
     0
280
     1
281
     0
  0
BLOCK_RECORD
  5
2B1E
330
1
100
AcDbSymbolTableRecord
100
AcDbBlockTableRecord
  2
*D64
340
0
 70
     0
280
     1
281
     0
  0
BLOCK_RECORD
  5
2B37
330
1
100
AcDbSymbolTableRecord
100
AcDbBlockTableRecord
  2
*D65
340
0
 70
     0
280
     1
281
     0
  0
BLOCK_RECORD
  5
2B40
330
1
100
AcDbSymbolTableRecord
100
AcDbBlockTableRecord
  2
*D66
340
0
 70
     0
280
     1
281
     0
  0
BLOCK_RECORD
  5
2B49
330
1
100
AcDbSymbolTableRecord
100
AcDbBlockTableRecord
  2
*D67
340
0
 70
     0
280
     1
281
     0
  0
BLOCK_RECORD
  5
2B52
330
1
100
AcDbSymbolTableRecord
100
AcDbBlockTableRecord
  2
*D68
340
0
 70
     0
280
     1
281
     0
  0
BLOCK_RECORD
  5
2B5B
330
1
100
AcDbSymbolTableRecord
100
AcDbBlockTableRecord
  2
*D69
340
0
 70
     0
280
     1
281
     0
  0
BLOCK_RECORD
  5
2B64
330
1
100
AcDbSymbolTableRecord
100
AcDbBlockTableRecord
  2
*D70
340
0
 70
     0
280
     1
281
     0
  0
BLOCK_RECORD
  5
2B6D
330
1
100
AcDbSymbolTableRecord
100
AcDbBlockTableRecord
  2
*D71
340
0
 70
     0
280
     1
281
     0
  0
BLOCK_RECORD
  5
2B7B
330
1
100
AcDbSymbolTableRecord
100
AcDbBlockTableRecord
  2
*D72
340
0
 70
     0
280
     1
281
     0
  0
BLOCK_RECORD
  5
2B84
330
1
100
AcDbSymbolTableRecord
100
AcDbBlockTableRecord
  2
*D73
340
0
 70
     0
280
     1
281
     0
  0
BLOCK_RECORD
  5
2B8D
330
1
100
AcDbSymbolTableRecord
100
AcDbBlockTableRecord
  2
*D74
340
0
 70
     0
280
     1
281
     0
  0
BLOCK_RECORD
  5
2B96
330
1
100
AcDbSymbolTableRecord
100
AcDbBlockTableRecord
  2
*D75
340
0
 70
     0
280
     1
281
     0
  0
BLOCK_RECORD
  5
2B9F
330
1
100
AcDbSymbolTableRecord
100
AcDbBlockTableRecord
  2
*D76
340
0
 70
     0
280
     1
281
     0
  0
BLOCK_RECORD
  5
2BB7
330
1
100
AcDbSymbolTableRecord
100
AcDbBlockTableRecord
  2
*D77
340
0
 70
     0
280
     1
281
     0
  0
ENDTAB
  0
ENDSEC
  0
SECTION
  2
BLOCKS
  0
BLOCK
  5
2E
330
18
100
AcDbEntity
  8
0
100
AcDbBlockBegin
  2
*MODEL_SPACE
 70
     0
 10
0.0
 20
0.0
 30
0.0
  3
*MODEL_SPACE
  1

  0
ENDBLK
  5
2F
330
18
100
AcDbEntity
  8
0
100
AcDbBlockEnd
  0
BLOCK
  5
2C
330
15
100
AcDbEntity
 67
     1
  8
0
100
AcDbBlockBegin
  2
*PAPER_SPACE
 70
     0
 10
0.0
 20
0.0
 30
0.0
  3
*PAPER_SPACE
  1

  0
ENDBLK
  5
2D
330
15
100
AcDbEntity
 67
     1
  8
0
100
AcDbBlockEnd
  0
BLOCK
  5
9AF
330
9A4
100
AcDbEntity
  8
0
100
AcDbBlockBegin
  2
A$C0F5103D6
 70
     0
 10
0.0
 20
0.0
 30
0.0
  3
A$C0F5103D6
  1

  0
LINE
  5
9A5
330
9A4
100
AcDbEntity
  8
0
100
AcDbLine
 10
3.253499989579381
 20
0.0000000021285
 30
0.0
 11
0.3229999895793227
 21
0.0000000021285
 31
0.0
  0
LINE
  5
9A6
330
9A4
100
AcDbEntity
  8
0
100
AcDbLine
 10
3.253499989579381
 20
0.3110000021285
 30
0.0
 11
0.4719999895793308
 21
0.3110000021285
 31
0.0
  0
LINE
  5
9A7
330
9A4
100
AcDbEntity
  8
0
100
AcDbLine
 10
3.373999989579374
 20
0.1205000021285016
 30
0.0
 11
3.373999989579374
 21
0.1905000021285001
 31
0.0
  0
ARC
  5
9A8
330
9A4
100
AcDbEntity
  8
0
100
AcDbCircle
 10
0.5078057429737122
 20
-0.502315340256379
 30
0.0
 40
0.8141031250000029
100
AcDbArc
 50
92.52078695624824
 51
128.5913034829189
  0
ARC
  5
9A9
330
9A4
100
AcDbEntity
  8
0
100
AcDbCircle
 10
0.0118740707862202
 20
-0.0780302730723541
 30
0.0
 40
0.2123625000000159
100
AcDbArc
 50
43.07360366990042
 51
93.20531985652186
  0
ARC
  5
9AA
330
9A4
100
AcDbEntity
  8
0
100
AcDbCircle
 10
0.3160879185601928
 20
0.1990181651286154
 30
0.0
 40
0.1991381578947491
100
AcDbArc
 50
221.5250625290709
 51
271.989131899025
  0
ARC
  5
9AB
330
9A4
100
AcDbEntity
  8
0
100
AcDbCircle
 10
3.253499989579381
 20
0.1905000021285001
 30
0.0
 40
0.1204999999999998
100
AcDbArc
 50
0.0
 51
90.0
  0
ARC
  5
9AC
330
9A4
100
AcDbEntity
  8
0
100
AcDbCircle
 10
3.253499989579381
 20
0.1205000021284999
 30
0.0
 40
0.1204999999999998
100
AcDbArc
 50
270.0
 51
0.0000000000010178
  0
ENDBLK
  5
9B0
330
9A4
100
AcDbEntity
  8
0
100
AcDbBlockEnd
  0
BLOCK
  5
9BC
330
9B1
100
AcDbEntity
  8
0
100
AcDbBlockBegin
  2
*D1
 70
     1
 10
0.0
 20
0.0
 30
0.0
  3
*D1
  1

  0
LINE
  5
9B2
330
9B1
100
AcDbEntity
  8
0
 62
     0
370
    -2
100
AcDbLine
 10
24.37285187699105
 20
4.846800853362636
 30
0.0
 11
24.37285187699105
 21
5.142679484341527
 31
0.0
  0
LINE
  5
9B3
330
9B1
100
AcDbEntity
  8
0
 62
     0
370
    -2
100
AcDbLine
 10
21.57235591469699
 20
4.846800853362636
 30
0.0
 11
21.57235591469699
 21
5.142679484341527
 31
0.0
  0
LINE
  5
9B4
330
9B1
100
AcDbEntity
  8
0
 62
     0
370
    -2
100
AcDbLine
 10
24.29785187699105
 20
4.962679484341528
 30
0.0
 11
23.27140335014143
 21
4.962679484341528
 31
0.0
  0
LINE
  5
9B5
330
9B1
100
AcDbEntity
  8
0
 62
     0
370
    -2
100
AcDbLine
 10
21.64735591469698
 20
4.962679484341528
 30
0.0
 11
22.67380444154661
 21
4.962679484341528
 31
0.0
  0
SOLID
  5
9B6
330
9B1
100
AcDbEntity
  8
0
 62
     0
100
AcDbTrace
 10
24.29785187699105
 20
4.975179484341528
 30
0.0
 11
24.29785187699105
 21
4.950179484341528
 31
0.0
 12
24.37285187699105
 22
4.962679484341528
 32
0.0
 13
24.37285187699105
 23
4.962679484341528
 33
0.0
  0
SOLID
  5
9B7
330
9B1
100
AcDbEntity
  8
0
 62
     0
100
AcDbTrace
 10
21.64735591469698
 20
4.975179484341528
 30
0.0
 11
21.64735591469698
 21
4.950179484341528
 31
0.0
 12
21.57235591469699
 22
4.962679484341528
 32
0.0
 13
21.57235591469699
 23
4.962679484341528
 33
0.0
  0
MTEXT
  5
9B8
330
9B1
100
AcDbEntity
  8
0
 62
     0
100
AcDbMText
 10
22.97260389584402
 20
4.962679484341528
 30
0.0
 40
0.1
 41
0.0
 46
0.0
 71
     5
 72
     1
  1
\A1;2.8005
  7
small
 73
     1
 44
1.0
  0
POINT
  5
9B9
330
9B1
100
AcDbEntity
  8
Defpoints
 62
     0
100
AcDbPoint
 10
24.37285187699105
 20
4.784300853362636
 30
0.0
  0
POINT
  5
9BA
330
9B1
100
AcDbEntity
  8
Defpoints
 62
     0
100
AcDbPoint
 10
21.57235591469699
 20
4.784300853362636
 30
0.0
  0
POINT
  5
9BB
330
9B1
100
AcDbEntity
  8
Defpoints
 62
     0
100
AcDbPoint
 10
21.57235591469699
 20
4.962679484341528
 30
0.0
  0
ENDBLK
  5
9BD
330
9B1
100
AcDbEntity
  8
0
100
AcDbBlockEnd
  0
BLOCK
  5
9CA
330
9BE
100
AcDbEntity
  8
0
100
AcDbBlockBegin
  2
*D2
 70
     1
 10
0.0
 20
0.0
 30
0.0
  3
*D2
  1

  0
LINE
  5
9BF
330
9BE
100
AcDbEntity
  8
0
 62
     0
370
    -2
100
AcDbLine
 10
21.10035591469701
 20
4.669800853362635
 30
0.0
 11
21.10035591469701
 21
5.149449103713417
 31
0.0
  0
LINE
  5
9C0
330
9BE
100
AcDbEntity
  8
0
 62
     0
370
    -2
100
AcDbLine
 10
21.57235591469699
 20
5.025179484341528
 30
0.0
 11
21.57235591469699
 21
5.149449103713417
 31
0.0
  0
LINE
  5
9C1
330
9BE
100
AcDbEntity
  8
0
 62
     0
370
    -2
100
AcDbLine
 10
21.17535591469701
 20
4.969449103713417
 30
0.0
 11
21.49735591469699
 21
4.969449103713417
 31
0.0
  0
LINE
  5
9C2
330
9BE
100
AcDbEntity
  8
0
 62
     0
370
    -2
100
AcDbLine
 10
21.33635591469699
 20
4.969449103713417
 30
0.0
 11
21.33635591469699
 21
5.296563701257755
 31
0.0
  0
LINE
  5
9C3
330
9BE
100
AcDbEntity
  8
0
 62
     0
370
    -2
100
AcDbLine
 10
21.33635591469699
 20
5.296563701257755
 30
0.0
 11
21.516355914697
 21
5.296563701257755
 31
0.0
  0
MTEXT
  5
9C4
330
9BE
100
AcDbEntity
  8
0
 62
     0
100
AcDbMText
 10
21.81375700610218
 20
5.296563701257755
 30
0.0
 40
0.1
 41
0.0
 46
0.0
 71
     5
 72
     1
  1
\A1;0.4720
  7
small
 73
     1
 44
1.0
  0
SOLID
  5
9C5
330
9BE
100
AcDbEntity
  8
0
 62
     0
100
AcDbTrace
 10
21.17535591469701
 20
4.981949103713417
 30
0.0
 11
21.17535591469701
 21
4.956949103713417
 31
0.0
 12
21.10035591469701
 22
4.969449103713417
 32
0.0
 13
21.10035591469701
 23
4.969449103713417
 33
0.0
  0
SOLID
  5
9C6
330
9BE
100
AcDbEntity
  8
0
 62
     0
100
AcDbTrace
 10
21.49735591469699
 20
4.981949103713417
 30
0.0
 11
21.49735591469699
 21
4.956949103713417
 31
0.0
 12
21.57235591469699
 22
4.969449103713417
 32
0.0
 13
21.57235591469699
 23
4.969449103713417
 33
0.0
  0
POINT
  5
9C7
330
9BE
100
AcDbEntity
  8
Defpoints
 62
     0
100
AcDbPoint
 10
21.10035591469701
 20
4.607300853362635
 30
0.0
  0
POINT
  5
9C8
330
9BE
100
AcDbEntity
  8
Defpoints
 62
     0
100
AcDbPoint
 10
21.57235591469699
 20
4.962679484341528
 30
0.0
  0
POINT
  5
9C9
330
9BE
100
AcDbEntity
  8
Defpoints
 62
     0
100
AcDbPoint
 10
21.57235591469699
 20
4.969449103713417
 30
0.0
  0
ENDBLK
  5
9CB
330
9BE
100
AcDbEntity
  8
0
100
AcDbBlockEnd
  0
BLOCK
  5
9D7
330
9CC
100
AcDbEntity
  8
0
100
AcDbBlockBegin
  2
*D3
 70
     1
 10
0.0
 20
0.0
 30
0.0
  3
*D3
  1

  0
LINE
  5
9CD
330
9CC
100
AcDbEntity
  8
0
 62
     0
370
    -2
100
AcDbLine
 10
21.10035591469702
 20
4.151561370342107
 30
0.0
 11
21.10035591469702
 21
3.461678631460822
 31
0.0
  0
LINE
  5
9CE
330
9CC
100
AcDbEntity
  8
0
 62
     0
370
    -2
100
AcDbLine
 10
24.47435591469703
 20
4.151561370342107
 30
0.0
 11
24.47435591469703
 21
3.461678631460822
 31
0.0
  0
LINE
  5
9CF
330
9CC
100
AcDbEntity
  8
0
 62
     0
370
    -2
100
AcDbLine
 10
21.17535591469702
 20
3.641678631460822
 30
0.0
 11
22.48998892970385
 21
3.641678631460822
 31
0.0
  0
LINE
  5
9D0
330
9CC
100
AcDbEntity
  8
0
 62
     0
370
    -2
100
AcDbLine
 10
24.39935591469703
 20
3.641678631460822
 30
0.0
 11
23.0847228996902
 21
3.641678631460822
 31
0.0
  0
SOLID
  5
9D1
330
9CC
100
AcDbEntity
  8
0
 62
     0
100
AcDbTrace
 10
21.17535591469702
 20
3.654178631460822
 30
0.0
 11
21.17535591469702
 21
3.629178631460821
 31
0.0
 12
21.10035591469702
 22
3.641678631460822
 32
0.0
 13
21.10035591469702
 23
3.641678631460822
 33
0.0
  0
SOLID
  5
9D2
330
9CC
100
AcDbEntity
  8
0
 62
     0
100
AcDbTrace
 10
24.39935591469703
 20
3.654178631460822
 30
0.0
 11
24.39935591469703
 21
3.629178631460821
 31
0.0
 12
24.47435591469703
 22
3.641678631460822
 32
0.0
 13
24.47435591469703
 23
3.641678631460822
 33
0.0
  0
MTEXT
  5
9D3
330
9CC
100
AcDbEntity
  8
0
 62
     0
100
AcDbMText
 10
22.78735591469702
 20
3.641678631460822
 30
0.0
 40
0.1
 41
0.0
 46
0.0
 71
     5
 72
     1
  1
\A1;3.3740
  7
small
 73
     1
 44
1.0
  0
POINT
  5
9D4
330
9CC
100
AcDbEntity
  8
Defpoints
 62
     0
100
AcDbPoint
 10
21.10035591469702
 20
4.214061370342107
 30
0.0
  0
POINT
  5
9D5
330
9CC
100
AcDbEntity
  8
Defpoints
 62
     0
100
AcDbPoint
 10
24.47435591469703
 20
4.214061370342107
 30
0.0
  0
POINT
  5
9D6
330
9CC
100
AcDbEntity
  8
Defpoints
 62
     0
100
AcDbPoint
 10
24.47435591469703
 20
3.641678631460822
 30
0.0
  0
ENDBLK
  5
9D8
330
9CC
100
AcDbEntity
  8
0
100
AcDbBlockEnd
  0
BLOCK
  5
9E3
330
9D9
100
AcDbEntity
  8
0
100
AcDbBlockBegin
  2
*D4
 70
     1
 10
0.0
 20
0.0
 30
0.0
  3
*D4
  1

  0
LINE
  5
9DA
330
9D9
100
AcDbEntity
  8
0
 62
     0
370
    -2
100
AcDbLine
 10
21.10035591469702
 20
4.151561370342107
 30
0.0
 11
21.10035591469702
 21
3.899836661349624
 31
0.0
  0
LINE
  5
9DB
330
9D9
100
AcDbEntity
  8
0
 62
     0
370
    -2
100
AcDbLine
 10
21.26735591469703
 20
4.151561370342107
 30
0.0
 11
21.26735591469703
 21
3.899836661349624
 31
0.0
  0
LINE
  5
9DC
330
9D9
100
AcDbEntity
  8
0
 62
     0
370
    -2
100
AcDbLine
 10
21.18385591469703
 20
4.079836661349624
 30
0.0
 11
21.18385591469703
 21
3.701664765033116
 31
0.0
  0
LINE
  5
9DD
330
9D9
100
AcDbEntity
  8
0
 62
     0
370
    -2
100
AcDbLine
 10
21.18385591469703
 20
3.701664765033116
 30
0.0
 11
21.36385591469703
 21
3.701664765033116
 31
0.0
  0
MTEXT
  5
9DE
330
9D9
100
AcDbEntity
  8
0
 62
     0
100
AcDbMText
 10
21.66125700610221
 20
3.701664765033116
 30
0.0
 40
0.1
 41
0.0
 46
0.0
 71
     5
 72
     1
  1
\A1;0.1670
  7
small
 73
     1
 44
1.0
  0
LINE
  5
9DF
330
9D9
100
AcDbEntity
  8
0
 62
     0
370
    -2
100
AcDbLine
 10
21.10035591469702
 20
4.079836661349624
 30
0.0
 11
21.26735591469703
 21
4.079836661349624
 31
0.0
  0
POINT
  5
9E0
330
9D9
100
AcDbEntity
  8
Defpoints
 62
     0
100
AcDbPoint
 10
21.10035591469702
 20
4.214061370342107
 30
0.0
  0
POINT
  5
9E1
330
9D9
100
AcDbEntity
  8
Defpoints
 62
     0
100
AcDbPoint
 10
21.26735591469703
 20
4.214061370342107
 30
0.0
  0
POINT
  5
9E2
330
9D9
100
AcDbEntity
  8
Defpoints
 62
     0
100
AcDbPoint
 10
21.26735591469703
 20
4.079836661349624
 30
0.0
  0
ENDBLK
  5
9E4
330
9D9
100
AcDbEntity
  8
0
100
AcDbBlockEnd
  0
BLOCK
  5
9EC
330
9E5
100
AcDbEntity
  8
0
100
AcDbBlockBegin
  2
*D5
 70
     1
 10
0.0
 20
0.0
 30
0.0
  3
*D5
  1

  0
LINE
  5
9E6
330
9E5
100
AcDbEntity
  8
0
 62
     0
370
    -2
100
AcDbLine
 10
21.26735591469703
 20
4.151561370342107
 30
0.0
 11
21.26735591469703
 21
3.899836661349624
 31
0.0
  0
LINE
  5
9E7
330
9E5
100
AcDbEntity
  8
0
 62
     0
370
    -2
100
AcDbLine
 10
21.41645197859211
 20
4.151561370342107
 30
0.0
 11
21.41645197859211
 21
3.899836661349624
 31
0.0
  0
MTEXT
  5
9E8
330
9E5
100
AcDbEntity
  8
0
 62
     0
100
AcDbMText
 10
21.61190394664457
 20
3.803779362577455
 30
0.0
 40
0.1
 41
0.0
 46
0.0
 71
     5
 72
     1
  1
\A1;0.1491
  7
small
 73
     1
 44
1.0
  0
POINT
  5
9E9
330
9E5
100
AcDbEntity
  8
Defpoints
 62
     0
100
AcDbPoint
 10
21.26735591469703
 20
4.214061370342107
 30
0.0
  0
POINT
  5
9EA
330
9E5
100
AcDbEntity
  8
Defpoints
 62
     0
100
AcDbPoint
 10
21.41645197859211
 20
4.214061370342107
 30
0.0
  0
POINT
  5
9EB
330
9E5
100
AcDbEntity
  8
Defpoints
 62
     0
100
AcDbPoint
 10
21.41645197859211
 20
4.079836661349624
 30
0.0
  0
ENDBLK
  5
9ED
330
9E5
100
AcDbEntity
  8
0
100
AcDbBlockEnd
  0
BLOCK
  5
9F9
330
9EE
100
AcDbEntity
  8
0
100
AcDbBlockBegin
  2
*D6
 70
     1
 10
0.0
 20
0.0
 30
0.0
  3
*D6
  1

  0
LINE
  5
9EF
330
9EE
100
AcDbEntity
  8
0
 62
     0
370
    -2
100
AcDbLine
 10
21.41645197859211
 20
4.151561370342107
 30
0.0
 11
21.41645197859211
 21
3.899836661349624
 31
0.0
  0
LINE
  5
9F0
330
9EE
100
AcDbEntity
  8
0
 62
     0
370
    -2
100
AcDbLine
 10
24.35385591469704
 20
4.151561370342107
 30
0.0
 11
24.35385591469704
 21
3.899836661349624
 31
0.0
  0
LINE
  5
9F1
330
9EE
100
AcDbEntity
  8
0
 62
     0
370
    -2
100
AcDbLine
 10
21.49145197859211
 20
4.079836661349624
 30
0.0
 11
22.58693430135126
 21
4.079836661349624
 31
0.0
  0
LINE
  5
9F2
330
9EE
100
AcDbEntity
  8
0
 62
     0
370
    -2
100
AcDbLine
 10
24.27885591469704
 20
4.079836661349624
 30
0.0
 11
23.18337359193789
 21
4.079836661349624
 31
0.0
  0
SOLID
  5
9F3
330
9EE
100
AcDbEntity
  8
0
 62
     0
100
AcDbTrace
 10
21.49145197859211
 20
4.092336661349624
 30
0.0
 11
21.49145197859211
 21
4.067336661349624
 31
0.0
 12
21.41645197859211
 22
4.079836661349624
 32
0.0
 13
21.41645197859211
 23
4.079836661349624
 33
0.0
  0
SOLID
  5
9F4
330
9EE
100
AcDbEntity
  8
0
 62
     0
100
AcDbTrace
 10
24.27885591469704
 20
4.092336661349624
 30
0.0
 11
24.27885591469704
 21
4.067336661349624
 31
0.0
 12
24.35385591469704
 22
4.079836661349624
 32
0.0
 13
24.35385591469704
 23
4.079836661349624
 33
0.0
  0
MTEXT
  5
9F5
330
9EE
100
AcDbEntity
  8
0
 62
     0
100
AcDbMText
 10
22.88515394664457
 20
4.079836661349624
 30
0.0
 40
0.1
 41
0.0
 46
0.0
 71
     5
 72
     1
  1
\A1;2.9374
  7
small
 73
     1
 44
1.0
  0
POINT
  5
9F6
330
9EE
100
AcDbEntity
  8
Defpoints
 62
     0
100
AcDbPoint
 10
21.41645197859211
 20
4.214061370342107
 30
0.0
  0
POINT
  5
9F7
330
9EE
100
AcDbEntity
  8
Defpoints
 62
     0
100
AcDbPoint
 10
24.35385591469704
 20
4.214061370342107
 30
0.0
  0
POINT
  5
9F8
330
9EE
100
AcDbEntity
  8
Defpoints
 62
     0
100
AcDbPoint
 10
24.35385591469704
 20
4.079836661349624
 30
0.0
  0
ENDBLK
  5
9FA
330
9EE
100
AcDbEntity
  8
0
100
AcDbBlockEnd
  0
BLOCK
  5
A05
330
9FB
100
AcDbEntity
  8
0
100
AcDbBlockBegin
  2
*D7
 70
     1
 10
0.0
 20
0.0
 30
0.0
  3
*D7
  1

  0
LINE
  5
9FC
330
9FB
100
AcDbEntity
  8
0
 62
     0
370
    -2
100
AcDbLine
 10
24.35385591469704
 20
4.151561370342107
 30
0.0
 11
24.35385591469704
 21
3.899836661349624
 31
0.0
  0
LINE
  5
9FD
330
9FB
100
AcDbEntity
  8
0
 62
     0
370
    -2
100
AcDbLine
 10
24.47435591469703
 20
4.151561370342107
 30
0.0
 11
24.47435591469703
 21
3.899836661349624
 31
0.0
  0
LINE
  5
9FE
330
9FB
100
AcDbEntity
  8
0
 62
     0
370
    -2
100
AcDbLine
 10
24.41410591469703
 20
4.079836661349624
 30
0.0
 11
24.41410591469703
 21
3.701664765033116
 31
0.0
  0
LINE
  5
9FF
330
9FB
100
AcDbEntity
  8
0
 62
     0
370
    -2
100
AcDbLine
 10
24.41410591469703
 20
3.701664765033116
 30
0.0
 11
24.59410591469703
 21
3.701664765033116
 31
0.0
  0
MTEXT
  5
A00
330
9FB
100
AcDbEntity
  8
0
 62
     0
100
AcDbMText
 10
24.8920527086943
 20
3.701664765033116
 30
0.0
 40
0.1
 41
0.0
 46
0.0
 71
     5
 72
     1
  1
\A1;0.1205
  7
small
 73
     1
 44
1.0
  0
LINE
  5
A01
330
9FB
100
AcDbEntity
  8
0
 62
     0
370
    -2
100
AcDbLine
 10
24.35385591469704
 20
4.079836661349624
 30
0.0
 11
24.47435591469703
 21
4.079836661349624
 31
0.0
  0
POINT
  5
A02
330
9FB
100
AcDbEntity
  8
Defpoints
 62
     0
100
AcDbPoint
 10
24.35385591469704
 20
4.214061370342107
 30
0.0
  0
POINT
  5
A03
330
9FB
100
AcDbEntity
  8
Defpoints
 62
     0
100
AcDbPoint
 10
24.47435591469703
 20
4.214061370342107
 30
0.0
  0
POINT
  5
A04
330
9FB
100
AcDbEntity
  8
Defpoints
 62
     0
100
AcDbPoint
 10
24.47435591469703
 20
4.079836661349624
 30
0.0
  0
ENDBLK
  5
A06
330
9FB
100
AcDbEntity
  8
0
100
AcDbBlockEnd
  0
BLOCK
  5
A10
330
A07
100
AcDbEntity
  8
0
100
AcDbBlockBegin
  2
*D8
 70
     1
 10
0.0
 20
0.0
 30
0.0
  3
*D8
  1

  0
LINE
  5
A08
330
A07
100
AcDbEntity
  8
0
 62
     0
370
    -2
100
AcDbLine
 10
21.13464428649994
 20
4.84886860809507
 30
0.0
 11
21.20964428649994
 21
4.848868608095071
 31
0.0
  0
LINE
  5
A09
330
A07
100
AcDbEntity
  8
0
 62
     0
370
    -2
100
AcDbLine
 10
21.20964428649994
 20
4.848868608095071
 30
0.0
 11
21.24064595306892
 21
4.780575880298137
 31
0.0
  0
MTEXT
  5
A0A
330
A07
100
AcDbEntity
  8
0
 62
     0
100
AcDbMText
 10
20.79887348158862
 20
4.848868608095071
 30
0.0
 40
0.1
 41
0.0
 46
0.0
 71
     5
 72
     1
  1
\A1;R0.8141
  7
small
 73
     1
 44
1.0
  0
SOLID
  5
A0B
330
A07
100
AcDbEntity
  8
0
 62
     0
100
AcDbTrace
 10
21.25202807436841
 20
4.7857428247263
 30
0.0
 11
21.22926383176944
 21
4.775408935869975
 31
0.0
 12
21.2716476196379
 22
4.712283152501202
 32
0.0
 13
21.2716476196379
 23
4.712283152501202
 33
0.0
  0
LINE
  5
A0C
330
A07
100
AcDbEntity
  8
0
 62
     0
370
    -2
100
AcDbLine
 10
21.51816166809137
 20
3.970985510977759
 30
0.0
 11
21.69816166809137
 21
3.970985510977759
 31
0.0
  0
LINE
  5
A0D
330
A07
100
AcDbEntity
  8
0
 62
     0
370
    -2
100
AcDbLine
 10
21.60816166809136
 20
3.880985510977757
 30
0.0
 11
21.60816166809137
 21
4.060985510977758
 31
0.0
  0
POINT
  5
A0E
330
A07
100
AcDbEntity
  8
Defpoints
 62
     0
100
AcDbPoint
 10
21.2716476196379
 20
4.712283152501202
 30
0.0
  0
POINT
  5
A0F
330
A07
100
AcDbEntity
  8
Defpoints
 62
     0
100
AcDbPoint
 10
21.60816166809137
 20
3.970985510977759
 30
0.0
  0
ENDBLK
  5
A11
330
A07
100
AcDbEntity
  8
0
100
AcDbBlockEnd
  0
BLOCK
  5
A19
330
A12
100
AcDbEntity
  8
0
100
AcDbBlockBegin
  2
*D9
 70
     1
 10
0.0
 20
0.0
 30
0.0
  3
*D9
  1

  0
LINE
  5
A13
330
A12
100
AcDbEntity
  8
0
 62
     0
370
    -2
100
AcDbLine
 10
21.06100141366542
 20
4.452924728956475
 30
0.0
 11
21.13600141366542
 21
4.452924728956474
 31
0.0
  0
LINE
  5
A14
330
A12
100
AcDbEntity
  8
0
 62
     0
370
    -2
100
AcDbLine
 10
21.13600141366542
 20
4.452924728956474
 30
0.0
 11
21.16459000989098
 21
4.52226225246181
 31
0.0
  0
MTEXT
  5
A15
330
A12
100
AcDbEntity
  8
0
 62
     0
100
AcDbMText
 10
20.71578313262859
 20
4.452924728956477
 30
0.0
 40
0.1
 41
0.0
 46
0.0
 71
     5
 72
     1
  1
\A1;R0.2124
  7
small
 73
     1
 44
1.0
  0
SOLID
  5
A16
330
A12
100
AcDbEntity
  8
0
 62
     0
100
AcDbTrace
 10
21.15303375597342
 20
4.527027018499401
 30
0.0
 11
21.17614626380853
 21
4.517497486424217
 31
0.0
 12
21.19317860611653
 22
4.59159977596714
 32
0.0
 13
21.19317860611653
 23
4.59159977596714
 33
0.0
  0
POINT
  5
A17
330
A12
100
AcDbEntity
  8
Defpoints
 62
     0
100
AcDbPoint
 10
21.19317860611653
 20
4.59159977596714
 30
0.0
  0
POINT
  5
A18
330
A12
100
AcDbEntity
  8
Defpoints
 62
     0
100
AcDbPoint
 10
21.11222999590387
 20
4.395270578161784
 30
0.0
  0
ENDBLK
  5
A1A
330
A12
100
AcDbEntity
  8
0
100
AcDbBlockEnd
  0
BLOCK
  5
A24
330
A1B
100
AcDbEntity
  8
0
100
AcDbBlockBegin
  2
*D10
 70
     1
 10
0.0
 20
0.0
 30
0.0
  3
*D10
  1

  0
LINE
  5
A1C
330
A1B
100
AcDbEntity
  8
0
 62
     0
370
    -2
100
AcDbLine
 10
21.09159879520194
 20
4.300340056785728
 30
0.0
 11
21.16659879520194
 21
4.300340056785726
 31
0.0
  0
LINE
  5
A1D
330
A1B
100
AcDbEntity
  8
0
 62
     0
370
    -2
100
AcDbLine
 10
21.16659879520194
 20
4.300340056785726
 30
0.0
 11
21.26359286293479
 21
4.444748571665257
 31
0.0
  0
MTEXT
  5
A1E
330
A1B
100
AcDbEntity
  8
0
 62
     0
100
AcDbMText
 10
20.75582799029062
 20
4.30034005678573
 30
0.0
 40
0.1
 41
0.0
 46
0.0
 71
     5
 72
     1
  1
\A1;R0.1991
  7
small
 73
     1
 44
1.0
  0
SOLID
  5
A1F
330
A1B
100
AcDbEntity
  8
0
 62
     0
100
AcDbTrace
 10
21.25321623174794
 20
4.451718186088733
 30
0.0
 11
21.27396949412165
 21
4.437778957241784
 31
0.0
 12
21.30541054947565
 22
4.507008358786409
 32
0.0
 13
21.30541054947565
 23
4.507008358786409
 33
0.0
  0
LINE
  5
A20
330
A1B
100
AcDbEntity
  8
0
 62
     0
370
    -2
100
AcDbLine
 10
21.32644384367785
 20
4.672319016362749
 30
0.0
 11
21.50644384367784
 21
4.672319016362749
 31
0.0
  0
LINE
  5
A21
330
A1B
100
AcDbEntity
  8
0
 62
     0
370
    -2
100
AcDbLine
 10
21.41644384367785
 20
4.582319016362749
 30
0.0
 11
21.41644384367785
 21
4.76231901636275
 31
0.0
  0
POINT
  5
A22
330
A1B
100
AcDbEntity
  8
Defpoints
 62
     0
100
AcDbPoint
 10
21.30541054947565
 20
4.507008358786409
 30
0.0
  0
POINT
  5
A23
330
A1B
100
AcDbEntity
  8
Defpoints
 62
     0
100
AcDbPoint
 10
21.41644384367785
 20
4.672319016362749
 30
0.0
  0
ENDBLK
  5
A25
330
A1B
100
AcDbEntity
  8
0
100
AcDbBlockEnd
  0
BLOCK
  5
A30
330
A26
100
AcDbEntity
  8
0
100
AcDbBlockBegin
  2
*D11
 70
     1
 10
0.0
 20
0.0
 30
0.0
  3
*D11
  1

  0
LINE
  5
A27
330
A26
100
AcDbEntity
  8
0
 62
     0
370
    -2
100
AcDbLine
 10
25.05698916678668
 20
4.410800853362636
 30
0.0
 11
25.05698916678668
 21
4.127107797993598
 31
0.0
  0
LINE
  5
A28
330
A26
100
AcDbEntity
  8
0
 62
     0
370
    -2
100
AcDbLine
 10
25.08198916678668
 20
4.410800853362636
 30
0.0
 11
25.08198916678668
 21
4.127107797993598
 31
0.0
  0
LINE
  5
A29
330
A26
100
AcDbEntity
  8
0
 62
     0
370
    -2
100
AcDbLine
 10
25.06948916678668
 20
4.307107797993598
 30
0.0
 11
25.06948916678668
 21
3.877878602904921
 31
0.0
  0
LINE
  5
A2A
330
A26
100
AcDbEntity
  8
0
 62
     0
370
    -2
100
AcDbLine
 10
25.06948916678668
 20
3.877878602904921
 30
0.0
 11
25.24948916678668
 21
3.877878602904921
 31
0.0
  0
MTEXT
  5
A2B
330
A26
100
AcDbEntity
  8
0
 62
     0
100
AcDbMText
 10
25.54689025819186
 20
3.877878602904921
 30
0.0
 40
0.1
 41
0.0
 46
0.0
 71
     5
 72
     1
  1
\A1;0.0250
  7
small
 73
     1
 44
1.0
  0
LINE
  5
A2C
330
A26
100
AcDbEntity
  8
0
 62
     0
370
    -2
100
AcDbLine
 10
25.05698916678668
 20
4.307107797993598
 30
0.0
 11
25.08198916678668
 21
4.307107797993598
 31
0.0
  0
POINT
  5
A2D
330
A26
100
AcDbEntity
  8
Defpoints
 62
     0
100
AcDbPoint
 10
25.05698916678668
 20
4.473300853362636
 30
0.0
  0
POINT
  5
A2E
330
A26
100
AcDbEntity
  8
Defpoints
 62
     0
100
AcDbPoint
 10
25.08198916678668
 20
4.473300853362636
 30
0.0
  0
POINT
  5
A2F
330
A26
100
AcDbEntity
  8
Defpoints
 62
     0
100
AcDbPoint
 10
25.08198916678668
 20
4.307107797993598
 30
0.0
  0
ENDBLK
  5
A31
330
A26
100
AcDbEntity
  8
0
100
AcDbBlockEnd
  0
BLOCK
  5
A39
330
A32
100
AcDbEntity
  8
0
100
AcDbBlockBegin
  2
*D12
 70
     1
 10
0.0
 20
0.0
 30
0.0
  3
*D12
  1

  0
LINE
  5
A33
330
A32
100
AcDbEntity
  8
0
 62
     0
370
    -2
100
AcDbLine
 10
25.14448916678668
 20
4.784300853362636
 30
0.0
 11
25.48691055815882
 21
4.784300853362636
 31
0.0
  0
LINE
  5
A34
330
A32
100
AcDbEntity
  8
0
 62
     0
370
    -2
100
AcDbLine
 10
25.14448916678668
 20
4.473300853362636
 30
0.0
 11
25.48691055815882
 21
4.473300853362636
 31
0.0
  0
MTEXT
  5
A35
330
A32
100
AcDbEntity
  8
0
 62
     0
100
AcDbMText
 10
25.30691055815883
 20
4.62880085336264
 30
0.0
 40
0.1
 41
0.0
 46
0.0
 71
     5
 72
     1
  1
\A1;0.3110
  7
small
 73
     1
 44
1.0
  0
POINT
  5
A36
330
A32
100
AcDbEntity
  8
Defpoints
 62
     0
100
AcDbPoint
 10
25.08198916678668
 20
4.784300853362636
 30
0.0
  0
POINT
  5
A37
330
A32
100
AcDbEntity
  8
Defpoints
 62
     0
100
AcDbPoint
 10
25.08198916678668
 20
4.473300853362636
 30
0.0
  0
POINT
  5
A38
330
A32
100
AcDbEntity
  8
Defpoints
 62
     0
100
AcDbPoint
 10
25.30691055815883
 20
4.473300853362636
 30
0.0
  0
ENDBLK
  5
A3A
330
A32
100
AcDbEntity
  8
0
100
AcDbBlockEnd
  0
BLOCK
  5
A45
330
A3B
100
AcDbEntity
  8
0
100
AcDbBlockBegin
  2
*D13
 70
     1
 10
0.0
 20
0.0
 30
0.0
  3
*D13
  1

  0
LINE
  5
A3C
330
A3B
100
AcDbEntity
  8
0
 62
     0
370
    -2
100
AcDbLine
 10
21.10035591469701
 20
6.126165382729726
 30
0.0
 11
21.10035591469701
 21
6.535825291628722
 31
0.0
  0
LINE
  5
A3D
330
A3B
100
AcDbEntity
  8
0
 62
     0
370
    -2
100
AcDbLine
 10
21.0563558915612
 20
6.120165382729719
 30
0.0
 11
21.0563558915612
 21
6.535825291628722
 31
0.0
  0
LINE
  5
A3E
330
A3B
100
AcDbEntity
  8
0
 62
     0
370
    -2
100
AcDbLine
 10
21.07835590312911
 20
6.355825291628723
 30
0.0
 11
21.07835590312911
 21
6.682939889173061
 31
0.0
  0
LINE
  5
A3F
330
A3B
100
AcDbEntity
  8
0
 62
     0
370
    -2
100
AcDbLine
 10
21.07835590312911
 20
6.682939889173061
 30
0.0
 11
21.25835590312911
 21
6.682939889173061
 31
0.0
  0
MTEXT
  5
A40
330
A3B
100
AcDbEntity
  8
0
 62
     0
100
AcDbMText
 10
21.55575699453429
 20
6.682939889173061
 30
0.0
 40
0.1
 41
0.0
 46
0.0
 71
     5
 72
     1
  1
\A1;0.0440
  7
small
 73
     1
 44
1.0
  0
LINE
  5
A41
330
A3B
100
AcDbEntity
  8
0
 62
     0
370
    -2
100
AcDbLine
 10
21.10035591469701
 20
6.355825291628723
 30
0.0
 11
21.0563558915612
 21
6.355825291628723
 31
0.0
  0
POINT
  5
A42
330
A3B
100
AcDbEntity
  8
Defpoints
 62
     0
100
AcDbPoint
 10
21.10035591469701
 20
6.063665382729726
 30
0.0
  0
POINT
  5
A43
330
A3B
100
AcDbEntity
  8
Defpoints
 62
     0
100
AcDbPoint
 10
21.0563558915612
 20
6.057665382729719
 30
0.0
  0
POINT
  5
A44
330
A3B
100
AcDbEntity
  8
Defpoints
 62
     0
100
AcDbPoint
 10
21.0563558915612
 20
6.355825291628723
 30
0.0
  0
ENDBLK
  5
A46
330
A3B
100
AcDbEntity
  8
0
100
AcDbBlockEnd
  0
BLOCK
  5
A52
330
A47
100
AcDbEntity
  8
0
100
AcDbBlockBegin
  2
*D14
 70
     1
 10
0.0
 20
0.0
 30
0.0
  3
*D14
  1

  0
LINE
  5
A48
330
A47
100
AcDbEntity
  8
0
 62
     0
370
    -2
100
AcDbLine
 10
21.0563558915612
 20
6.120165382729719
 30
0.0
 11
21.0563558915612
 21
6.535825291628722
 31
0.0
  0
LINE
  5
A49
330
A47
100
AcDbEntity
  8
0
 62
     0
370
    -2
100
AcDbLine
 10
19.9263558915612
 20
6.06816538272972
 30
0.0
 11
19.9263558915612
 21
6.535825291628722
 31
0.0
  0
LINE
  5
A4A
330
A47
100
AcDbEntity
  8
0
 62
     0
370
    -2
100
AcDbLine
 10
20.9813558915612
 20
6.355825291628723
 30
0.0
 11
20.78405029810963
 21
6.355825291628723
 31
0.0
  0
LINE
  5
A4B
330
A47
100
AcDbEntity
  8
0
 62
     0
370
    -2
100
AcDbLine
 10
20.0013558915612
 20
6.355825291628723
 30
0.0
 11
20.19866148501277
 21
6.355825291628723
 31
0.0
  0
SOLID
  5
A4C
330
A47
100
AcDbEntity
  8
0
 62
     0
100
AcDbTrace
 10
20.9813558915612
 20
6.368325291628723
 30
0.0
 11
20.9813558915612
 21
6.343325291628723
 31
0.0
 12
21.0563558915612
 22
6.355825291628723
 32
0.0
 13
21.0563558915612
 23
6.355825291628723
 33
0.0
  0
SOLID
  5
A4D
330
A47
100
AcDbEntity
  8
0
 62
     0
100
AcDbTrace
 10
20.0013558915612
 20
6.368325291628723
 30
0.0
 11
20.0013558915612
 21
6.343325291628723
 31
0.0
 12
19.9263558915612
 22
6.355825291628723
 32
0.0
 13
19.9263558915612
 23
6.355825291628723
 33
0.0
  0
MTEXT
  5
A4E
330
A47
100
AcDbEntity
  8
0
 62
     0
100
AcDbMText
 10
20.4913558915612
 20
6.355825291628723
 30
0.0
 40
0.1
 41
0.0
 46
0.0
 71
     5
 72
     1
  1
\A1;1.1300
  7
small
 73
     1
 44
1.0
  0
POINT
  5
A4F
330
A47
100
AcDbEntity
  8
Defpoints
 62
     0
100
AcDbPoint
 10
21.0563558915612
 20
6.057665382729719
 30
0.0
  0
POINT
  5
A50
330
A47
100
AcDbEntity
  8
Defpoints
 62
     0
100
AcDbPoint
 10
19.9263558915612
 20
6.00566538272972
 30
0.0
  0
POINT
  5
A51
330
A47
100
AcDbEntity
  8
Defpoints
 62
     0
100
AcDbPoint
 10
19.9263558915612
 20
6.355825291628723
 30
0.0
  0
ENDBLK
  5
A53
330
A47
100
AcDbEntity
  8
0
100
AcDbBlockEnd
  0
BLOCK
  5
A5E
330
A54
100
AcDbEntity
  8
0
100
AcDbBlockBegin
  2
*D15
 70
     1
 10
0.0
 20
0.0
 30
0.0
  3
*D15
  1

  0
LINE
  5
A55
330
A54
100
AcDbEntity
  8
0
 62
     0
370
    -2
100
AcDbLine
 10
19.9263558915612
 20
6.06816538272972
 30
0.0
 11
19.9263558915612
 21
6.535825291628722
 31
0.0
  0
LINE
  5
A56
330
A54
100
AcDbEntity
  8
0
 62
     0
370
    -2
100
AcDbLine
 10
19.8833558915612
 20
6.108165382729719
 30
0.0
 11
19.8833558915612
 21
6.535825291628722
 31
0.0
  0
LINE
  5
A57
330
A54
100
AcDbEntity
  8
0
 62
     0
370
    -2
100
AcDbLine
 10
19.9048558915612
 20
6.355825291628723
 30
0.0
 11
19.9048558915612
 21
6.683008101997072
 31
0.0
  0
LINE
  5
A58
330
A54
100
AcDbEntity
  8
0
 62
     0
370
    -2
100
AcDbLine
 10
19.9048558915612
 20
6.683008101997072
 30
0.0
 11
20.0848558915612
 21
6.683008101997072
 31
0.0
  0
MTEXT
  5
A59
330
A54
100
AcDbEntity
  8
0
 62
     0
100
AcDbMText
 10
20.38225698296638
 20
6.683008101997072
 30
0.0
 40
0.1
 41
0.0
 46
0.0
 71
     5
 72
     1
  1
\A1;0.0430
  7
small
 73
     1
 44
1.0
  0
LINE
  5
A5A
330
A54
100
AcDbEntity
  8
0
 62
     0
370
    -2
100
AcDbLine
 10
19.9263558915612
 20
6.355825291628723
 30
0.0
 11
19.8833558915612
 21
6.355825291628723
 31
0.0
  0
POINT
  5
A5B
330
A54
100
AcDbEntity
  8
Defpoints
 62
     0
100
AcDbPoint
 10
19.9263558915612
 20
6.00566538272972
 30
0.0
  0
POINT
  5
A5C
330
A54
100
AcDbEntity
  8
Defpoints
 62
     0
100
AcDbPoint
 10
19.8833558915612
 20
6.045665382729719
 30
0.0
  0
POINT
  5
A5D
330
A54
100
AcDbEntity
  8
Defpoints
 62
     0
100
AcDbPoint
 10
19.8833558915612
 20
6.355825291628723
 30
0.0
  0
ENDBLK
  5
A5F
330
A54
100
AcDbEntity
  8
0
100
AcDbBlockEnd
  0
BLOCK
  5
A6A
330
A60
100
AcDbEntity
  8
0
100
AcDbBlockBegin
  2
*D16
 70
     1
 10
0.0
 20
0.0
 30
0.0
  3
*D16
  1

  0
LINE
  5
A61
330
A60
100
AcDbEntity
  8
0
 62
     0
370
    -2
100
AcDbLine
 10
19.8833558915612
 20
6.108165382729719
 30
0.0
 11
19.8833558915612
 21
6.535825291628722
 31
0.0
  0
LINE
  5
A62
330
A60
100
AcDbEntity
  8
0
 62
     0
370
    -2
100
AcDbLine
 10
19.8113558915612
 20
6.02716538272972
 30
0.0
 11
19.8113558915612
 21
6.535825291628722
 31
0.0
  0
LINE
  5
A63
330
A60
100
AcDbEntity
  8
0
 62
     0
370
    -2
100
AcDbLine
 10
19.8473558915612
 20
6.355825291628723
 30
0.0
 11
19.8473558915612
 21
6.829906241439856
 31
0.0
  0
LINE
  5
A64
330
A60
100
AcDbEntity
  8
0
 62
     0
370
    -2
100
AcDbLine
 10
19.8473558915612
 20
6.829906241439856
 30
0.0
 11
20.0273558915612
 21
6.829906241439856
 31
0.0
  0
MTEXT
  5
A65
330
A60
100
AcDbEntity
  8
0
 62
     0
100
AcDbMText
 10
20.32475698296638
 20
6.829906241439856
 30
0.0
 40
0.1
 41
0.0
 46
0.0
 71
     5
 72
     1
  1
\A1;0.0720
  7
small
 73
     1
 44
1.0
  0
LINE
  5
A66
330
A60
100
AcDbEntity
  8
0
 62
     0
370
    -2
100
AcDbLine
 10
19.8833558915612
 20
6.355825291628723
 30
0.0
 11
19.8113558915612
 21
6.355825291628723
 31
0.0
  0
POINT
  5
A67
330
A60
100
AcDbEntity
  8
Defpoints
 62
     0
100
AcDbPoint
 10
19.8833558915612
 20
6.045665382729719
 30
0.0
  0
POINT
  5
A68
330
A60
100
AcDbEntity
  8
Defpoints
 62
     0
100
AcDbPoint
 10
19.8113558915612
 20
5.96466538272972
 30
0.0
  0
POINT
  5
A69
330
A60
100
AcDbEntity
  8
Defpoints
 62
     0
100
AcDbPoint
 10
19.8113558915612
 20
6.355825291628723
 30
0.0
  0
ENDBLK
  5
A6B
330
A60
100
AcDbEntity
  8
0
100
AcDbBlockEnd
  0
BLOCK
  5
A77
330
A6C
100
AcDbEntity
  8
0
100
AcDbBlockBegin
  2
*D17
 70
     1
 10
0.0
 20
0.0
 30
0.0
  3
*D17
  1

  0
LINE
  5
A6D
330
A6C
100
AcDbEntity
  8
0
 62
     0
370
    -2
100
AcDbLine
 10
19.8113558915612
 20
5.90216538272972
 30
0.0
 11
19.8113558915612
 21
5.676820102778353
 31
0.0
  0
LINE
  5
A6E
330
A6C
100
AcDbEntity
  8
0
 62
     0
370
    -2
100
AcDbLine
 10
21.30351002174753
 20
5.90216538272972
 30
0.0
 11
21.30351002174753
 21
5.676820102778353
 31
0.0
  0
LINE
  5
A6F
330
A6C
100
AcDbEntity
  8
0
 62
     0
370
    -2
100
AcDbLine
 10
19.8863558915612
 20
5.856820102778352
 30
0.0
 11
20.26507961422599
 21
5.856820102778352
 31
0.0
  0
LINE
  5
A70
330
A6C
100
AcDbEntity
  8
0
 62
     0
370
    -2
100
AcDbLine
 10
21.22851002174753
 20
5.856820102778352
 30
0.0
 11
20.84978629908274
 21
5.856820102778352
 31
0.0
  0
SOLID
  5
A71
330
A6C
100
AcDbEntity
  8
0
 62
     0
100
AcDbTrace
 10
19.8863558915612
 20
5.869320102778353
 30
0.0
 11
19.8863558915612
 21
5.844320102778352
 31
0.0
 12
19.8113558915612
 22
5.856820102778352
 32
0.0
 13
19.8113558915612
 23
5.856820102778352
 33
0.0
  0
SOLID
  5
A72
330
A6C
100
AcDbEntity
  8
0
 62
     0
100
AcDbTrace
 10
21.22851002174753
 20
5.869320102778353
 30
0.0
 11
21.22851002174753
 21
5.844320102778352
 31
0.0
 12
21.30351002174753
 22
5.856820102778352
 32
0.0
 13
21.30351002174753
 23
5.856820102778352
 33
0.0
  0
MTEXT
  5
A73
330
A6C
100
AcDbEntity
  8
0
 62
     0
100
AcDbMText
 10
20.55743295665437
 20
5.856820102778352
 30
0.0
 40
0.1
 41
0.0
 46
0.0
 71
     5
 72
     1
  1
\A1;1.4922
  7
small
 73
     1
 44
1.0
  0
POINT
  5
A74
330
A6C
100
AcDbEntity
  8
Defpoints
 62
     0
100
AcDbPoint
 10
19.8113558915612
 20
5.96466538272972
 30
0.0
  0
POINT
  5
A75
330
A6C
100
AcDbEntity
  8
Defpoints
 62
     0
100
AcDbPoint
 10
21.30351002174753
 20
5.96466538272972
 30
0.0
  0
POINT
  5
A76
330
A6C
100
AcDbEntity
  8
Defpoints
 62
     0
100
AcDbPoint
 10
21.30351002174753
 20
5.856820102778352
 30
0.0
  0
ENDBLK
  5
A78
330
A6C
100
AcDbEntity
  8
0
100
AcDbBlockEnd
  0
BLOCK
  5
A83
330
A79
100
AcDbEntity
  8
0
100
AcDbBlockBegin
  2
*D18
 70
     1
 10
0.0
 20
0.0
 30
0.0
  3
*D18
  1

  0
LINE
  5
A7A
330
A79
100
AcDbEntity
  8
0
 62
     0
370
    -2
100
AcDbLine
 10
19.8208558915612
 20
6.045665382729719
 30
0.0
 11
19.53950007245248
 21
6.045665382729719
 31
0.0
  0
LINE
  5
A7B
330
A79
100
AcDbEntity
  8
0
 62
     0
370
    -2
100
AcDbLine
 10
19.7488558915612
 20
5.96466538272972
 30
0.0
 11
19.53950007245248
 21
5.96466538272972
 31
0.0
  0
LINE
  5
A7C
330
A79
100
AcDbEntity
  8
0
 62
     0
370
    -2
100
AcDbLine
 10
19.71950007245248
 20
6.005165382729719
 30
0.0
 11
19.39238547490814
 21
6.005165382729719
 31
0.0
  0
LINE
  5
A7D
330
A79
100
AcDbEntity
  8
0
 62
     0
370
    -2
100
AcDbLine
 10
19.39238547490814
 20
6.005165382729719
 30
0.0
 11
19.21238547490814
 21
6.005165382729719
 31
0.0
  0
MTEXT
  5
A7E
330
A79
100
AcDbEntity
  8
0
 62
     0
100
AcDbMText
 10
18.91498438350296
 20
6.005165382729723
 30
0.0
 40
0.1
 41
0.0
 46
0.0
 71
     5
 72
     1
  1
\A1;0.0810
  7
small
 73
     1
 44
1.0
  0
LINE
  5
A7F
330
A79
100
AcDbEntity
  8
0
 62
     0
370
    -2
100
AcDbLine
 10
19.71950007245248
 20
6.045665382729719
 30
0.0
 11
19.71950007245248
 21
5.96466538272972
 31
0.0
  0
POINT
  5
A80
330
A79
100
AcDbEntity
  8
Defpoints
 62
     0
100
AcDbPoint
 10
19.8833558915612
 20
6.045665382729719
 30
0.0
  0
POINT
  5
A81
330
A79
100
AcDbEntity
  8
Defpoints
 62
     0
100
AcDbPoint
 10
19.8113558915612
 20
5.96466538272972
 30
0.0
  0
POINT
  5
A82
330
A79
100
AcDbEntity
  8
Defpoints
 62
     0
100
AcDbPoint
 10
19.71950007245248
 20
5.96466538272972
 30
0.0
  0
ENDBLK
  5
A84
330
A79
100
AcDbEntity
  8
0
100
AcDbBlockEnd
  0
BLOCK
  5
AD8
330
A92
100
AcDbEntity
  8
0
100
AcDbBlockBegin
  2
smaller diamond
 70
     0
 10
0.0
 20
0.0
 30
0.0
  3
smaller diamond
  1

  0
LINE
  5
A93
330
A92
100
AcDbEntity
  8
0
100
AcDbLine
 10
24.35385591469704
 20
4.473300853362636
 30
0.0
 11
21.42335591469698
 21
4.473300853362636
 31
0.0
  0
LINE
  5
A94
330
A92
100
AcDbEntity
  8
0
100
AcDbLine
 10
24.35385591469704
 20
4.784300853362636
 30
0.0
 11
21.57235591469699
 21
4.784300853362636
 31
0.0
  0
LINE
  5
A95
330
A92
100
AcDbEntity
  8
0
100
AcDbLine
 10
24.47435591469703
 20
4.593800853362638
 30
0.0
 11
24.47435591469703
 21
4.663800853362636
 31
0.0
  0
ARC
  5
A96
330
A92
100
AcDbEntity
  8
0
100
AcDbCircle
 10
21.60816166809137
 20
3.970985510977757
 30
0.0
 40
0.8141031250000029
100
AcDbArc
 50
92.5207869562482
 51
128.5913034829189
  0
ARC
  5
A97
330
A92
100
AcDbEntity
  8
0
100
AcDbCircle
 10
21.11222999590387
 20
4.395270578161782
 30
0.0
 40
0.2123625000000159
100
AcDbArc
 50
43.07360366990042
 51
93.20531985652186
  0
ARC
  5
A98
330
A92
100
AcDbEntity
  8
0
100
AcDbCircle
 10
21.41644384367785
 20
4.672319016362751
 30
0.0
 40
0.1991381578947491
100
AcDbArc
 50
221.5250625290709
 51
271.989131899025
  0
ARC
  5
A99
330
A92
100
AcDbEntity
  8
0
100
AcDbCircle
 10
24.35385591469704
 20
4.663800853362636
 30
0.0
 40
0.1204999999999998
100
AcDbArc
 50
0.0
 51
90.0
  0
ARC
  5
A9A
330
A92
100
AcDbEntity
  8
0
100
AcDbCircle
 10
24.35385591469704
 20
4.593800853362636
 30
0.0
 40
0.1204999999999998
100
AcDbArc
 50
270.0
 51
0.0000000000010178
  0
LINE
  5
A9B
330
A92
100
AcDbEntity
  8
0
100
AcDbLine
 10
25.08198916678668
 20
4.473300853362636
 30
0.0
 11
25.05698916678668
 21
4.473300853362636
 31
0.0
  0
LINE
  5
A9C
330
A92
100
AcDbEntity
  8
0
100
AcDbLine
 10
25.08198916678668
 20
4.784300853362636
 30
0.0
 11
25.05698916678668
 21
4.784300853362636
 31
0.0
  0
LINE
  5
A9D
330
A92
100
AcDbEntity
  8
0
100
AcDbLine
 10
25.08198916678668
 20
4.473300853362636
 30
0.0
 11
25.08198916678668
 21
4.784300853362636
 31
0.0
  0
LINE
  5
A9E
330
A92
100
AcDbEntity
  8
0
100
AcDbLine
 10
25.05698916678668
 20
4.593800853362636
 30
0.0
 11
25.08198916678668
 21
4.593800853362636
 31
0.0
  0
LINE
  5
A9F
330
A92
100
AcDbEntity
  8
0
100
AcDbLine
 10
25.05698916678668
 20
4.663800853362642
 30
0.0
 11
25.08198916678668
 21
4.663800853362642
 31
0.0
  0
LINE
  5
AA0
330
A92
100
AcDbEntity
  8
0
100
AcDbLine
 10
25.05698916678668
 20
4.473300853362636
 30
0.0
 11
25.05698916678668
 21
4.784300853362636
 31
0.0
  0
LINE
  5
AA1
330
A92
100
AcDbEntity
  8
0
100
AcDbLine
 10
21.10035591469702
 20
4.239061370342107
 30
0.0
 11
21.10035591469702
 21
4.214061370342107
 31
0.0
  0
LINE
  5
AA2
330
A92
100
AcDbEntity
  8
0
100
AcDbLine
 10
24.47435591469703
 20
4.239061370342107
 30
0.0
 11
24.47435591469703
 21
4.214061370342107
 31
0.0
  0
LINE
  5
AA3
330
A92
100
AcDbEntity
  8
0
100
AcDbLine
 10
24.47435591469703
 20
4.239061370342107
 30
0.0
 11
21.10035591469702
 21
4.239061370342107
 31
0.0
  0
LINE
  5
AA4
330
A92
100
AcDbEntity
  8
0
100
AcDbLine
 10
24.47435591469703
 20
4.214061370342107
 30
0.0
 11
21.10035591469702
 21
4.214061370342107
 31
0.0
  0
LINE
  5
AA5
330
A92
100
AcDbEntity
  8
0
100
AcDbLine
 10
24.35385591469704
 20
4.214061370342107
 30
0.0
 11
24.35385591469704
 21
4.239061370342107
 31
0.0
  0
LINE
  5
AA6
330
A92
100
AcDbEntity
  8
0
100
AcDbLine
 10
21.41645197859211
 20
4.214061370342107
 30
0.0
 11
21.41645197859211
 21
4.239061370342107
 31
0.0
  0
LINE
  5
AA7
330
A92
100
AcDbEntity
  8
0
100
AcDbLine
 10
21.26735591469703
 20
4.214061370342107
 30
0.0
 11
21.26735591469703
 21
4.239061370342107
 31
0.0
  0
DIMENSION
  5
AA8
102
{ACAD_XDICTIONARY
360
AA9
102
}
330
A92
100
AcDbEntity
  8
0
100
AcDbDimension
280
     0
  2
*D1
 10
21.57235591469699
 20
4.962679484341528
 30
0.0
 11
22.97260389584402
 21
4.962679484341528
 31
0.0
 70
    32
 71
     5
 42
2.800495962294064
 73
     0
 74
     0
 75
     0
  3
small
100
AcDbAlignedDimension
 13
24.37285187699105
 23
4.784300853362636
 33
0.0
 14
21.57235591469699
 24
4.784300853362636
 34
0.0
100
AcDbRotatedDimension
  0
DIMENSION
  5
AAA
102
{ACAD_XDICTIONARY
360
AAB
102
}
330
A92
100
AcDbEntity
  8
0
100
AcDbDimension
280
     0
  2
*D2
 10
21.57235591469699
 20
4.969449103713417
 30
0.0
 11
21.60635591469699
 21
5.296563701257755
 31
0.0
 70
    32
 71
     5
 42
0.4719999999999765
 73
     0
 74
     0
 75
     0
  3
small
100
AcDbAlignedDimension
 13
21.10035591469701
 23
4.607300853362635
 33
0.0
 14
21.57235591469699
 24
4.962679484341528
 34
0.0
100
AcDbRotatedDimension
  0
DIMENSION
  5
AAC
102
{ACAD_XDICTIONARY
360
AAD
102
}
330
A92
100
AcDbEntity
  8
0
100
AcDbDimension
280
     0
  2
*D3
 10
24.47435591469703
 20
3.641678631460822
 30
0.0
 11
22.78735591469702
 21
3.641678631460822
 31
0.0
 70
    32
 71
     5
 42
3.374000000000009
 73
     0
 74
     0
 75
     0
  3
small
100
AcDbAlignedDimension
 13
21.10035591469702
 23
4.214061370342107
 33
0.0
 14
24.47435591469703
 24
4.214061370342107
 34
0.0
100
AcDbRotatedDimension
  0
DIMENSION
  5
AAE
102
{ACAD_XDICTIONARY
360
AAF
102
}
330
A92
100
AcDbEntity
  8
0
100
AcDbDimension
280
     0
  2
*D4
 10
21.26735591469703
 20
4.079836661349624
 30
0.0
 11
21.45385591469703
 21
3.701664765033116
 31
0.0
 70
   160
 71
     5
 42
0.1670000000000158
 73
     0
 74
     0
 75
     0
  3
small
100
AcDbAlignedDimension
 13
21.10035591469702
 23
4.214061370342107
 33
0.0
 14
21.26735591469703
 24
4.214061370342107
 34
0.0
100
AcDbRotatedDimension
  0
DIMENSION
  5
AB0
102
{ACAD_XDICTIONARY
360
AB1
102
}
330
A92
100
AcDbEntity
  8
0
100
AcDbDimension
280
     0
  2
*D5
 10
21.41645197859211
 20
4.079836661349624
 30
0.0
 11
21.61190394664457
 21
3.803779362577455
 31
0.0
 70
   160
 71
     5
 42
0.1490960638950725
 73
     0
 74
     0
 75
     0
  3
small
100
AcDbAlignedDimension
 13
21.26735591469703
 23
4.214061370342107
 33
0.0
 14
21.41645197859211
 24
4.214061370342107
 34
0.0
100
AcDbRotatedDimension
  0
DIMENSION
  5
AB2
102
{ACAD_XDICTIONARY
360
AB3
102
}
330
A92
100
AcDbEntity
  8
0
100
AcDbDimension
280
     0
  2
*D6
 10
24.35385591469704
 20
4.079836661349624
 30
0.0
 11
22.88515394664457
 21
4.079836661349624
 31
0.0
 70
    32
 71
     5
 42
2.937403936104928
 73
     0
 74
     0
 75
     0
  3
small
100
AcDbAlignedDimension
 13
21.41645197859211
 23
4.214061370342107
 33
0.0
 14
24.35385591469704
 24
4.214061370342107
 34
0.0
100
AcDbRotatedDimension
  0
DIMENSION
  5
AB4
102
{ACAD_XDICTIONARY
360
AB5
102
}
330
A92
100
AcDbEntity
  8
0
100
AcDbDimension
280
     0
  2
*D7
 10
24.47435591469703
 20
4.079836661349624
 30
0.0
 11
24.68410591469703
 21
3.701664765033116
 31
0.0
 70
   160
 71
     5
 42
0.1204999999999927
 73
     0
 74
     0
 75
     0
  3
small
100
AcDbAlignedDimension
 13
24.35385591469704
 23
4.214061370342107
 33
0.0
 14
24.47435591469703
 24
4.214061370342107
 34
0.0
100
AcDbRotatedDimension
  0
DIMENSION
  5
AB6
102
{ACAD_XDICTIONARY
360
AB7
102
}
330
A92
100
AcDbEntity
  8
0
100
AcDbDimension
280
     0
  2
*D8
 10
21.60816166809137
 20
3.970985510977759
 30
0.0
 11
20.79887348158862
 21
4.848868608095071
 31
0.0
 70
    36
 71
     5
 42
0.8141031250000008
 73
     0
 74
     0
 75
     0
  3
small
100
AcDbRadialDimension
 15
21.2716476196379
 25
4.712283152501202
 35
0.0
 40
0.0
1001
ACAD
1000
DSTYLE
1002
{
1070
   288
1070
     1
1002
}
1001
ACAD_DSTYLE_DIMRADIAL_EXTENSION
1070
   387
1070
     1
1070
   388
1040
1.614792358922754
1070
   390
1040
2.244341635208187
  0
DIMENSION
  5
AB8
102
{ACAD_XDICTIONARY
360
AB9
102
}
330
A92
100
AcDbEntity
  8
0
100
AcDbDimension
280
     0
  2
*D9
 10
21.11222999590387
 20
4.395270578161784
 30
0.0
 11
21.13600141366542
 21
4.452924728956477
 31
0.0
 70
   164
 71
     5
 42
0.2123625000000153
 73
     0
 74
     0
 75
     0
  3
small
100
AcDbRadialDimension
 15
21.19317860611653
 25
4.59159977596714
 35
0.0
 40
0.0
1001
ACAD
1000
DSTYLE
1002
{
1070
   288
1070
     1
1002
}
1001
ACAD_DSTYLE_DIMRADIAL_EXTENSION
1070
   387
1070
     1
1070
   388
1040
0.7517762047388752
1070
   390
1040
1.626739711870755
  0
DIMENSION
  5
ABA
102
{ACAD_XDICTIONARY
360
ABB
102
}
330
A92
100
AcDbEntity
  8
0
100
AcDbDimension
280
     0
  2
*D10
 10
21.41644384367785
 20
4.672319016362749
 30
0.0
 11
21.16659879520194
 21
4.300340056785728
 31
0.0
 70
   164
 71
     5
 42
0.1991381578947493
 73
     0
 74
     0
 75
     0
  3
small
100
AcDbRadialDimension
 15
21.30541054947565
 25
4.507008358786409
 35
0.0
 40
0.0
1001
ACAD
1000
DSTYLE
1002
{
1070
   288
1070
     1
1002
}
1001
ACAD_DSTYLE_DIMRADIAL_EXTENSION
1070
   387
1070
     1
1070
   388
1040
3.866341716818602
1070
   390
1040
4.747105881279122
  0
DIMENSION
  5
ABC
102
{ACAD_XDICTIONARY
360
ABD
102
}
330
A92
100
AcDbEntity
  8
0
100
AcDbDimension
280
     0
  2
*D11
 10
25.08198916678668
 20
4.307107797993598
 30
0.0
 11
25.33948916678668
 21
3.877878602904921
 31
0.0
 70
    32
 71
     5
 42
0.0249999999999986
 73
     0
 74
     0
 75
     0
  3
small
100
AcDbAlignedDimension
 13
25.05698916678668
 23
4.473300853362636
 33
0.0
 14
25.08198916678668
 24
4.473300853362636
 34
0.0
100
AcDbRotatedDimension
  0
DIMENSION
  5
ABE
102
{ACAD_XDICTIONARY
360
ABF
102
}
330
A92
100
AcDbEntity
  8
0
100
AcDbDimension
280
     0
  2
*D12
 10
25.30691055815883
 20
4.473300853362636
 30
0.0
 11
25.30691055815883
 21
4.62880085336264
 31
0.0
 70
    32
 71
     5
 42
0.3109999999999999
 73
     0
 74
     0
 75
     0
  3
small
100
AcDbAlignedDimension
 13
25.08198916678668
 23
4.784300853362636
 33
0.0
 14
25.08198916678668
 24
4.473300853362636
 34
0.0
 50
90.0
100
AcDbRotatedDimension
  0
XLINE
  5
AC0
330
A92
100
AcDbEntity
  8
0
100
AcDbXline
 10
21.10035591469701
 20
4.607300853362635
 30
0.0
 11
0.0
 21
1.0
 31
0.0
  0
LINE
  5
AC1
330
A92
100
AcDbEntity
  8
0
100
AcDbLine
 10
24.353855914697
 20
5.929665382729721
 30
0.0
 11
21.42335591469695
 21
5.929665382729721
 31
0.0
  0
LINE
  5
AC2
330
A92
100
AcDbEntity
  8
0
100
AcDbLine
 10
24.353855914697
 20
6.240665382729721
 30
0.0
 11
21.57235591469695
 21
6.240665382729721
 31
0.0
  0
LINE
  5
AC3
330
A92
100
AcDbEntity
  8
0
100
AcDbLine
 10
24.474355914697
 20
6.050165382729723
 30
0.0
 11
24.474355914697
 21
6.120165382729721
 31
0.0
  0
ARC
  5
AC4
330
A92
100
AcDbEntity
  8
0
100
AcDbCircle
 10
21.60816166809134
 20
5.427350040344842
 30
0.0
 40
0.8141031250000029
100
AcDbArc
 50
92.52078695624824
 51
128.5913034829189
  0
ARC
  5
AC5
330
A92
100
AcDbEntity
  8
0
100
AcDbCircle
 10
21.41644384367781
 20
6.128683545729836
 30
0.0
 40
0.1991381578947491
100
AcDbArc
 50
235.4508548306223
 51
271.989131899025
  0
ARC
  5
AC6
330
A92
100
AcDbEntity
  8
0
100
AcDbCircle
 10
24.353855914697
 20
6.120165382729721
 30
0.0
 40
0.1204999999999998
100
AcDbArc
 50
0.0
 51
90.0
  0
ARC
  5
AC7
330
A92
100
AcDbEntity
  8
0
100
AcDbCircle
 10
24.353855914697
 20
6.050165382729721
 30
0.0
 40
0.1204999999999998
100
AcDbArc
 50
270.0
 51
0.0000000000010178
  0
LINE
  5
AC8
330
A92
100
AcDbEntity
  8
0
100
AcDbLine
 10
19.8113558915612
 20
5.96466538272972
 30
0.0
 11
21.30351002174753
 21
5.96466538272972
 31
0.0
  0
LINE
  5
AC9
330
A92
100
AcDbEntity
  8
0
100
AcDbLine
 10
21.0563558915612
 20
6.057665382729719
 30
0.0
 11
21.10035591469701
 21
6.063665382729721
 31
0.0
  0
LINE
  5
ACA
330
A92
100
AcDbEntity
  8
0
100
AcDbLine
 10
19.9263558915612
 20
6.00566538272972
 30
0.0
 11
21.0563558915612
 21
6.057665382729719
 31
0.0
  0
LINE
  5
ACB
330
A92
100
AcDbEntity
  8
0
100
AcDbLine
 10
19.9263558915612
 20
6.00566538272972
 30
0.0
 11
19.8833558915612
 21
6.045665382729719
 31
0.0
  0
LINE
  5
ACC
330
A92
100
AcDbEntity
  8
0
100
AcDbLine
 10
19.8833558915612
 20
6.045665382729719
 30
0.0
 11
19.8113558915612
 21
5.96466538272972
 31
0.0
  0
DIMENSION
  5
ACD
102
{ACAD_XDICTIONARY
360
ACE
102
}
330
A92
100
AcDbEntity
  8
0
100
AcDbDimension
280
     0
  2
*D13
 10
21.0563558915612
 20
6.355825291628723
 30
0.0
 11
21.34835590312911
 21
6.682939889173061
 31
0.0
 70
    32
 71
     5
 42
0.0440000231358049
 73
     0
 74
     0
 75
     0
  3
small
100
AcDbAlignedDimension
 13
21.10035591469701
 23
6.063665382729726
 33
0.0
 14
21.0563558915612
 24
6.057665382729719
 34
0.0
100
AcDbRotatedDimension
  0
DIMENSION
  5
ACF
102
{ACAD_XDICTIONARY
360
AD0
102
}
330
A92
100
AcDbEntity
  8
0
100
AcDbDimension
280
     0
  2
*D14
 10
19.9263558915612
 20
6.355825291628723
 30
0.0
 11
20.4913558915612
 21
6.355825291628723
 31
0.0
 70
    32
 71
     5
 42
1.130000000000002
 73
     0
 74
     0
 75
     0
  3
small
100
AcDbAlignedDimension
 13
21.0563558915612
 23
6.057665382729719
 33
0.0
 14
19.9263558915612
 24
6.00566538272972
 34
0.0
100
AcDbRotatedDimension
  0
DIMENSION
  5
AD1
102
{ACAD_XDICTIONARY
360
AD2
102
}
330
A92
100
AcDbEntity
  8
0
100
AcDbDimension
280
     0
  2
*D15
 10
19.8833558915612
 20
6.355825291628723
 30
0.0
 11
20.1748558915612
 21
6.683008101997072
 31
0.0
 70
    32
 71
     5
 42
0.0429999999999993
 73
     0
 74
     0
 75
     0
  3
small
100
AcDbAlignedDimension
 13
19.9263558915612
 23
6.00566538272972
 33
0.0
 14
19.8833558915612
 24
6.045665382729719
 34
0.0
100
AcDbRotatedDimension
  0
DIMENSION
  5
AD3
102
{ACAD_XDICTIONARY
360
AD4
102
}
330
A92
100
AcDbEntity
  8
0
100
AcDbDimension
280
     0
  2
*D16
 10
19.8113558915612
 20
6.355825291628723
 30
0.0
 11
20.1173558915612
 21
6.829906241439856
 31
0.0
 70
   160
 71
     5
 42
0.0719999999999992
 73
     0
 74
     0
 75
     0
  3
small
100
AcDbAlignedDimension
 13
19.8833558915612
 23
6.045665382729719
 33
0.0
 14
19.8113558915612
 24
5.96466538272972
 34
0.0
100
AcDbRotatedDimension
  0
DIMENSION
  5
AD5
102
{ACAD_XDICTIONARY
360
AD6
102
}
330
A92
100
AcDbEntity
  8
0
100
AcDbDimension
280
     0
  2
*D17
 10
21.30351002174753
 20
5.856820102778352
 30
0.0
 11
20.55743295665437
 21
5.856820102778352
 31
0.0
 70
    32
 71
     5
 42
1.492154130186328
 73
     0
 74
     0
 75
     0
  3
small
100
AcDbAlignedDimension
 13
19.8113558915612
 23
5.96466538272972
 33
0.0
 14
21.30351002174753
 24
5.96466538272972
 34
0.0
100
AcDbRotatedDimension
  0
DIMENSION
  5
AD7
330
A92
100
AcDbEntity
  8
0
100
AcDbDimension
280
     0
  2
*D18
 10
19.71950007245248
 20
5.96466538272972
 30
0.0
 11
19.12238547490814
 21
6.005165382729723
 31
0.0
 70
    32
 71
     5
 42
0.0809999999999995
 73
     0
 74
     0
 75
     0
  3
small
100
AcDbAlignedDimension
 13
19.8833558915612
 23
6.045665382729719
 33
0.0
 14
19.8113558915612
 24
5.96466538272972
 34
0.0
 50
90.0
100
AcDbRotatedDimension
  0
ENDBLK
  5
AD9
330
A92
100
AcDbEntity
  8
0
100
AcDbBlockEnd
  0
BLOCK
  5
11AE
330
11A3
100
AcDbEntity
  8
0
100
AcDbBlockBegin
  2
*D20
 70
     1
 10
0.0
 20
0.0
 30
0.0
  3
*D20
  1

  0
LINE
  5
12C7
330
11A3
100
AcDbEntity
  8
D
 62
     0
370
    -2
100
AcDbLine
 10
215.9664550908254
 20
-1.229665411011402
 30
0.0
 11
215.9664550908254
 21
-1.025153340859391
 31
0.0
  0
LINE
  5
12C8
330
11A3
100
AcDbEntity
  8
D
 62
     0
370
    -2
100
AcDbLine
 10
215.9464550908254
 20
-1.229665411011402
 30
0.0
 11
215.9464550908254
 21
-1.025153340859391
 31
0.0
  0
LINE
  5
12C9
330
11A3
100
AcDbEntity
  8
D
 62
     0
370
    -2
100
AcDbLine
 10
216.0144550908254
 20
-1.073153340859391
 30
0.0
 11
216.0624550908254
 21
-1.073153340859391
 31
0.0
  0
LINE
  5
12CA
330
11A3
100
AcDbEntity
  8
D
 62
     0
370
    -2
100
AcDbLine
 10
215.8984550908254
 20
-1.073153340859391
 30
0.0
 11
215.8504550908254
 21
-1.073153340859391
 31
0.0
  0
SOLID
  5
12CB
330
11A3
100
AcDbEntity
  8
D
 62
     0
100
AcDbTrace
 10
216.0144550908254
 20
-1.065153340859391
 30
0.0
 11
216.0144550908254
 21
-1.081153340859391
 31
0.0
 12
215.9664550908254
 22
-1.073153340859391
 32
0.0
 13
215.9664550908254
 23
-1.073153340859391
 33
0.0
  0
SOLID
  5
12CC
330
11A3
100
AcDbEntity
  8
D
 62
     0
100
AcDbTrace
 10
215.8984550908254
 20
-1.065153340859391
 30
0.0
 11
215.8984550908254
 21
-1.081153340859391
 31
0.0
 12
215.9464550908254
 22
-1.073153340859391
 32
0.0
 13
215.9464550908254
 23
-1.073153340859391
 33
0.0
  0
MTEXT
  5
12CD
330
11A3
100
AcDbEntity
  8
D
 62
     0
100
AcDbMText
 10
215.7444550908254
 20
-1.073153340859391
 30
0.0
 40
0.04
 41
0.0
 46
0.0
 71
     5
 72
     1
  1
\A1;0.020
 73
     1
 44
1.0
  0
POINT
  5
12CE
330
11A3
100
AcDbEntity
  8
Defpoints
 62
     0
100
AcDbPoint
 10
215.9664550908254
 20
-1.269665411011402
 30
0.0
  0
POINT
  5
12CF
330
11A3
100
AcDbEntity
  8
Defpoints
 62
     0
100
AcDbPoint
 10
215.9464550908254
 20
-1.269665411011402
 30
0.0
  0
POINT
  5
12D0
330
11A3
100
AcDbEntity
  8
Defpoints
 62
     0
100
AcDbPoint
 10
215.9464550908254
 20
-1.073153340859391
 30
0.0
  0
ENDBLK
  5
11AF
330
11A3
100
AcDbEntity
  8
0
100
AcDbBlockEnd
  0
BLOCK
  5
17C8
330
17BC
100
AcDbEntity
  8
0
100
AcDbBlockBegin
  2
A$C34542D0D
 70
     0
 10
0.0
 20
0.0
 30
0.0
  3
A$C34542D0D
  1

  0
LINE
  5
17BD
330
17BC
100
AcDbEntity
  8
PICK
100
AcDbLine
 10
-216.94329554644
 20
1.701165359667051
 30
0.0
 11
-214.1617955464399
 21
1.701165359667051
 31
0.0
  0
LINE
  5
17BE
330
17BC
100
AcDbEntity
  8
PICK
100
AcDbLine
 10
-216.94329554644
 20
1.390165359667051
 30
0.0
 11
-214.0127955464399
 21
1.390165359667051
 31
0.0
  0
ARC
  5
17BF
330
17BC
100
AcDbEntity
  8
PICK
100
AcDbCircle
 10
-216.94329554644
 20
1.510665359667051
 30
0.0
 40
0.1204999999999998
100
AcDbArc
 50
179.999999999999
 51
270.0
  0
ARC
  5
17C0
330
17BC
100
AcDbEntity
  8
PICK
100
AcDbCircle
 10
-216.94329554644
 20
1.580665359667051
 30
0.0
 40
0.1204999999999998
100
AcDbArc
 50
90.0
 51
180.0
  0
LINE
  5
17C1
330
17BC
100
AcDbEntity
  8
PICK
100
AcDbLine
 10
-217.0637955464399
 20
1.510665359667052
 30
0.0
 11
-217.0637955464399
 21
1.580665359667051
 31
0.0
  0
ARC
  5
17C2
330
17BC
100
AcDbEntity
  8
PICK
100
AcDbCircle
 10
-212.487795611509
 20
1.446165359667041
 30
0.0
 40
0.08
100
AcDbArc
 50
333.2563160495975
 51
166.4768393495838
  0
LINE
  5
17C3
330
17BC
100
AcDbEntity
  8
PICK
100
AcDbLine
 10
-212.416353327111
 20
1.410165359667042
 30
0.0
 11
-213.9186567407245
 21
1.410165359667042
 31
0.0
  0
LINE
  5
17C4
330
17BC
100
AcDbEntity
  8
PICK
100
AcDbLine
 10
-212.5655776495433
 20
1.46487243210568
 30
0.0
 11
-213.645795611509
 21
1.519165359667042
 31
0.0
  0
LINE
  5
17C5
330
17BC
100
AcDbEntity
  8
PICK
100
AcDbLine
 10
-213.645795611509
 20
1.519165359667042
 30
0.0
 11
-213.689795611509
 21
1.524165359667042
 31
0.0
  0
ARC
  5
17C6
330
17BC
100
AcDbEntity
  8
PICK
100
AcDbCircle
 10
-214.0058834754207
 20
1.589183522667166
 30
0.0
 40
0.1991381578947491
100
AcDbArc
 50
268.0108681009747
 51
295.9776938598455
  0
ARC
  5
17C7
330
17BC
100
AcDbEntity
  8
PICK
100
AcDbCircle
 10
-214.1976012998343
 20
0.8878500172821723
 30
0.0
 40
0.8141031250000029
100
AcDbArc
 50
51.40869651708102
 51
87.47921304375257
  0
ENDBLK
  5
17C9
330
17BC
100
AcDbEntity
  8
0
100
AcDbBlockEnd
  0
BLOCK
  5
1A9D
330
1A8F
100
AcDbEntity
  8
0
100
AcDbBlockBegin
  2
A$C38DA0378
 70
     0
 10
0.0
 20
0.0
 30
0.0
  3
A$C38DA0378
  1

  0
LINE
  5
1A90
330
1A8F
100
AcDbEntity
  8
0
100
AcDbLine
 10
4.542500057335765
 20
-0.0000000056211746
 30
0.0
 11
1.612000057335709
 21
-0.0000000056211746
 31
0.0
  0
LINE
  5
1A91
330
1A8F
100
AcDbEntity
  8
0
100
AcDbLine
 10
4.542500057335765
 20
0.3109999943788253
 30
0.0
 11
1.761000057335717
 21
0.3109999943788253
 31
0.0
  0
LINE
  5
1A92
330
1A8F
100
AcDbEntity
  8
0
100
AcDbLine
 10
4.663000057335764
 20
0.120499994378827
 30
0.0
 11
4.663000057335761
 21
0.1904999943788255
 31
0.0
  0
ARC
  5
1A93
330
1A8F
100
AcDbEntity
  8
0
100
AcDbCircle
 10
1.796805810730099
 20
-0.5023153480060536
 30
0.0
 40
0.8141031250000029
100
AcDbArc
 50
92.52078695624824
 51
128.5913034829189
  0
ARC
  5
1A94
330
1A8F
100
AcDbEntity
  8
0
100
AcDbCircle
 10
1.300874138542607
 20
-0.0780302808220288
 30
0.0
 40
0.2123625000000159
100
AcDbArc
 50
43.07360366990046
 51
93.20531985652186
  0
ARC
  5
1A95
330
1A8F
100
AcDbEntity
  8
0
100
AcDbCircle
 10
1.605087986316579
 20
0.1990181573789407
 30
0.0
 40
0.1991381578947491
100
AcDbArc
 50
221.5250625290709
 51
271.989131899025
  0
ARC
  5
1A96
330
1A8F
100
AcDbEntity
  8
0
100
AcDbCircle
 10
4.542500057335765
 20
0.1904999943788255
 30
0.0
 40
0.1204999999999998
100
AcDbArc
 50
0.0
 51
90.0
  0
ARC
  5
1A97
330
1A8F
100
AcDbEntity
  8
0
100
AcDbCircle
 10
4.542500057335765
 20
0.1204999943788252
 30
0.0
 40
0.1204999999999998
100
AcDbArc
 50
270.0
 51
0.0000000000010178
  0
LINE
  5
1A98
330
1A8F
100
AcDbEntity
  8
0
100
AcDbLine
 10
0.0000000341999673
 20
0.0349999943788237
 30
0.0
 11
1.492154164386295
 21
0.0349999943788237
 31
0.0
  0
LINE
  5
1A99
330
1A8F
100
AcDbEntity
  8
0
100
AcDbLine
 10
1.245000034199968
 20
0.1279999943788237
 30
0.0
 11
1.289000057335769
 21
0.1339999943788257
 31
0.0
  0
LINE
  5
1A9A
330
1A8F
100
AcDbEntity
  8
0
100
AcDbLine
 10
0.1150000341999657
 20
0.0759999943788241
 30
0.0
 11
1.245000034199968
 21
0.1279999943788237
 31
0.0
  0
LINE
  5
1A9B
330
1A8F
100
AcDbEntity
  8
0
100
AcDbLine
 10
0.1150000341999657
 20
0.0759999943788241
 30
0.0
 11
0.0720000341999665
 21
0.1159999943788232
 31
0.0
  0
LINE
  5
1A9C
330
1A8F
100
AcDbEntity
  8
0
100
AcDbLine
 10
0.0720000341999665
 20
0.1159999943788232
 30
0.0
 11
0.0000000341999673
 21
0.0349999943788237
 31
0.0
  0
ENDBLK
  5
1A9E
330
1A8F
100
AcDbEntity
  8
0
100
AcDbBlockEnd
  0
BLOCK
  5
2911
330
290B
100
AcDbEntity
  8
0
100
AcDbBlockBegin
  2
*D23
 70
     1
 10
0.0
 20
0.0
 30
0.0
  3
*D23
  1

  0
LINE
  5
290C
330
290B
100
AcDbEntity
  8
D
 62
     0
370
    -2
100
AcDbLine
 10
217.0237956006614
 20
-1.390165411011395
 30
0.0
 11
216.8705943528185
 21
-1.390165411011395
 31
0.0
  0
MTEXT
  5
290D
330
290B
100
AcDbEntity
  8
D
 62
     0
100
AcDbMText
 10
216.7679276861519
 20
-1.390165411011395
 30
0.0
 40
0.04
 41
0.0
 46
0.0
 71
     5
 72
     1
  1
\A1;0.000
 73
     1
 44
1.0
  0
POINT
  5
290E
330
290B
100
AcDbEntity
  8
Defpoints
 62
     0
100
AcDbPoint
 10
217.0637956006614
 20
-1.390165411011395
 30
0.0
  0
POINT
  5
290F
330
290B
100
AcDbEntity
  8
Defpoints
 62
     0
100
AcDbPoint
 10
216.8705943528185
 20
-1.390165411011395
 30
0.0
  0
POINT
  5
2910
330
290B
100
AcDbEntity
  8
Defpoints
 62
     0
100
AcDbPoint
 10
217.0637956006614
 20
-1.390165411011395
 30
0.0
  0
ENDBLK
  5
2912
330
290B
100
AcDbEntity
  8
0
100
AcDbBlockEnd
  0
BLOCK
  5
291A
330
2914
100
AcDbEntity
  8
0
100
AcDbBlockBegin
  2
*D24
 70
     1
 10
0.0
 20
0.0
 30
0.0
  3
*D24
  1

  0
LINE
  5
292E
330
2914
100
AcDbEntity
  8
D
 62
     0
370
    -2
100
AcDbLine
 10
217.0637956006614
 20
-1.350165411011395
 30
0.0
 11
217.0637956006614
 21
-1.139160337958527
 31
0.0
  0
MTEXT
  5
292F
330
2914
100
AcDbEntity
  8
D
 62
     0
100
AcDbMText
 10
217.0637956006614
 20
-1.036493671291825
 30
0.0
 40
0.04
 41
0.0
 46
0.0
 71
     5
 72
     1
  1
\A1;0.000
 11
0.0000000000000001
 21
1.0
 31
0.0
 73
     1
 44
1.0
  0
POINT
  5
2930
330
2914
100
AcDbEntity
  8
Defpoints
 62
     0
100
AcDbPoint
 10
217.0637956006614
 20
-1.390165411011395
 30
0.0
  0
POINT
  5
2931
330
2914
100
AcDbEntity
  8
Defpoints
 62
     0
100
AcDbPoint
 10
217.0637956006614
 20
-1.139160337958527
 30
0.0
  0
POINT
  5
2932
330
2914
100
AcDbEntity
  8
Defpoints
 62
     0
100
AcDbPoint
 10
217.0637956006614
 20
-1.390165411011395
 30
0.0
  0
ENDBLK
  5
291B
330
2914
100
AcDbEntity
  8
0
100
AcDbBlockEnd
  0
BLOCK
  5
2923
330
291D
100
AcDbEntity
  8
0
100
AcDbBlockBegin
  2
*D25
 70
     1
 10
0.0
 20
0.0
 30
0.0
  3
*D25
  1

  0
LINE
  5
291E
330
291D
100
AcDbEntity
  8
D
 62
     0
370
    -2
100
AcDbLine
 10
217.1842956006615
 20
-1.229665411011395
 30
0.0
 11
217.1842956006615
 21
-1.029558044966915
 31
0.0
  0
MTEXT
  5
291F
330
291D
100
AcDbEntity
  8
D
 62
     0
100
AcDbMText
 10
217.1842956006615
 20
-0.930224711633547
 30
0.0
 40
0.04
 41
0.0
 46
0.0
 71
     5
 72
     1
  1
\A1;0.121
 11
0.0000000000000001
 21
1.0
 31
0.0
 73
     1
 44
1.0
  0
POINT
  5
2920
330
291D
100
AcDbEntity
  8
Defpoints
 62
     0
100
AcDbPoint
 10
217.1842956006615
 20
-1.269665411011395
 30
0.0
  0
POINT
  5
2921
330
291D
100
AcDbEntity
  8
Defpoints
 62
     0
100
AcDbPoint
 10
217.1842956006615
 20
-1.029558044966915
 30
0.0
  0
POINT
  5
2922
330
291D
100
AcDbEntity
  8
Defpoints
 62
     0
100
AcDbPoint
 10
217.0637956006614
 20
-1.390165411011395
 30
0.0
  0
ENDBLK
  5
2924
330
291D
100
AcDbEntity
  8
0
100
AcDbBlockEnd
  0
BLOCK
  5
292C
330
2926
100
AcDbEntity
  8
0
100
AcDbBlockBegin
  2
*D26
 70
     1
 10
0.0
 20
0.0
 30
0.0
  3
*D26
  1

  0
LINE
  5
2927
330
2926
100
AcDbEntity
  8
D
 62
     0
370
    -2
100
AcDbLine
 10
217.1442956006615
 20
-1.269665411011395
 30
0.0
 11
216.9357217715446
 21
-1.269665411011395
 31
0.0
  0
MTEXT
  5
2928
330
2926
100
AcDbEntity
  8
D
 62
     0
100
AcDbMText
 10
216.8363884382113
 20
-1.269665411011395
 30
0.0
 40
0.04
 41
0.0
 46
0.0
 71
     5
 72
     1
  1
\A1;0.121
 73
     1
 44
1.0
  0
POINT
  5
2929
330
2926
100
AcDbEntity
  8
Defpoints
 62
     0
100
AcDbPoint
 10
217.1842956006615
 20
-1.269665411011395
 30
0.0
  0
POINT
  5
292A
330
2926
100
AcDbEntity
  8
Defpoints
 62
     0
100
AcDbPoint
 10
216.9357217715446
 20
-1.269665411011395
 30
0.0
  0
POINT
  5
292B
330
2926
100
AcDbEntity
  8
Defpoints
 62
     0
100
AcDbPoint
 10
217.0637956006614
 20
-1.390165411011395
 30
0.0
  0
ENDBLK
  5
292D
330
2926
100
AcDbEntity
  8
0
100
AcDbBlockEnd
  0
BLOCK
  5
293A
330
2934
100
AcDbEntity
  8
0
100
AcDbBlockBegin
  2
*D27
 70
     1
 10
0.0
 20
0.0
 30
0.0
  3
*D27
  1

  0
LINE
  5
2935
330
2934
100
AcDbEntity
  8
D
 62
     0
370
    -2
100
AcDbLine
 10
219.9657956006615
 20
-1.229665411011395
 30
0.0
 11
219.9657956006615
 21
-1.095315841141871
 31
0.0
  0
MTEXT
  5
2936
330
2934
100
AcDbEntity
  8
D
 62
     0
100
AcDbMText
 10
219.9657956006615
 20
-0.9826491744751699
 30
0.0
 40
0.04
 41
0.0
 46
0.0
 71
     5
 72
     1
  1
\A1;2.902
 11
0.0000000000000001
 21
1.0
 31
0.0
 73
     1
 44
1.0
  0
POINT
  5
2937
330
2934
100
AcDbEntity
  8
Defpoints
 62
     0
100
AcDbPoint
 10
219.9657956006615
 20
-1.269665411011395
 30
0.0
  0
POINT
  5
2938
330
2934
100
AcDbEntity
  8
Defpoints
 62
     0
100
AcDbPoint
 10
219.9657956006615
 20
-1.095315841141871
 30
0.0
  0
POINT
  5
2939
330
2934
100
AcDbEntity
  8
Defpoints
 62
     0
100
AcDbPoint
 10
217.0637956006614
 20
-1.390165411011395
 30
0.0
  0
ENDBLK
  5
293B
330
2934
100
AcDbEntity
  8
0
100
AcDbBlockEnd
  0
BLOCK
  5
2943
330
293D
100
AcDbEntity
  8
0
100
AcDbBlockBegin
  2
*D28
 70
     1
 10
0.0
 20
0.0
 30
0.0
  3
*D28
  1

  0
LINE
  5
293E
330
293D
100
AcDbEntity
  8
D
 62
     0
370
    -2
100
AcDbLine
 10
220.4377956006615
 20
-1.406665411011395
 30
0.0
 11
220.4377956006615
 21
-1.279109946671891
 31
0.0
  0
MTEXT
  5
293F
330
293D
100
AcDbEntity
  8
D
 62
     0
100
AcDbMText
 10
220.4377956006615
 20
-1.163109946671855
 30
0.0
 40
0.04
 41
0.0
 46
0.0
 71
     5
 72
     1
  1
\A1;3.374
 11
0.0000000000000001
 21
1.0
 31
0.0
 73
     1
 44
1.0
  0
POINT
  5
2940
330
293D
100
AcDbEntity
  8
Defpoints
 62
     0
100
AcDbPoint
 10
220.4377956006615
 20
-1.446665411011395
 30
0.0
  0
POINT
  5
2941
330
293D
100
AcDbEntity
  8
Defpoints
 62
     0
100
AcDbPoint
 10
220.4377956006615
 20
-1.279109946671891
 30
0.0
  0
POINT
  5
2942
330
293D
100
AcDbEntity
  8
Defpoints
 62
     0
100
AcDbPoint
 10
217.0637956006614
 20
-1.390165411011395
 30
0.0
  0
ENDBLK
  5
2944
330
293D
100
AcDbEntity
  8
0
100
AcDbBlockEnd
  0
BLOCK
  5
294E
330
2946
100
AcDbEntity
  8
0
100
AcDbBlockBegin
  2
*D29
 70
     1
 10
0.0
 20
0.0
 30
0.0
  3
*D29
  1

  0
LINE
  5
2947
330
2946
100
AcDbEntity
  8
D
 62
     0
370
    -2
100
AcDbLine
 10
220.4817955297143
 20
-1.412665354392647
 30
0.0
 11
220.4817955297143
 21
-1.356665354392647
 31
0.0
  0
LINE
  5
2948
330
2946
100
AcDbEntity
  8
D
 62
     0
370
    -2
100
AcDbLine
 10
220.4817955297143
 20
-1.356665354392647
 30
0.0
 11
220.5497742695749
 21
-1.30208989335269
 31
0.0
  0
LINE
  5
2949
330
2946
100
AcDbEntity
  8
D
 62
     0
370
    -2
100
AcDbLine
 10
220.5497742695749
 20
-1.30208989335269
 30
0.0
 11
220.5497742695749
 21
-1.20608989335269
 31
0.0
  0
MTEXT
  5
294A
330
2946
100
AcDbEntity
  8
D
 62
     0
100
AcDbMText
 10
220.5497742695749
 20
-1.096756560019321
 30
0.0
 40
0.04
 41
0.0
 46
0.0
 71
     5
 72
     1
  1
\A1;3.418
 11
0.0000000000000001
 21
1.0
 31
0.0
 73
     1
 44
1.0
  0
POINT
  5
294B
330
2946
100
AcDbEntity
  8
Defpoints
 62
     0
100
AcDbPoint
 10
220.4817955297143
 20
-1.452665354392647
 30
0.0
  0
POINT
  5
294C
330
2946
100
AcDbEntity
  8
Defpoints
 62
     0
100
AcDbPoint
 10
220.5497742695749
 20
-1.20608989335269
 30
0.0
  0
POINT
  5
294D
330
2946
100
AcDbEntity
  8
Defpoints
 62
     0
100
AcDbPoint
 10
217.0637956006614
 20
-1.390165411011395
 30
0.0
  0
ENDBLK
  5
294F
330
2946
100
AcDbEntity
  8
0
100
AcDbBlockEnd
  0
BLOCK
  5
2959
330
2951
100
AcDbEntity
  8
0
100
AcDbBlockBegin
  2
*D30
 70
     1
 10
0.0
 20
0.0
 30
0.0
  3
*D30
  1

  0
LINE
  5
2952
330
2951
100
AcDbEntity
  8
D
 62
     0
370
    -2
100
AcDbLine
 10
221.1697955297143
 20
-1.446665354392647
 30
0.0
 11
221.1697955297143
 21
-0.9688889818507531
 31
0.0
  0
LINE
  5
2953
330
2951
100
AcDbEntity
  8
D
 62
     0
370
    -2
100
AcDbLine
 10
221.1697955297143
 20
-0.9688889818507531
 30
0.0
 11
221.0596459920733
 21
-0.872888981850753
 31
0.0
  0
LINE
  5
2954
330
2951
100
AcDbEntity
  8
D
 62
     0
370
    -2
100
AcDbLine
 10
221.0596459920733
 20
-0.872888981850753
 30
0.0
 11
221.0596459920733
 21
-0.7768889818507532
 31
0.0
  0
MTEXT
  5
2955
330
2951
100
AcDbEntity
  8
D
 62
     0
100
AcDbMText
 10
221.0596459920733
 20
-0.6708889818507177
 30
0.0
 40
0.04
 41
0.0
 46
0.0
 71
     5
 72
     1
  1
\A1;4.106
 11
0.0000000000000001
 21
1.0
 31
0.0
 73
     1
 44
1.0
  0
POINT
  5
2956
330
2951
100
AcDbEntity
  8
Defpoints
 62
     0
100
AcDbPoint
 10
221.1697955297143
 20
-1.486665354392647
 30
0.0
  0
POINT
  5
2957
330
2951
100
AcDbEntity
  8
Defpoints
 62
     0
100
AcDbPoint
 10
221.0596459920733
 20
-0.7768889818507532
 30
0.0
  0
POINT
  5
2958
330
2951
100
AcDbEntity
  8
Defpoints
 62
     0
100
AcDbPoint
 10
217.0637956006614
 20
-1.390165411011395
 30
0.0
  0
ENDBLK
  5
295A
330
2951
100
AcDbEntity
  8
0
100
AcDbBlockEnd
  0
BLOCK
  5
2964
330
295C
100
AcDbEntity
  8
0
100
AcDbBlockBegin
  2
*D31
 70
     1
 10
0.0
 20
0.0
 30
0.0
  3
*D31
  1

  0
LINE
  5
295D
330
295C
100
AcDbEntity
  8
D
 62
     0
370
    -2
100
AcDbLine
 10
221.2167955297143
 20
-1.431665354392647
 30
0.0
 11
221.2167955297143
 21
-0.9345389541392775
 31
0.0
  0
LINE
  5
295E
330
295C
100
AcDbEntity
  8
D
 62
     0
370
    -2
100
AcDbLine
 10
221.2167955297143
 20
-0.9345389541392775
 30
0.0
 11
221.1293035525646
 21
-0.8385389541392774
 31
0.0
  0
LINE
  5
295F
330
295C
100
AcDbEntity
  8
D
 62
     0
370
    -2
100
AcDbLine
 10
221.1293035525646
 20
-0.8385389541392774
 30
0.0
 11
221.1293035525646
 21
-0.7425389541392775
 31
0.0
  0
MTEXT
  5
2960
330
295C
100
AcDbEntity
  8
D
 62
     0
100
AcDbMText
 10
221.1293035525646
 20
-0.6332056208059087
 30
0.0
 40
0.04
 41
0.0
 46
0.0
 71
     5
 72
     1
  1
\A1;4.153
 11
0.0000000000000001
 21
1.0
 31
0.0
 73
     1
 44
1.0
  0
POINT
  5
2961
330
295C
100
AcDbEntity
  8
Defpoints
 62
     0
100
AcDbPoint
 10
221.2167955297143
 20
-1.471665354392647
 30
0.0
  0
POINT
  5
2962
330
295C
100
AcDbEntity
  8
Defpoints
 62
     0
100
AcDbPoint
 10
221.1293035525646
 20
-0.7425389541392775
 30
0.0
  0
POINT
  5
2963
330
295C
100
AcDbEntity
  8
Defpoints
 62
     0
100
AcDbPoint
 10
217.0637956006614
 20
-1.390165411011395
 30
0.0
  0
ENDBLK
  5
2965
330
295C
100
AcDbEntity
  8
0
100
AcDbBlockEnd
  0
BLOCK
  5
296F
330
2967
100
AcDbEntity
  8
0
100
AcDbBlockBegin
  2
*D32
 70
     1
 10
0.0
 20
0.0
 30
0.0
  3
*D32
  1

  0
LINE
  5
2968
330
2967
100
AcDbEntity
  8
D
 62
     0
370
    -2
100
AcDbLine
 10
221.2567955297143
 20
-1.397665354392646
 30
0.0
 11
221.2567955297143
 21
-0.8821130365459628
 31
0.0
  0
LINE
  5
2969
330
2967
100
AcDbEntity
  8
D
 62
     0
370
    -2
100
AcDbLine
 10
221.2567955297143
 20
-0.8821130365459628
 30
0.0
 11
221.1883320147458
 21
-0.7861130365459629
 31
0.0
  0
LINE
  5
296A
330
2967
100
AcDbEntity
  8
D
 62
     0
370
    -2
100
AcDbLine
 10
221.1883320147458
 20
-0.7861130365459629
 30
0.0
 11
221.1883320147458
 21
-0.6901130365459629
 31
0.0
  0
MTEXT
  5
296B
330
2967
100
AcDbEntity
  8
D
 62
     0
100
AcDbMText
 10
221.1883320147458
 20
-0.5807797032125941
 30
0.0
 40
0.04
 41
0.0
 46
0.0
 71
     5
 72
     1
  1
\A1;4.193
 11
0.0000000000000001
 21
1.0
 31
0.0
 73
     1
 44
1.0
  0
POINT
  5
296C
330
2967
100
AcDbEntity
  8
Defpoints
 62
     0
100
AcDbPoint
 10
221.2567955297143
 20
-1.437665354392646
 30
0.0
  0
POINT
  5
296D
330
2967
100
AcDbEntity
  8
Defpoints
 62
     0
100
AcDbPoint
 10
221.1883320147458
 20
-0.6901130365459629
 30
0.0
  0
POINT
  5
296E
330
2967
100
AcDbEntity
  8
Defpoints
 62
     0
100
AcDbPoint
 10
217.0637956006614
 20
-1.390165411011395
 30
0.0
  0
ENDBLK
  5
2970
330
2967
100
AcDbEntity
  8
0
100
AcDbBlockEnd
  0
BLOCK
  5
297A
330
2972
100
AcDbEntity
  8
0
100
AcDbBlockBegin
  2
*D33
 70
     1
 10
0.0
 20
0.0
 30
0.0
  3
*D33
  1

  0
LINE
  5
2973
330
2972
100
AcDbEntity
  8
D
 62
     0
370
    -2
100
AcDbLine
 10
221.3427955297143
 20
-1.397665354392646
 30
0.0
 11
221.3427955297143
 21
-0.8842974603388283
 31
0.0
  0
LINE
  5
2974
330
2972
100
AcDbEntity
  8
D
 62
     0
370
    -2
100
AcDbLine
 10
221.3427955297143
 20
-0.8842974603388283
 30
0.0
 11
221.4025834964501
 21
-0.7882974603388284
 31
0.0
  0
LINE
  5
2975
330
2972
100
AcDbEntity
  8
D
 62
     0
370
    -2
100
AcDbLine
 10
221.4025834964501
 20
-0.7882974603388284
 30
0.0
 11
221.4025834964501
 21
-0.6922974603388284
 31
0.0
  0
MTEXT
  5
2976
330
2972
100
AcDbEntity
  8
D
 62
     0
100
AcDbMText
 10
221.4025834964501
 20
-0.5762974603387927
 30
0.0
 40
0.04
 41
0.0
 46
0.0
 71
     5
 72
     1
  1
\A1;4.279
 11
0.0000000000000001
 21
1.0
 31
0.0
 73
     1
 44
1.0
  0
POINT
  5
2977
330
2972
100
AcDbEntity
  8
Defpoints
 62
     0
100
AcDbPoint
 10
221.3427955297143
 20
-1.437665354392646
 30
0.0
  0
POINT
  5
2978
330
2972
100
AcDbEntity
  8
Defpoints
 62
     0
100
AcDbPoint
 10
221.4025834964501
 20
-0.6922974603388284
 30
0.0
  0
POINT
  5
2979
330
2972
100
AcDbEntity
  8
Defpoints
 62
     0
100
AcDbPoint
 10
217.0637956006614
 20
-1.390165411011395
 30
0.0
  0
ENDBLK
  5
297B
330
2972
100
AcDbEntity
  8
0
100
AcDbBlockEnd
  0
BLOCK
  5
2985
330
297D
100
AcDbEntity
  8
0
100
AcDbBlockBegin
  2
*D34
 70
     1
 10
0.0
 20
0.0
 30
0.0
  3
*D34
  1

  0
LINE
  5
297E
330
297D
100
AcDbEntity
  8
D
 62
     0
370
    -2
100
AcDbLine
 10
221.3827955297142
 20
-1.432665354392649
 30
0.0
 11
221.3827955297142
 21
-0.9039571794363217
 31
0.0
  0
LINE
  5
297F
330
297D
100
AcDbEntity
  8
D
 62
     0
370
    -2
100
AcDbLine
 10
221.3827955297142
 20
-0.9039571794363217
 30
0.0
 11
221.4900331002005
 21
-0.8079571794363216
 31
0.0
  0
LINE
  5
2980
330
297D
100
AcDbEntity
  8
D
 62
     0
370
    -2
100
AcDbLine
 10
221.4900331002005
 20
-0.8079571794363216
 30
0.0
 11
221.4900331002005
 21
-0.7119571794363218
 31
0.0
  0
MTEXT
  5
2981
330
297D
100
AcDbEntity
  8
D
 62
     0
100
AcDbMText
 10
221.4900331002005
 20
-0.6026238461029527
 30
0.0
 40
0.04
 41
0.0
 46
0.0
 71
     5
 72
     1
  1
\A1;4.319
 11
0.0000000000000001
 21
1.0
 31
0.0
 73
     1
 44
1.0
  0
POINT
  5
2982
330
297D
100
AcDbEntity
  8
Defpoints
 62
     0
100
AcDbPoint
 10
221.3827955297142
 20
-1.47266535439265
 30
0.0
  0
POINT
  5
2983
330
297D
100
AcDbEntity
  8
Defpoints
 62
     0
100
AcDbPoint
 10
221.4900331002005
 20
-0.7119571794363218
 30
0.0
  0
POINT
  5
2984
330
297D
100
AcDbEntity
  8
Defpoints
 62
     0
100
AcDbPoint
 10
217.0637956006614
 20
-1.390165411011395
 30
0.0
  0
ENDBLK
  5
2986
330
297D
100
AcDbEntity
  8
0
100
AcDbBlockEnd
  0
BLOCK
  5
2990
330
2988
100
AcDbEntity
  8
0
100
AcDbBlockBegin
  2
*D35
 70
     1
 10
0.0
 20
0.0
 30
0.0
  3
*D35
  1

  0
LINE
  5
2989
330
2988
100
AcDbEntity
  8
D
 62
     0
370
    -2
100
AcDbLine
 10
221.4597955297143
 20
-1.447665354392647
 30
0.0
 11
221.4597955297143
 21
-0.9170636588346495
 31
0.0
  0
LINE
  5
298A
330
2988
100
AcDbEntity
  8
D
 62
     0
370
    -2
100
AcDbLine
 10
221.4597955297143
 20
-0.9170636588346495
 30
0.0
 11
221.5927863642569
 21
-0.8210636588346494
 31
0.0
  0
LINE
  5
298B
330
2988
100
AcDbEntity
  8
D
 62
     0
370
    -2
100
AcDbLine
 10
221.5927863642569
 20
-0.8210636588346494
 30
0.0
 11
221.5927863642569
 21
-0.7250636588346496
 31
0.0
  0
MTEXT
  5
298C
330
2988
100
AcDbEntity
  8
D
 62
     0
100
AcDbMText
 10
221.5927863642569
 20
-0.6090636588346139
 30
0.0
 40
0.04
 41
0.0
 46
0.0
 71
     5
 72
     1
  1
\A1;4.396
 11
0.0000000000000001
 21
1.0
 31
0.0
 73
     1
 44
1.0
  0
POINT
  5
298D
330
2988
100
AcDbEntity
  8
Defpoints
 62
     0
100
AcDbPoint
 10
221.4597955297143
 20
-1.487665354392647
 30
0.0
  0
POINT
  5
298E
330
2988
100
AcDbEntity
  8
Defpoints
 62
     0
100
AcDbPoint
 10
221.5927863642569
 20
-0.7250636588346496
 30
0.0
  0
POINT
  5
298F
330
2988
100
AcDbEntity
  8
Defpoints
 62
     0
100
AcDbPoint
 10
217.0637956006614
 20
-1.390165411011395
 30
0.0
  0
ENDBLK
  5
2991
330
2988
100
AcDbEntity
  8
0
100
AcDbBlockEnd
  0
BLOCK
  5
2999
330
2993
100
AcDbEntity
  8
0
100
AcDbBlockBegin
  2
*D36
 70
     1
 10
0.0
 20
0.0
 30
0.0
  3
*D36
  1

  0
LINE
  5
2994
330
2993
100
AcDbEntity
  8
D
 62
     0
370
    -2
100
AcDbLine
 10
221.6797955297143
 20
-1.337665354392647
 30
0.0
 11
221.6797955297143
 21
-0.7250636588346496
 31
0.0
  0
MTEXT
  5
2995
330
2993
100
AcDbEntity
  8
D
 62
     0
100
AcDbMText
 10
221.6797955297143
 20
-0.6157303255012805
 30
0.0
 40
0.04
 41
0.0
 46
0.0
 71
     5
 72
     1
  1
\A1;4.616
 11
0.0000000000000001
 21
1.0
 31
0.0
 73
     1
 44
1.0
  0
POINT
  5
2996
330
2993
100
AcDbEntity
  8
Defpoints
 62
     0
100
AcDbPoint
 10
221.6797955297143
 20
-1.377665354392647
 30
0.0
  0
POINT
  5
2997
330
2993
100
AcDbEntity
  8
Defpoints
 62
     0
100
AcDbPoint
 10
221.6797955297143
 20
-0.7250636588346496
 30
0.0
  0
POINT
  5
2998
330
2993
100
AcDbEntity
  8
Defpoints
 62
     0
100
AcDbPoint
 10
217.0637956006614
 20
-1.390165411011395
 30
0.0
  0
ENDBLK
  5
299A
330
2993
100
AcDbEntity
  8
0
100
AcDbBlockEnd
  0
BLOCK
  5
29A4
330
299C
100
AcDbEntity
  8
0
100
AcDbBlockBegin
  2
*D37
 70
     1
 10
0.0
 20
0.0
 30
0.0
  3
*D37
  1

  0
LINE
  5
299D
330
299C
100
AcDbEntity
  8
D
 62
     0
370
    -2
100
AcDbLine
 10
221.7197955297143
 20
-1.337665354392642
 30
0.0
 11
221.7197955297143
 21
-0.9214324747409495
 31
0.0
  0
LINE
  5
299E
330
299C
100
AcDbEntity
  8
D
 62
     0
370
    -2
100
AcDbLine
 10
221.7197955297143
 20
-0.9214324747409495
 30
0.0
 11
221.7982928923697
 21
-0.8254324747409496
 31
0.0
  0
LINE
  5
299F
330
299C
100
AcDbEntity
  8
D
 62
     0
370
    -2
100
AcDbLine
 10
221.7982928923697
 20
-0.8254324747409496
 30
0.0
 11
221.7982928923697
 21
-0.7294324747409498
 31
0.0
  0
MTEXT
  5
29A0
330
299C
100
AcDbEntity
  8
D
 62
     0
100
AcDbMText
 10
221.7982928923697
 20
-0.6134324747409141
 30
0.0
 40
0.04
 41
0.0
 46
0.0
 71
     5
 72
     1
  1
\A1;4.656
 11
0.0000000000000001
 21
1.0
 31
0.0
 73
     1
 44
1.0
  0
POINT
  5
29A1
330
299C
100
AcDbEntity
  8
Defpoints
 62
     0
100
AcDbPoint
 10
221.7197955297143
 20
-1.377665354392642
 30
0.0
  0
POINT
  5
29A2
330
299C
100
AcDbEntity
  8
Defpoints
 62
     0
100
AcDbPoint
 10
221.7982928923697
 20
-0.7294324747409498
 30
0.0
  0
POINT
  5
29A3
330
299C
100
AcDbEntity
  8
Defpoints
 62
     0
100
AcDbPoint
 10
217.0637956006614
 20
-1.390165411011395
 30
0.0
  0
ENDBLK
  5
29A5
330
299C
100
AcDbEntity
  8
0
100
AcDbBlockEnd
  0
BLOCK
  5
29AF
330
29A7
100
AcDbEntity
  8
0
100
AcDbBlockBegin
  2
*D38
 70
     1
 10
0.0
 20
0.0
 30
0.0
  3
*D38
  1

  0
LINE
  5
29A8
330
29A7
100
AcDbEntity
  8
D
 62
     0
370
    -2
100
AcDbLine
 10
221.8179328130217
 20
-1.423807812901309
 30
0.0
 11
221.8179328130217
 21
-0.9236168985338151
 31
0.0
  0
LINE
  5
29A9
330
29A7
100
AcDbEntity
  8
D
 62
     0
370
    -2
100
AcDbLine
 10
221.8179328130217
 20
-0.9236168985338151
 30
0.0
 11
221.9097911100176
 21
-0.827616898533815
 31
0.0
  0
LINE
  5
29AA
330
29A7
100
AcDbEntity
  8
D
 62
     0
370
    -2
100
AcDbLine
 10
221.9097911100176
 20
-0.827616898533815
 30
0.0
 11
221.9097911100176
 21
-0.7316168985338152
 31
0.0
  0
MTEXT
  5
29AB
330
29A7
100
AcDbEntity
  8
D
 62
     0
100
AcDbMText
 10
221.9097911100176
 20
-0.6156168985337795
 30
0.0
 40
0.04
 41
0.0
 46
0.0
 71
     5
 72
     1
  1
\A1;4.754
 11
0.0000000000000001
 21
1.0
 31
0.0
 73
     1
 44
1.0
  0
POINT
  5
29AC
330
29A7
100
AcDbEntity
  8
Defpoints
 62
     0
100
AcDbPoint
 10
221.8179328130217
 20
-1.463807812901309
 30
0.0
  0
POINT
  5
29AD
330
29A7
100
AcDbEntity
  8
Defpoints
 62
     0
100
AcDbPoint
 10
221.9097911100176
 20
-0.7316168985338152
 30
0.0
  0
POINT
  5
29AE
330
29A7
100
AcDbEntity
  8
Defpoints
 62
     0
100
AcDbPoint
 10
217.0637956006614
 20
-1.390165411011395
 30
0.0
  0
ENDBLK
  5
29B0
330
29A7
100
AcDbEntity
  8
0
100
AcDbBlockEnd
  0
BLOCK
  5
29BA
330
29B2
100
AcDbEntity
  8
0
100
AcDbBlockBegin
  2
*D39
 70
     1
 10
0.0
 20
0.0
 30
0.0
  3
*D39
  1

  0
LINE
  5
2BCE
330
29B2
100
AcDbEntity
  8
D
 62
     0
370
    -2
100
AcDbLine
 10
221.774393602898
 20
-1.553409598976011
 30
0.0
 11
221.774393602898
 21
-1.837235262948057
 31
0.0
  0
LINE
  5
2BCF
330
29B2
100
AcDbEntity
  8
D
 62
     0
370
    -2
100
AcDbLine
 10
221.774393602898
 20
-1.837235262948057
 30
0.0
 11
221.9436075240644
 21
-1.933235262948057
 31
0.0
  0
LINE
  5
2BD0
330
29B2
100
AcDbEntity
  8
D
 62
     0
370
    -2
100
AcDbLine
 10
221.9436075240644
 20
-1.933235262948057
 30
0.0
 11
221.9436075240644
 21
-2.029235262948057
 31
0.0
  0
MTEXT
  5
2BD1
330
29B2
100
AcDbEntity
  8
D
 62
     0
100
AcDbMText
 10
221.9436075240644
 20
-2.131901929614688
 30
0.0
 40
0.04
 41
0.0
 46
0.0
 71
     5
 72
     1
  1
\A1;4.711
 11
0.0000000000000001
 21
1.0
 31
0.0
 73
     1
 44
1.0
  0
POINT
  5
2BD2
330
29B2
100
AcDbEntity
  8
Defpoints
 62
     0
100
AcDbPoint
 10
221.774393602898
 20
-1.513409598976011
 30
0.0
  0
POINT
  5
2BD3
330
29B2
100
AcDbEntity
  8
Defpoints
 62
     0
100
AcDbPoint
 10
221.9436075240644
 20
-2.029235262948057
 30
0.0
  0
POINT
  5
2BD4
330
29B2
100
AcDbEntity
  8
Defpoints
 62
     0
100
AcDbPoint
 10
217.0637956006614
 20
-1.390165411011395
 30
0.0
  0
ENDBLK
  5
29BB
330
29B2
100
AcDbEntity
  8
0
100
AcDbBlockEnd
  0
BLOCK
  5
29C5
330
29BD
100
AcDbEntity
  8
0
100
AcDbBlockBegin
  2
*D40
 70
     1
 10
0.0
 20
0.0
 30
0.0
  3
*D40
  1

  0
LINE
  5
2BD5
330
29BD
100
AcDbEntity
  8
D
 62
     0
370
    -2
100
AcDbLine
 10
221.7077955297143
 20
-1.500665354392647
 30
0.0
 11
221.7077955297143
 21
-1.868856521828501
 31
0.0
  0
LINE
  5
2BD6
330
29BD
100
AcDbEntity
  8
D
 62
     0
370
    -2
100
AcDbLine
 10
221.7077955297143
 20
-1.868856521828501
 30
0.0
 11
221.8761192507245
 21
-1.964856521828501
 31
0.0
  0
LINE
  5
2BD7
330
29BD
100
AcDbEntity
  8
D
 62
     0
370
    -2
100
AcDbLine
 10
221.8761192507245
 20
-1.964856521828501
 30
0.0
 11
221.8761192507245
 21
-2.060856521828501
 31
0.0
  0
MTEXT
  5
2BD8
330
29BD
100
AcDbEntity
  8
D
 62
     0
100
AcDbMText
 10
221.8761192507245
 20
-2.176856521828465
 30
0.0
 40
0.04
 41
0.0
 46
0.0
 71
     5
 72
     1
  1
\A1;4.644
 11
0.0000000000000001
 21
1.0
 31
0.0
 73
     1
 44
1.0
  0
POINT
  5
2BD9
330
29BD
100
AcDbEntity
  8
Defpoints
 62
     0
100
AcDbPoint
 10
221.7077955297143
 20
-1.460665354392647
 30
0.0
  0
POINT
  5
2BDA
330
29BD
100
AcDbEntity
  8
Defpoints
 62
     0
100
AcDbPoint
 10
221.8761192507245
 20
-2.060856521828501
 30
0.0
  0
POINT
  5
2BDB
330
29BD
100
AcDbEntity
  8
Defpoints
 62
     0
100
AcDbPoint
 10
217.0637956006614
 20
-1.390165411011395
 30
0.0
  0
ENDBLK
  5
29C6
330
29BD
100
AcDbEntity
  8
0
100
AcDbBlockEnd
  0
BLOCK
  5
29D0
330
29C8
100
AcDbEntity
  8
0
100
AcDbBlockBegin
  2
*D41
 70
     1
 10
0.0
 20
0.0
 30
0.0
  3
*D41
  1

  0
LINE
  5
29C9
330
29C8
100
AcDbEntity
  8
D
 62
     0
370
    -2
100
AcDbLine
 10
221.6777955297143
 20
-1.500665354392647
 30
0.0
 11
221.6777955297143
 21
-1.90063007204203
 31
0.0
  0
LINE
  5
29CA
330
29C8
100
AcDbEntity
  8
D
 62
     0
370
    -2
100
AcDbLine
 10
221.6777955297143
 20
-1.90063007204203
 30
0.0
 11
221.7802873052473
 21
-1.99663007204203
 31
0.0
  0
LINE
  5
29CB
330
29C8
100
AcDbEntity
  8
D
 62
     0
370
    -2
100
AcDbLine
 10
221.7802873052473
 20
-1.99663007204203
 30
0.0
 11
221.7802873052473
 21
-2.09263007204203
 31
0.0
  0
MTEXT
  5
29CC
330
29C8
100
AcDbEntity
  8
D
 62
     0
100
AcDbMText
 10
221.7802873052473
 20
-2.201963405375328
 30
0.0
 40
0.04
 41
0.0
 46
0.0
 71
     5
 72
     1
  1
\A1;4.614
 11
0.0000000000000001
 21
1.0
 31
0.0
 73
     1
 44
1.0
  0
POINT
  5
29CD
330
29C8
100
AcDbEntity
  8
Defpoints
 62
     0
100
AcDbPoint
 10
221.6777955297143
 20
-1.460665354392647
 30
0.0
  0
POINT
  5
29CE
330
29C8
100
AcDbEntity
  8
Defpoints
 62
     0
100
AcDbPoint
 10
221.7802873052473
 20
-2.09263007204203
 30
0.0
  0
POINT
  5
29CF
330
29C8
100
AcDbEntity
  8
Defpoints
 62
     0
100
AcDbPoint
 10
217.0637956006614
 20
-1.390165411011395
 30
0.0
  0
ENDBLK
  5
29D1
330
29C8
100
AcDbEntity
  8
0
100
AcDbBlockEnd
  0
BLOCK
  5
29DB
330
29D3
100
AcDbEntity
  8
0
100
AcDbBlockBegin
  2
*D42
 70
     1
 10
0.0
 20
0.0
 30
0.0
  3
*D42
  1

  0
LINE
  5
29D4
330
29D3
100
AcDbEntity
  8
D
 62
     0
370
    -2
100
AcDbLine
 10
221.5207955297143
 20
-1.587665354392647
 30
0.0
 11
221.5207955297143
 21
-1.877031617054076
 31
0.0
  0
LINE
  5
29D5
330
29D3
100
AcDbEntity
  8
D
 62
     0
370
    -2
100
AcDbLine
 10
221.5207955297143
 20
-1.877031617054076
 30
0.0
 11
221.554306038217
 21
-1.973031617054076
 31
0.0
  0
LINE
  5
29D6
330
29D3
100
AcDbEntity
  8
D
 62
     0
370
    -2
100
AcDbLine
 10
221.554306038217
 20
-1.973031617054076
 30
0.0
 11
221.554306038217
 21
-2.069031617054076
 31
0.0
  0
MTEXT
  5
29D7
330
29D3
100
AcDbEntity
  8
D
 62
     0
100
AcDbMText
 10
221.554306038217
 20
-2.18503161705404
 30
0.0
 40
0.04
 41
0.0
 46
0.0
 71
     5
 72
     1
  1
\A1;4.457
 11
0.0000000000000001
 21
1.0
 31
0.0
 73
     1
 44
1.0
  0
POINT
  5
29D8
330
29D3
100
AcDbEntity
  8
Defpoints
 62
     0
100
AcDbPoint
 10
221.5207955297143
 20
-1.547665354392647
 30
0.0
  0
POINT
  5
29D9
330
29D3
100
AcDbEntity
  8
Defpoints
 62
     0
100
AcDbPoint
 10
221.554306038217
 20
-2.069031617054076
 30
0.0
  0
POINT
  5
29DA
330
29D3
100
AcDbEntity
  8
Defpoints
 62
     0
100
AcDbPoint
 10
217.0637956006614
 20
-1.390165411011395
 30
0.0
  0
ENDBLK
  5
29DC
330
29D3
100
AcDbEntity
  8
0
100
AcDbBlockEnd
  0
BLOCK
  5
29E6
330
29DE
100
AcDbEntity
  8
0
100
AcDbBlockBegin
  2
*D43
 70
     1
 10
0.0
 20
0.0
 30
0.0
  3
*D43
  1

  0
LINE
  5
29DF
330
29DE
100
AcDbEntity
  8
D
 62
     0
370
    -2
100
AcDbLine
 10
221.3577955297143
 20
-1.587665354392647
 30
0.0
 11
221.3577955297143
 21
-1.875524974782923
 31
0.0
  0
LINE
  5
29E0
330
29DE
100
AcDbEntity
  8
D
 62
     0
370
    -2
100
AcDbLine
 10
221.3577955297143
 20
-1.875524974782923
 30
0.0
 11
221.3872976088545
 21
-1.971524974782923
 31
0.0
  0
LINE
  5
29E1
330
29DE
100
AcDbEntity
  8
D
 62
     0
370
    -2
100
AcDbLine
 10
221.3872976088545
 20
-1.971524974782923
 30
0.0
 11
221.3872976088545
 21
-2.067524974782923
 31
0.0
  0
MTEXT
  5
29E2
330
29DE
100
AcDbEntity
  8
D
 62
     0
100
AcDbMText
 10
221.3872976088545
 20
-2.183524974782887
 30
0.0
 40
0.04
 41
0.0
 46
0.0
 71
     5
 72
     1
  1
\A1;4.294
 11
0.0000000000000001
 21
1.0
 31
0.0
 73
     1
 44
1.0
  0
POINT
  5
29E3
330
29DE
100
AcDbEntity
  8
Defpoints
 62
     0
100
AcDbPoint
 10
221.3577955297143
 20
-1.547665354392647
 30
0.0
  0
POINT
  5
29E4
330
29DE
100
AcDbEntity
  8
Defpoints
 62
     0
100
AcDbPoint
 10
221.3872976088545
 20
-2.067524974782923
 30
0.0
  0
POINT
  5
29E5
330
29DE
100
AcDbEntity
  8
Defpoints
 62
     0
100
AcDbPoint
 10
217.0637956006614
 20
-1.390165411011395
 30
0.0
  0
ENDBLK
  5
29E7
330
29DE
100
AcDbEntity
  8
0
100
AcDbBlockEnd
  0
BLOCK
  5
29F1
330
29E9
100
AcDbEntity
  8
0
100
AcDbBlockBegin
  2
*D44
 70
     1
 10
0.0
 20
0.0
 30
0.0
  3
*D44
  1

  0
LINE
  5
29EA
330
29E9
100
AcDbEntity
  8
D
 62
     0
370
    -2
100
AcDbLine
 10
221.3137955297143
 20
-1.547665354392647
 30
0.0
 11
221.3137955297143
 21
-1.875524974782923
 31
0.0
  0
LINE
  5
29EB
330
29E9
100
AcDbEntity
  8
D
 62
     0
370
    -2
100
AcDbLine
 10
221.3137955297143
 20
-1.875524974782923
 30
0.0
 11
221.2834565124718
 21
-1.971524974782923
 31
0.0
  0
LINE
  5
29EC
330
29E9
100
AcDbEntity
  8
D
 62
     0
370
    -2
100
AcDbLine
 10
221.2834565124718
 20
-1.971524974782923
 30
0.0
 11
221.2834565124718
 21
-2.067524974782923
 31
0.0
  0
MTEXT
  5
29ED
330
29E9
100
AcDbEntity
  8
D
 62
     0
100
AcDbMText
 10
221.2834565124718
 20
-2.180191641449554
 30
0.0
 40
0.04
 41
0.0
 46
0.0
 71
     5
 72
     1
  1
\A1;4.250
 11
0.0000000000000001
 21
1.0
 31
0.0
 73
     1
 44
1.0
  0
POINT
  5
29EE
330
29E9
100
AcDbEntity
  8
Defpoints
 62
     0
100
AcDbPoint
 10
221.3137955297143
 20
-1.507665354392647
 30
0.0
  0
POINT
  5
29EF
330
29E9
100
AcDbEntity
  8
Defpoints
 62
     0
100
AcDbPoint
 10
221.2834565124718
 20
-2.067524974782923
 30
0.0
  0
POINT
  5
29F0
330
29E9
100
AcDbEntity
  8
Defpoints
 62
     0
100
AcDbPoint
 10
217.0637956006614
 20
-1.390165411011395
 30
0.0
  0
ENDBLK
  5
29F2
330
29E9
100
AcDbEntity
  8
0
100
AcDbBlockEnd
  0
BLOCK
  5
29FC
330
29F4
100
AcDbEntity
  8
0
100
AcDbBlockBegin
  2
*D45
 70
     1
 10
0.0
 20
0.0
 30
0.0
  3
*D45
  1

  0
LINE
  5
29F5
330
29F4
100
AcDbEntity
  8
D
 62
     0
370
    -2
100
AcDbLine
 10
221.2817955297143
 20
-1.547665354392647
 30
0.0
 11
221.2817955297143
 21
-1.910727337705512
 31
0.0
  0
LINE
  5
29F6
330
29F4
100
AcDbEntity
  8
D
 62
     0
370
    -2
100
AcDbLine
 10
221.2817955297143
 20
-1.910727337705512
 30
0.0
 11
221.1907412684371
 21
-2.006727337705513
 31
0.0
  0
LINE
  5
29F7
330
29F4
100
AcDbEntity
  8
D
 62
     0
370
    -2
100
AcDbLine
 10
221.1907412684371
 20
-2.006727337705513
 30
0.0
 11
221.1907412684371
 21
-2.102727337705513
 31
0.0
  0
MTEXT
  5
29F8
330
29F4
100
AcDbEntity
  8
D
 62
     0
100
AcDbMText
 10
221.1907412684371
 20
-2.21206067103881
 30
0.0
 40
0.04
 41
0.0
 46
0.0
 71
     5
 72
     1
  1
\A1;4.218
 11
0.0000000000000001
 21
1.0
 31
0.0
 73
     1
 44
1.0
  0
POINT
  5
29F9
330
29F4
100
AcDbEntity
  8
Defpoints
 62
     0
100
AcDbPoint
 10
221.2817955297143
 20
-1.507665354392647
 30
0.0
  0
POINT
  5
29FA
330
29F4
100
AcDbEntity
  8
Defpoints
 62
     0
100
AcDbPoint
 10
221.1907412684371
 20
-2.102727337705513
 30
0.0
  0
POINT
  5
29FB
330
29F4
100
AcDbEntity
  8
Defpoints
 62
     0
100
AcDbPoint
 10
217.0637956006614
 20
-1.390165411011395
 30
0.0
  0
ENDBLK
  5
29FD
330
29F4
100
AcDbEntity
  8
0
100
AcDbBlockEnd
  0
BLOCK
  5
2A07
330
29FF
100
AcDbEntity
  8
0
100
AcDbBlockBegin
  2
*D46
 70
     1
 10
0.0
 20
0.0
 30
0.0
  3
*D46
  1

  0
LINE
  5
2A00
330
29FF
100
AcDbEntity
  8
D
 62
     0
370
    -2
100
AcDbLine
 10
221.2367955297143
 20
-1.587665354392647
 30
0.0
 11
221.2367955297143
 21
-1.895905290159159
 31
0.0
  0
LINE
  5
2A01
330
29FF
100
AcDbEntity
  8
D
 62
     0
370
    -2
100
AcDbLine
 10
221.2367955297143
 20
-1.895905290159159
 30
0.0
 11
221.1295491822752
 21
-1.991905290159159
 31
0.0
  0
LINE
  5
2A02
330
29FF
100
AcDbEntity
  8
D
 62
     0
370
    -2
100
AcDbLine
 10
221.1295491822752
 20
-1.991905290159159
 30
0.0
 11
221.1295491822752
 21
-2.087905290159159
 31
0.0
  0
MTEXT
  5
2A03
330
29FF
100
AcDbEntity
  8
D
 62
     0
100
AcDbMText
 10
221.1295491822752
 20
-2.197238623492457
 30
0.0
 40
0.04
 41
0.0
 46
0.0
 71
     5
 72
     1
  1
\A1;4.173
 11
0.0000000000000001
 21
1.0
 31
0.0
 73
     1
 44
1.0
  0
POINT
  5
2A04
330
29FF
100
AcDbEntity
  8
Defpoints
 62
     0
100
AcDbPoint
 10
221.2367955297143
 20
-1.547665354392647
 30
0.0
  0
POINT
  5
2A05
330
29FF
100
AcDbEntity
  8
Defpoints
 62
     0
100
AcDbPoint
 10
221.1295491822752
 20
-2.087905290159159
 30
0.0
  0
POINT
  5
2A06
330
29FF
100
AcDbEntity
  8
Defpoints
 62
     0
100
AcDbPoint
 10
217.0637956006614
 20
-1.390165411011395
 30
0.0
  0
ENDBLK
  5
2A08
330
29FF
100
AcDbEntity
  8
0
100
AcDbBlockEnd
  0
BLOCK
  5
2A10
330
2A0A
100
AcDbEntity
  8
0
100
AcDbBlockBegin
  2
*D47
 70
     1
 10
0.0
 20
0.0
 30
0.0
  3
*D47
  1

  0
LINE
  5
2A0B
330
2A0A
100
AcDbEntity
  8
D
 62
     0
370
    -2
100
AcDbLine
 10
220.23168036958
 20
-1.587665354392647
 30
0.0
 11
220.23168036958
 21
-1.75224234698059
 31
0.0
  0
MTEXT
  5
2A0C
330
2A0A
100
AcDbEntity
  8
D
 62
     0
100
AcDbMText
 10
220.23168036958
 20
-1.861575680313888
 30
0.0
 40
0.04
 41
0.0
 46
0.0
 71
     5
 72
     1
  1
\A1;3.168
 11
0.0000000000000001
 21
1.0
 31
0.0
 73
     1
 44
1.0
  0
POINT
  5
2A0D
330
2A0A
100
AcDbEntity
  8
Defpoints
 62
     0
100
AcDbPoint
 10
220.23168036958
 20
-1.547665354392647
 30
0.0
  0
POINT
  5
2A0E
330
2A0A
100
AcDbEntity
  8
Defpoints
 62
     0
100
AcDbPoint
 10
220.23168036958
 20
-1.75224234698059
 30
0.0
  0
POINT
  5
2A0F
330
2A0A
100
AcDbEntity
  8
Defpoints
 62
     0
100
AcDbPoint
 10
217.0637956006614
 20
-1.390165411011395
 30
0.0
  0
ENDBLK
  5
2A11
330
2A0A
100
AcDbEntity
  8
0
100
AcDbBlockEnd
  0
BLOCK
  5
2A1B
330
2A13
100
AcDbEntity
  8
0
100
AcDbBlockBegin
  2
*D48
 70
     1
 10
0.0
 20
0.0
 30
0.0
  3
*D48
  1

  0
LINE
  5
2B16
330
2A13
100
AcDbEntity
  8
D
 62
     0
370
    -2
100
AcDbLine
 10
220.27168036958
 20
-1.547665354392647
 30
0.0
 11
220.32768036958
 21
-1.547665354392647
 31
0.0
  0
LINE
  5
2B17
330
2A13
100
AcDbEntity
  8
D
 62
     0
370
    -2
100
AcDbLine
 10
220.32768036958
 20
-1.547665354392647
 30
0.0
 11
220.3972758467439
 21
-1.693431914361386
 31
0.0
  0
LINE
  5
2B18
330
2A13
100
AcDbEntity
  8
D
 62
     0
370
    -2
100
AcDbLine
 10
220.3972758467439
 20
-1.693431914361386
 30
0.0
 11
220.4932758467439
 21
-1.693431914361386
 31
0.0
  0
MTEXT
  5
2B19
330
2A13
100
AcDbEntity
  8
D
 62
     0
100
AcDbMText
 10
220.5992758467439
 20
-1.693431914361386
 30
0.0
 40
0.04
 41
0.0
 46
0.0
 71
     5
 72
     1
  1
\A1;0.157
 73
     1
 44
1.0
  0
POINT
  5
2B1A
330
2A13
100
AcDbEntity
  8
Defpoints
 62
     0
100
AcDbPoint
 10
220.23168036958
 20
-1.547665354392647
 30
0.0
  0
POINT
  5
2B1B
330
2A13
100
AcDbEntity
  8
Defpoints
 62
     0
100
AcDbPoint
 10
220.4932758467439
 20
-1.693431914361386
 30
0.0
  0
POINT
  5
2B1C
330
2A13
100
AcDbEntity
  8
Defpoints
 62
     0
100
AcDbPoint
 10
217.0637956006614
 20
-1.390165411011395
 30
0.0
  0
ENDBLK
  5
2A1C
330
2A13
100
AcDbEntity
  8
0
100
AcDbBlockEnd
  0
BLOCK
  5
2A24
330
2A1E
100
AcDbEntity
  8
0
100
AcDbBlockBegin
  2
*D49
 70
     1
 10
0.0
 20
0.0
 30
0.0
  3
*D49
  1

  0
LINE
  5
2A1F
330
2A1E
100
AcDbEntity
  8
D
 62
     0
370
    -2
100
AcDbLine
 10
220.1147956006614
 20
-1.620665411011393
 30
0.0
 11
220.1147956006614
 21
-1.759653370753767
 31
0.0
  0
MTEXT
  5
2A20
330
2A1E
100
AcDbEntity
  8
D
 62
     0
100
AcDbMText
 10
220.1147956006614
 20
-1.865653370753732
 30
0.0
 40
0.04
 41
0.0
 46
0.0
 71
     5
 72
     1
  1
\A1;3.051
 11
0.0000000000000001
 21
1.0
 31
0.0
 73
     1
 44
1.0
  0
POINT
  5
2A21
330
2A1E
100
AcDbEntity
  8
Defpoints
 62
     0
100
AcDbPoint
 10
220.1147956006614
 20
-1.580665411011393
 30
0.0
  0
POINT
  5
2A22
330
2A1E
100
AcDbEntity
  8
Defpoints
 62
     0
100
AcDbPoint
 10
220.1147956006614
 20
-1.759653370753767
 30
0.0
  0
POINT
  5
2A23
330
2A1E
100
AcDbEntity
  8
Defpoints
 62
     0
100
AcDbPoint
 10
217.0637956006614
 20
-1.390165411011395
 30
0.0
  0
ENDBLK
  5
2A25
330
2A1E
100
AcDbEntity
  8
0
100
AcDbBlockEnd
  0
BLOCK
  5
2A2F
330
2A27
100
AcDbEntity
  8
0
100
AcDbBlockBegin
  2
*D50
 70
     1
 10
0.0
 20
0.0
 30
0.0
  3
*D50
  1

  0
LINE
  5
2A28
330
2A27
100
AcDbEntity
  8
D
 62
     0
370
    -2
100
AcDbLine
 10
220.0747956006614
 20
-1.580665411011393
 30
0.0
 11
220.0187956006614
 21
-1.580665411011393
 31
0.0
  0
LINE
  5
2A29
330
2A27
100
AcDbEntity
  8
D
 62
     0
370
    -2
100
AcDbLine
 10
220.0187956006614
 20
-1.580665411011393
 30
0.0
 11
219.9809108102096
 21
-1.485445491146233
 31
0.0
  0
LINE
  5
2A2A
330
2A27
100
AcDbEntity
  8
D
 62
     0
370
    -2
100
AcDbLine
 10
219.9809108102096
 20
-1.485445491146233
 30
0.0
 11
219.8849108102096
 21
-1.485445491146233
 31
0.0
  0
MTEXT
  5
2A2B
330
2A27
100
AcDbEntity
  8
D
 62
     0
100
AcDbMText
 10
219.7855774768762
 20
-1.485445491146233
 30
0.0
 40
0.04
 41
0.0
 46
0.0
 71
     5
 72
     1
  1
\A1;0.191
 73
     1
 44
1.0
  0
POINT
  5
2A2C
330
2A27
100
AcDbEntity
  8
Defpoints
 62
     0
100
AcDbPoint
 10
220.1147956006614
 20
-1.580665411011393
 30
0.0
  0
POINT
  5
2A2D
330
2A27
100
AcDbEntity
  8
Defpoints
 62
     0
100
AcDbPoint
 10
219.8849108102096
 20
-1.485445491146233
 30
0.0
  0
POINT
  5
2A2E
330
2A27
100
AcDbEntity
  8
Defpoints
 62
     0
100
AcDbPoint
 10
217.0637956006614
 20
-1.390165411011395
 30
0.0
  0
ENDBLK
  5
2A30
330
2A27
100
AcDbEntity
  8
0
100
AcDbBlockEnd
  0
BLOCK
  5
2A38
330
2A32
100
AcDbEntity
  8
0
100
AcDbBlockBegin
  2
*D51
 70
     1
 10
0.0
 20
0.0
 30
0.0
  3
*D51
  1

  0
LINE
  5
2A33
330
2A32
100
AcDbEntity
  8
D
 62
     0
370
    -2
100
AcDbLine
 10
217.1842956006615
 20
-1.620665411011395
 30
0.0
 11
217.1842956006615
 21
-1.783676615291838
 31
0.0
  0
MTEXT
  5
2A34
330
2A32
100
AcDbEntity
  8
D
 62
     0
100
AcDbMText
 10
217.1842956006615
 20
-1.883009948625137
 30
0.0
 40
0.04
 41
0.0
 46
0.0
 71
     5
 72
     1
  1
\A1;0.121
 11
0.0000000000000001
 21
1.0
 31
0.0
 73
     1
 44
1.0
  0
POINT
  5
2A35
330
2A32
100
AcDbEntity
  8
Defpoints
 62
     0
100
AcDbPoint
 10
217.1842956006615
 20
-1.580665411011395
 30
0.0
  0
POINT
  5
2A36
330
2A32
100
AcDbEntity
  8
Defpoints
 62
     0
100
AcDbPoint
 10
217.1842956006615
 20
-1.783676615291838
 30
0.0
  0
POINT
  5
2A37
330
2A32
100
AcDbEntity
  8
Defpoints
 62
     0
100
AcDbPoint
 10
217.0637956006614
 20
-1.390165411011395
 30
0.0
  0
ENDBLK
  5
2A39
330
2A32
100
AcDbEntity
  8
0
100
AcDbBlockEnd
  0
BLOCK
  5
2A41
330
2A3B
100
AcDbEntity
  8
0
100
AcDbBlockBegin
  2
*D52
 70
     1
 10
0.0
 20
0.0
 30
0.0
  3
*D52
  1

  0
LINE
  5
2A3C
330
2A3B
100
AcDbEntity
  8
D
 62
     0
370
    -2
100
AcDbLine
 10
217.1442956006615
 20
-1.580665411011395
 30
0.0
 11
217.0233356711136
 21
-1.580665411011395
 31
0.0
  0
MTEXT
  5
2A3D
330
2A3B
100
AcDbEntity
  8
D
 62
     0
100
AcDbMText
 10
216.9240023377803
 20
-1.580665411011395
 30
0.0
 40
0.04
 41
0.0
 46
0.0
 71
     5
 72
     1
  1
\A1;0.191
 73
     1
 44
1.0
  0
POINT
  5
2A3E
330
2A3B
100
AcDbEntity
  8
Defpoints
 62
     0
100
AcDbPoint
 10
217.1842956006615
 20
-1.580665411011395
 30
0.0
  0
POINT
  5
2A3F
330
2A3B
100
AcDbEntity
  8
Defpoints
 62
     0
100
AcDbPoint
 10
217.0233356711136
 20
-1.580665411011395
 30
0.0
  0
POINT
  5
2A40
330
2A3B
100
AcDbEntity
  8
Defpoints
 62
     0
100
AcDbPoint
 10
217.0637956006614
 20
-1.390165411011395
 30
0.0
  0
ENDBLK
  5
2A42
330
2A3B
100
AcDbEntity
  8
0
100
AcDbBlockEnd
  0
BLOCK
  5
2A4A
330
2A44
100
AcDbEntity
  8
0
100
AcDbBlockBegin
  2
*D53
 70
     1
 10
0.0
 20
0.0
 30
0.0
  3
*D53
  1

  0
LINE
  5
2A45
330
2A44
100
AcDbEntity
  8
D
 62
     0
370
    -2
100
AcDbLine
 10
217.0237956006614
 20
-1.460165411011393
 30
0.0
 11
216.9316890621647
 21
-1.460165411011393
 31
0.0
  0
MTEXT
  5
2A46
330
2A44
100
AcDbEntity
  8
D
 62
     0
100
AcDbMText
 10
216.8256890621647
 20
-1.460165411011393
 30
0.0
 40
0.04
 41
0.0
 46
0.0
 71
     5
 72
     1
  1
\A1;0.070
 73
     1
 44
1.0
  0
POINT
  5
2A47
330
2A44
100
AcDbEntity
  8
Defpoints
 62
     0
100
AcDbPoint
 10
217.0637956006614
 20
-1.460165411011393
 30
0.0
  0
POINT
  5
2A48
330
2A44
100
AcDbEntity
  8
Defpoints
 62
     0
100
AcDbPoint
 10
216.9316890621647
 20
-1.460165411011393
 30
0.0
  0
POINT
  5
2A49
330
2A44
100
AcDbEntity
  8
Defpoints
 62
     0
100
AcDbPoint
 10
217.0637956006614
 20
-1.390165411011395
 30
0.0
  0
ENDBLK
  5
2A4B
330
2A44
100
AcDbEntity
  8
0
100
AcDbBlockEnd
  0
BLOCK
  5
2A55
330
2A4D
100
AcDbEntity
  8
0
100
AcDbBlockBegin
  2
*D54
 70
     1
 10
0.0
 20
0.0
 30
0.0
  3
*D54
  1

  0
LINE
  5
2A4E
330
2A4D
100
AcDbEntity
  8
D
 62
     0
370
    -2
100
AcDbLine
 10
221.8579328130217
 20
-1.463807812901309
 30
0.0
 11
221.9139328130217
 21
-1.463807812901309
 31
0.0
  0
LINE
  5
2A4F
330
2A4D
100
AcDbEntity
  8
D
 62
     0
370
    -2
100
AcDbLine
 10
221.9139328130217
 20
-1.463807812901309
 30
0.0
 11
221.9984041551632
 21
-1.311231468656057
 31
0.0
  0
LINE
  5
2A50
330
2A4D
100
AcDbEntity
  8
D
 62
     0
370
    -2
100
AcDbLine
 10
221.9984041551632
 20
-1.311231468656057
 30
0.0
 11
222.0944041551632
 21
-1.311231468656057
 31
0.0
  0
MTEXT
  5
2A51
330
2A4D
100
AcDbEntity
  8
D
 62
     0
100
AcDbMText
 10
222.2037374884965
 20
-1.311231468656057
 30
0.0
 40
0.04
 41
0.0
 46
0.0
 71
     5
 72
     1
  1
\A1;0.074
 73
     1
 44
1.0
  0
POINT
  5
2A52
330
2A4D
100
AcDbEntity
  8
Defpoints
 62
     0
100
AcDbPoint
 10
221.8179328130217
 20
-1.463807812901309
 30
0.0
  0
POINT
  5
2A53
330
2A4D
100
AcDbEntity
  8
Defpoints
 62
     0
100
AcDbPoint
 10
222.0944041551632
 20
-1.311231468656057
 30
0.0
  0
POINT
  5
2A54
330
2A4D
100
AcDbEntity
  8
Defpoints
 62
     0
100
AcDbPoint
 10
217.0637956006614
 20
-1.390165411011395
 30
0.0
  0
ENDBLK
  5
2A56
330
2A4D
100
AcDbEntity
  8
0
100
AcDbBlockEnd
  0
BLOCK
  5
2A60
330
2A58
100
AcDbEntity
  8
0
100
AcDbBlockBegin
  2
*D55
 70
     1
 10
0.0
 20
0.0
 30
0.0
  3
*D55
  1

  0
LINE
  5
2A62
330
2A58
100
AcDbEntity
  8
D
 62
     0
370
    -2
100
AcDbLine
 10
221.7597955297143
 20
-1.377665354392642
 30
0.0
 11
221.8837641772501
 21
-1.377665354392642
 31
0.0
  0
LINE
  5
2A63
330
2A58
100
AcDbEntity
  8
D
 62
     0
370
    -2
100
AcDbLine
 10
221.8837641772501
 20
-1.377665354392642
 30
0.0
 11
221.9797641772501
 21
-1.162236193399703
 31
0.0
  0
LINE
  5
2A64
330
2A58
100
AcDbEntity
  8
D
 62
     0
370
    -2
100
AcDbLine
 10
221.9797641772501
 20
-1.162236193399703
 30
0.0
 11
222.0757641772501
 21
-1.162236193399703
 31
0.0
  0
MTEXT
  5
2A65
330
2A58
100
AcDbEntity
  8
D
 62
     0
100
AcDbMText
 10
222.2650975105834
 20
-1.162236193399703
 30
0.0
 40
0.04
 41
0.0
 46
0.0
 71
     5
 72
     1
  1
\A1;0.013 (X2)
 73
     1
 44
1.0
  0
POINT
  5
2A66
330
2A58
100
AcDbEntity
  8
Defpoints
 62
     0
100
AcDbPoint
 10
221.7197955297143
 20
-1.377665354392642
 30
0.0
  0
POINT
  5
2A67
330
2A58
100
AcDbEntity
  8
Defpoints
 62
     0
100
AcDbPoint
 10
222.0757641772501
 20
-1.162236193399703
 30
0.0
  0
POINT
  5
2A68
330
2A58
100
AcDbEntity
  8
Defpoints
 62
     0
100
AcDbPoint
 10
217.0637956006614
 20
-1.390165411011395
 30
0.0
  0
ENDBLK
  5
2A61
330
2A58
100
AcDbEntity
  8
0
100
AcDbBlockEnd
  0
BLOCK
  5
2A72
330
2A6A
100
AcDbEntity
  8
0
100
AcDbBlockBegin
  2
*D56
 70
     1
 10
0.0
 20
0.0
 30
0.0
  3
*D56
  1

  0
LINE
  5
2AB1
330
2A6A
100
AcDbEntity
  8
D
 62
     0
370
    -2
100
AcDbLine
 10
221.4997955297143
 20
-1.487665354392647
 30
0.0
 11
221.7530720144115
 21
-1.487665354392647
 31
0.0
  0
LINE
  5
2AB2
330
2A6A
100
AcDbEntity
  8
D
 62
     0
370
    -2
100
AcDbLine
 10
221.7530720144115
 20
-1.487665354392647
 30
0.0
 11
221.8490720144115
 21
-1.020091089191105
 31
0.0
  0
LINE
  5
2AB3
330
2A6A
100
AcDbEntity
  8
D
 62
     0
370
    -2
100
AcDbLine
 10
221.8490720144115
 20
-1.020091089191105
 30
0.0
 11
221.9450720144115
 21
-1.020091089191105
 31
0.0
  0
MTEXT
  5
2AB4
330
2A6A
100
AcDbEntity
  8
D
 62
     0
100
AcDbMText
 10
222.0544053477448
 20
-1.020091089191105
 30
0.0
 40
0.04
 41
0.0
 46
0.0
 71
     5
 72
     1
  1
\A1;0.097
 73
     1
 44
1.0
  0
POINT
  5
2AB5
330
2A6A
100
AcDbEntity
  8
Defpoints
 62
     0
100
AcDbPoint
 10
221.4597955297143
 20
-1.487665354392647
 30
0.0
  0
POINT
  5
2AB6
330
2A6A
100
AcDbEntity
  8
Defpoints
 62
     0
100
AcDbPoint
 10
221.9450720144115
 20
-1.020091089191105
 30
0.0
  0
POINT
  5
2AB7
330
2A6A
100
AcDbEntity
  8
Defpoints
 62
     0
100
AcDbPoint
 10
217.0637956006614
 20
-1.390165411011395
 30
0.0
  0
ENDBLK
  5
2A73
330
2A6A
100
AcDbEntity
  8
0
100
AcDbBlockEnd
  0
BLOCK
  5
2A84
330
2A7C
100
AcDbEntity
  8
0
100
AcDbBlockBegin
  2
*D57
 70
     1
 10
0.0
 20
0.0
 30
0.0
  3
*D57
  1

  0
LINE
  5
2AB8
330
2A7C
100
AcDbEntity
  8
D
 62
     0
370
    -2
100
AcDbLine
 10
221.4227955297142
 20
-1.47266535439265
 30
0.0
 11
221.7335028018697
 21
-1.47266535439265
 31
0.0
  0
LINE
  5
2AB9
330
2A7C
100
AcDbEntity
  8
D
 62
     0
370
    -2
100
AcDbLine
 10
221.7335028018697
 20
-1.47266535439265
 30
0.0
 11
221.8295028018697
 21
-0.9584995822915374
 31
0.0
  0
LINE
  5
2ABA
330
2A7C
100
AcDbEntity
  8
D
 62
     0
370
    -2
100
AcDbLine
 10
221.8295028018697
 20
-0.9584995822915374
 30
0.0
 11
221.9255028018697
 21
-0.9584995822915374
 31
0.0
  0
MTEXT
  5
2ABB
330
2A7C
100
AcDbEntity
  8
D
 62
     0
100
AcDbMText
 10
222.034836135203
 20
-0.9584995822915374
 30
0.0
 40
0.04
 41
0.0
 46
0.0
 71
     5
 72
     1
  1
\A1;0.082
 73
     1
 44
1.0
  0
POINT
  5
2ABC
330
2A7C
100
AcDbEntity
  8
Defpoints
 62
     0
100
AcDbPoint
 10
221.3827955297142
 20
-1.47266535439265
 30
0.0
  0
POINT
  5
2ABD
330
2A7C
100
AcDbEntity
  8
Defpoints
 62
     0
100
AcDbPoint
 10
221.9255028018697
 20
-0.9584995822915374
 30
0.0
  0
POINT
  5
2ABE
330
2A7C
100
AcDbEntity
  8
Defpoints
 62
     0
100
AcDbPoint
 10
217.0637956006614
 20
-1.390165411011395
 30
0.0
  0
ENDBLK
  5
2A85
330
2A7C
100
AcDbEntity
  8
0
100
AcDbBlockEnd
  0
BLOCK
  5
2AAF
330
2AA7
100
AcDbEntity
  8
0
100
AcDbBlockBegin
  2
*D58
 70
     1
 10
0.0
 20
0.0
 30
0.0
  3
*D58
  1

  0
LINE
  5
2AA8
330
2AA7
100
AcDbEntity
  8
D
 62
     0
370
    -2
100
AcDbLine
 10
221.3827955297143
 20
-1.437665354392646
 30
0.0
 11
221.7152228177026
 21
-1.437665354392646
 31
0.0
  0
LINE
  5
2AA9
330
2AA7
100
AcDbEntity
  8
D
 62
     0
370
    -2
100
AcDbLine
 10
221.7152228177026
 20
-1.437665354392646
 30
0.0
 11
221.8112228177026
 21
-0.8827559211879005
 31
0.0
  0
LINE
  5
2AAA
330
2AA7
100
AcDbEntity
  8
D
 62
     0
370
    -2
100
AcDbLine
 10
221.8112228177026
 20
-0.8827559211879005
 30
0.0
 11
221.9072228177026
 21
-0.8827559211879005
 31
0.0
  0
MTEXT
  5
2AAB
330
2AA7
100
AcDbEntity
  8
D
 62
     0
100
AcDbMText
 10
222.016556151036
 20
-0.8827559211879005
 30
0.0
 40
0.04
 41
0.0
 46
0.0
 71
     5
 72
     1
  1
\A1;0.047
 73
     1
 44
1.0
  0
POINT
  5
2AAC
330
2AA7
100
AcDbEntity
  8
Defpoints
 62
     0
100
AcDbPoint
 10
221.3427955297143
 20
-1.437665354392646
 30
0.0
  0
POINT
  5
2AAD
330
2AA7
100
AcDbEntity
  8
Defpoints
 62
     0
100
AcDbPoint
 10
221.9072228177026
 20
-0.8827559211879005
 30
0.0
  0
POINT
  5
2AAE
330
2AA7
100
AcDbEntity
  8
Defpoints
 62
     0
100
AcDbPoint
 10
217.0637956006614
 20
-1.390165411011395
 30
0.0
  0
ENDBLK
  5
2AB0
330
2AA7
100
AcDbEntity
  8
0
100
AcDbBlockEnd
  0
BLOCK
  5
2AC8
330
2AC0
100
AcDbEntity
  8
0
100
AcDbBlockBegin
  2
*D59
 70
     1
 10
0.0
 20
0.0
 30
0.0
  3
*D59
  1

  0
LINE
  5
2ACA
330
2AC0
100
AcDbEntity
  8
D
 62
     0
370
    -2
100
AcDbLine
 10
221.1767955297143
 20
-1.471665354392647
 30
0.0
 11
221.1207955297143
 21
-1.471665354392647
 31
0.0
  0
LINE
  5
2ACB
330
2AC0
100
AcDbEntity
  8
D
 62
     0
370
    -2
100
AcDbLine
 10
221.1207955297143
 20
-1.471665354392647
 30
0.0
 11
221.0594197495897
 21
-1.15496017154075
 31
0.0
  0
LINE
  5
2ACC
330
2AC0
100
AcDbEntity
  8
D
 62
     0
370
    -2
100
AcDbLine
 10
221.0594197495897
 20
-1.15496017154075
 30
0.0
 11
220.9634197495897
 21
-1.15496017154075
 31
0.0
  0
MTEXT
  5
2ACD
330
2AC0
100
AcDbEntity
  8
D
 62
     0
100
AcDbMText
 10
220.8607530829231
 20
-1.15496017154075
 30
0.0
 40
0.04
 41
0.0
 46
0.0
 71
     5
 72
     1
  1
\A1;0.081
 73
     1
 44
1.0
  0
POINT
  5
2ACE
330
2AC0
100
AcDbEntity
  8
Defpoints
 62
     0
100
AcDbPoint
 10
221.2167955297143
 20
-1.471665354392647
 30
0.0
  0
POINT
  5
2ACF
330
2AC0
100
AcDbEntity
  8
Defpoints
 62
     0
100
AcDbPoint
 10
220.9634197495897
 20
-1.15496017154075
 30
0.0
  0
POINT
  5
2AD0
330
2AC0
100
AcDbEntity
  8
Defpoints
 62
     0
100
AcDbPoint
 10
217.0637956006614
 20
-1.390165411011395
 30
0.0
  0
ENDBLK
  5
2AC9
330
2AC0
100
AcDbEntity
  8
0
100
AcDbBlockEnd
  0
BLOCK
  5
2AE5
330
2ADD
100
AcDbEntity
  8
0
100
AcDbBlockBegin
  2
*D60
 70
     1
 10
0.0
 20
0.0
 30
0.0
  3
*D60
  1

  0
LINE
  5
2ADE
330
2ADD
100
AcDbEntity
  8
D
 62
     0
370
    -2
100
AcDbLine
 10
221.1297955297143
 20
-1.486665354392647
 30
0.0
 11
221.0737955297143
 21
-1.486665354392647
 31
0.0
  0
LINE
  5
2ADF
330
2ADD
100
AcDbEntity
  8
D
 62
     0
370
    -2
100
AcDbLine
 10
221.0737955297143
 20
-1.486665354392647
 30
0.0
 11
221.0335685007553
 21
-1.260270043845011
 31
0.0
  0
LINE
  5
2AE0
330
2ADD
100
AcDbEntity
  8
D
 62
     0
370
    -2
100
AcDbLine
 10
221.0335685007553
 20
-1.260270043845011
 30
0.0
 11
220.9375685007553
 21
-1.260270043845011
 31
0.0
  0
MTEXT
  5
2AE1
330
2ADD
100
AcDbEntity
  8
D
 62
     0
100
AcDbMText
 10
220.828235167422
 20
-1.260270043845011
 30
0.0
 40
0.04
 41
0.0
 46
0.0
 71
     5
 72
     1
  1
\A1;0.096
 73
     1
 44
1.0
  0
POINT
  5
2AE2
330
2ADD
100
AcDbEntity
  8
Defpoints
 62
     0
100
AcDbPoint
 10
221.1697955297143
 20
-1.486665354392647
 30
0.0
  0
POINT
  5
2AE3
330
2ADD
100
AcDbEntity
  8
Defpoints
 62
     0
100
AcDbPoint
 10
220.9375685007553
 20
-1.260270043845011
 30
0.0
  0
POINT
  5
2AE4
330
2ADD
100
AcDbEntity
  8
Defpoints
 62
     0
100
AcDbPoint
 10
217.0637956006614
 20
-1.390165411011395
 30
0.0
  0
ENDBLK
  5
2AE6
330
2ADD
100
AcDbEntity
  8
0
100
AcDbBlockEnd
  0
BLOCK
  5
2AF0
330
2AE8
100
AcDbEntity
  8
0
100
AcDbBlockBegin
  2
*D61
 70
     1
 10
0.0
 20
0.0
 30
0.0
  3
*D61
  1

  0
LINE
  5
2AE9
330
2AE8
100
AcDbEntity
  8
D
 62
     0
370
    -2
100
AcDbLine
 10
221.814393602898
 20
-1.513409598976011
 30
0.0
 11
221.870393602898
 21
-1.513409598976011
 31
0.0
  0
LINE
  5
2AEA
330
2AE8
100
AcDbEntity
  8
D
 62
     0
370
    -2
100
AcDbLine
 10
221.870393602898
 20
-1.513409598976011
 30
0.0
 11
221.9119188227013
 21
-1.686917941322477
 31
0.0
  0
LINE
  5
2AEB
330
2AE8
100
AcDbEntity
  8
D
 62
     0
370
    -2
100
AcDbLine
 10
221.9119188227013
 20
-1.686917941322477
 30
0.0
 11
222.0079188227013
 21
-1.686917941322477
 31
0.0
  0
MTEXT
  5
2AEC
330
2AE8
100
AcDbEntity
  8
D
 62
     0
100
AcDbMText
 10
222.1139188227013
 20
-1.686917941322477
 30
0.0
 40
0.04
 41
0.0
 46
0.0
 71
     5
 72
     1
  1
\A1;0.123
 73
     1
 44
1.0
  0
POINT
  5
2AED
330
2AE8
100
AcDbEntity
  8
Defpoints
 62
     0
100
AcDbPoint
 10
221.774393602898
 20
-1.513409598976011
 30
0.0
  0
POINT
  5
2AEE
330
2AE8
100
AcDbEntity
  8
Defpoints
 62
     0
100
AcDbPoint
 10
222.0079188227013
 20
-1.686917941322477
 30
0.0
  0
POINT
  5
2AEF
330
2AE8
100
AcDbEntity
  8
Defpoints
 62
     0
100
AcDbPoint
 10
217.0637956006614
 20
-1.390165411011395
 30
0.0
  0
ENDBLK
  5
2AF1
330
2AE8
100
AcDbEntity
  8
0
100
AcDbBlockEnd
  0
BLOCK
  5
2AFB
330
2AF3
100
AcDbEntity
  8
0
100
AcDbBlockBegin
  2
*D62
 70
     1
 10
0.0
 20
0.0
 30
0.0
  3
*D62
  1

  0
LINE
  5
2AFD
330
2AF3
100
AcDbEntity
  8
D
 62
     0
370
    -2
100
AcDbLine
 10
221.7477955297143
 20
-1.460665354392647
 30
0.0
 11
221.9623236949136
 21
-1.460665354392647
 31
0.0
  0
LINE
  5
2AFE
330
2AF3
100
AcDbEntity
  8
D
 62
     0
370
    -2
100
AcDbLine
 10
221.9623236949136
 20
-1.460665354392647
 30
0.0
 11
222.0583236949136
 21
-1.615949163128892
 31
0.0
  0
LINE
  5
2AFF
330
2AF3
100
AcDbEntity
  8
D
 62
     0
370
    -2
100
AcDbLine
 10
222.0583236949136
 20
-1.615949163128892
 30
0.0
 11
222.1543236949136
 21
-1.615949163128892
 31
0.0
  0
MTEXT
  5
2B00
330
2AF3
100
AcDbEntity
  8
D
 62
     0
100
AcDbMText
 10
222.3469903615803
 20
-1.615949163128892
 30
0.0
 40
0.04
 41
0.0
 46
0.0
 71
     5
 72
     1
  1
\A1;0.070 (X2)
 73
     1
 44
1.0
  0
POINT
  5
2B01
330
2AF3
100
AcDbEntity
  8
Defpoints
 62
     0
100
AcDbPoint
 10
221.7077955297143
 20
-1.460665354392647
 30
0.0
  0
POINT
  5
2B02
330
2AF3
100
AcDbEntity
  8
Defpoints
 62
     0
100
AcDbPoint
 10
222.1543236949136
 20
-1.615949163128892
 30
0.0
  0
POINT
  5
2B03
330
2AF3
100
AcDbEntity
  8
Defpoints
 62
     0
100
AcDbPoint
 10
217.0637956006614
 20
-1.390165411011395
 30
0.0
  0
ENDBLK
  5
2AFC
330
2AF3
100
AcDbEntity
  8
0
100
AcDbBlockEnd
  0
BLOCK
  5
2B0D
330
2B05
100
AcDbEntity
  8
0
100
AcDbBlockBegin
  2
*D63
 70
     1
 10
0.0
 20
0.0
 30
0.0
  3
*D63
  1

  0
LINE
  5
2B0F
330
2B05
100
AcDbEntity
  8
D
 62
     0
370
    -2
100
AcDbLine
 10
221.2417955297143
 20
-1.507665354392647
 30
0.0
 11
221.1544104083977
 21
-1.507665354392647
 31
0.0
  0
LINE
  5
2B10
330
2B05
100
AcDbEntity
  8
D
 62
     0
370
    -2
100
AcDbLine
 10
221.1544104083977
 20
-1.507665354392647
 30
0.0
 11
221.0584104083977
 21
-1.627399489160406
 31
0.0
  0
LINE
  5
2B11
330
2B05
100
AcDbEntity
  8
D
 62
     0
370
    -2
100
AcDbLine
 10
221.0584104083977
 20
-1.627399489160406
 30
0.0
 11
220.9624104083978
 21
-1.627399489160406
 31
0.0
  0
MTEXT
  5
2B12
330
2B05
100
AcDbEntity
  8
D
 62
     0
100
AcDbMText
 10
220.7764104083977
 20
-1.627399489160406
 30
0.0
 40
0.04
 41
0.0
 46
0.0
 71
     5
 72
     1
  1
\A1;0.117 (X2)
 73
     1
 44
1.0
  0
POINT
  5
2B13
330
2B05
100
AcDbEntity
  8
Defpoints
 62
     0
100
AcDbPoint
 10
221.2817955297143
 20
-1.507665354392647
 30
0.0
  0
POINT
  5
2B14
330
2B05
100
AcDbEntity
  8
Defpoints
 62
     0
100
AcDbPoint
 10
220.9624104083978
 20
-1.627399489160406
 30
0.0
  0
POINT
  5
2B15
330
2B05
100
AcDbEntity
  8
Defpoints
 62
     0
100
AcDbPoint
 10
217.0637956006614
 20
-1.390165411011395
 30
0.0
  0
ENDBLK
  5
2B0E
330
2B05
100
AcDbEntity
  8
0
100
AcDbBlockEnd
  0
BLOCK
  5
2B26
330
2B1E
100
AcDbEntity
  8
0
100
AcDbBlockBegin
  2
*D64
 70
     1
 10
0.0
 20
0.0
 30
0.0
  3
*D64
  1

  0
LINE
  5
2B2F
330
2B1E
100
AcDbEntity
  8
D
 62
     0
370
    -2
100
AcDbLine
 10
221.1967955297143
 20
-1.547665354392647
 30
0.0
 11
221.1407955297143
 21
-1.547665354392647
 31
0.0
  0
LINE
  5
2B30
330
2B1E
100
AcDbEntity
  8
D
 62
     0
370
    -2
100
AcDbLine
 10
221.1407955297143
 20
-1.547665354392647
 30
0.0
 11
221.0819141055691
 21
-1.769259953641377
 31
0.0
  0
LINE
  5
2B31
330
2B1E
100
AcDbEntity
  8
D
 62
     0
370
    -2
100
AcDbLine
 10
221.0819141055691
 20
-1.769259953641377
 30
0.0
 11
220.9859141055691
 21
-1.769259953641377
 31
0.0
  0
MTEXT
  5
2B32
330
2B1E
100
AcDbEntity
  8
D
 62
     0
100
AcDbMText
 10
220.8799141055691
 20
-1.769259953641377
 30
0.0
 40
0.04
 41
0.0
 46
0.0
 71
     5
 72
     1
  1
\A1;0.157\P(X3)
 73
     1
 44
1.0
  0
POINT
  5
2B33
330
2B1E
100
AcDbEntity
  8
Defpoints
 62
     0
100
AcDbPoint
 10
221.2367955297143
 20
-1.547665354392647
 30
0.0
  0
POINT
  5
2B34
330
2B1E
100
AcDbEntity
  8
Defpoints
 62
     0
100
AcDbPoint
 10
220.9859141055691
 20
-1.769259953641377
 30
0.0
  0
POINT
  5
2B35
330
2B1E
100
AcDbEntity
  8
Defpoints
 62
     0
100
AcDbPoint
 10
217.0637956006614
 20
-1.390165411011395
 30
0.0
  0
ENDBLK
  5
2B27
330
2B1E
100
AcDbEntity
  8
0
100
AcDbBlockEnd
  0
BLOCK
  5
2B3D
330
2B37
100
AcDbEntity
  8
0
100
AcDbBlockBegin
  2
*D65
 70
     1
 10
0.0
 20
0.0
 30
0.0
  3
*D65
  1

  0
LINE
  5
2B38
330
2B37
100
AcDbEntity
  8
D
 62
     0
370
    -2
100
AcDbLine
 10
217.0083604628406
 20
-1.205936867694049
 30
0.0
 11
217.0679225379664
 21
-1.26830663915247
 31
0.0
  0
MTEXT
  5
2B39
330
2B37
100
AcDbEntity
  8
D
 62
     0
100
AcDbMText
 10
216.9259439317925
 20
-1.119635304240944
 30
0.0
 40
0.04
 41
0.0
 46
0.0
 71
     5
 72
     1
  1
\A1;R0.121
 11
0.6906413216318529
 21
-0.7231974591040871
 31
0.0
 73
     1
 44
1.0
  0
SOLID
  5
2B3A
330
2B37
100
AcDbEntity
  8
D
 62
     0
100
AcDbTrace
 10
217.0737081176392
 20
-1.262781508579408
 30
0.0
 11
217.0621369582935
 21
-1.273831769725532
 31
0.0
 12
217.1010733214047
 22
-1.303020117189475
 32
0.0
 13
217.1010733214047
 23
-1.303020117189475
 33
0.0
  0
POINT
  5
2B3B
330
2B37
100
AcDbEntity
  8
Defpoints
 62
     0
100
AcDbPoint
 10
217.1010733214047
 20
-1.303020117189475
 30
0.0
  0
POINT
  5
2B3C
330
2B37
100
AcDbEntity
  8
Defpoints
 62
     0
100
AcDbPoint
 10
217.1842956006613
 20
-1.390165411011466
 30
0.0
  0
ENDBLK
  5
2B3E
330
2B37
100
AcDbEntity
  8
0
100
AcDbBlockEnd
  0
BLOCK
  5
2B46
330
2B40
100
AcDbEntity
  8
0
100
AcDbBlockBegin
  2
*D66
 70
     1
 10
0.0
 20
0.0
 30
0.0
  3
*D66
  1

  0
LINE
  5
2B41
330
2B40
100
AcDbEntity
  8
D
 62
     0
370
    -2
100
AcDbLine
 10
217.0157099799833
 20
-1.663772151987672
 30
0.0
 11
217.0768338579947
 21
-1.589950710113498
 31
0.0
  0
MTEXT
  5
2B42
330
2B40
100
AcDbEntity
  8
D
 62
     0
100
AcDbMText
 10
216.9396045321599
 20
-1.755687358869025
 30
0.0
 40
0.04
 41
0.0
 46
0.0
 71
     5
 72
     1
  1
\A1;R0.121
 11
0.6377551493585116
 21
0.7702391638099835
 31
0.0
 73
     1
 44
1.0
  0
SOLID
  5
2B43
330
2B40
100
AcDbEntity
  8
D
 62
     0
100
AcDbTrace
 10
217.0706719446843
 20
-1.584848668918624
 30
0.0
 11
217.0829957713052
 21
-1.595052751308372
 31
0.0
 12
217.1074461051639
 22
-1.552979230250628
 32
0.0
 13
217.1074461051639
 23
-1.552979230250628
 33
0.0
  0
POINT
  5
2B44
330
2B40
100
AcDbEntity
  8
Defpoints
 62
     0
100
AcDbPoint
 10
217.1074461051639
 20
-1.552979230250628
 30
0.0
  0
POINT
  5
2B45
330
2B40
100
AcDbEntity
  8
Defpoints
 62
     0
100
AcDbPoint
 10
217.1842956006617
 20
-1.460165411011487
 30
0.0
  0
ENDBLK
  5
2B47
330
2B40
100
AcDbEntity
  8
0
100
AcDbBlockEnd
  0
BLOCK
  5
2B4F
330
2B49
100
AcDbEntity
  8
0
100
AcDbBlockBegin
  2
*D67
 70
     1
 10
0.0
 20
0.0
 30
0.0
  3
*D67
  1

  0
LINE
  5
2B4A
330
2B49
100
AcDbEntity
  8
D
 62
     0
370
    -2
100
AcDbLine
 10
220.2353692391748
 20
-1.049013499339856
 30
0.0
 11
220.1741818554537
 21
-1.25618448993557
 31
0.0
  0
MTEXT
  5
2B4B
330
2B49
100
AcDbEntity
  8
D
 62
     0
100
AcDbMText
 10
220.2710589288875
 20
-0.9281737457476992
 30
0.0
 40
0.04
 41
0.0
 46
0.0
 71
     5
 72
     1
  1
\A1;R0.814
 11
0.2832515056557184
 21
0.9590456634299371
 31
0.0
 73
     1
 44
1.0
  0
SOLID
  5
2B4C
330
2B49
100
AcDbEntity
  8
D
 62
     0
100
AcDbTrace
 10
220.1665094901462
 20
-1.253918477890323
 30
0.0
 11
220.1818542207611
 21
-1.258450501980817
 31
0.0
 12
220.1605857831822
 22
-1.30221868178021
 32
0.0
 13
220.1605857831822
 23
-1.30221868178021
 33
0.0
  0
POINT
  5
2B4D
330
2B49
100
AcDbEntity
  8
Defpoints
 62
     0
100
AcDbPoint
 10
220.1605857831822
 20
-1.30221868178021
 30
0.0
  0
POINT
  5
2B4E
330
2B49
100
AcDbEntity
  8
Defpoints
 62
     0
100
AcDbPoint
 10
219.9299898472669
 20
-2.082980753396263
 30
0.0
  0
ENDBLK
  5
2B50
330
2B49
100
AcDbEntity
  8
0
100
AcDbBlockEnd
  0
BLOCK
  5
2B58
330
2B52
100
AcDbEntity
  8
0
100
AcDbBlockBegin
  2
*D68
 70
     1
 10
0.0
 20
0.0
 30
0.0
  3
*D68
  1

  0
LINE
  5
2B53
330
2B52
100
AcDbEntity
  8
D
 62
     0
370
    -2
100
AcDbLine
 10
220.275028486375
 20
-1.711998407954723
 30
0.0
 11
220.2257487968508
 21
-1.605818417792178
 31
0.0
  0
MTEXT
  5
2B54
330
2B52
100
AcDbEntity
  8
D
 62
     0
100
AcDbMText
 10
220.3280724269917
 20
-1.826289004085253
 30
0.0
 40
0.04
 41
0.0
 46
0.0
 71
     5
 72
     1
  1
\A1;R0.199
 11
0.4209836556873344
 21
-0.9070682232578363
 31
0.0
 73
     1
 44
1.0
  0
SOLID
  5
2B55
330
2B52
100
AcDbEntity
  8
D
 62
     0
100
AcDbTrace
 10
220.2330053426369
 20
-1.60245054854667
 30
0.0
 11
220.2184922510647
 21
-1.609186287037672
 31
0.0
 12
220.2055415813778
 22
-1.562279143075812
 32
0.0
 13
220.2055415813778
 23
-1.562279143075812
 33
0.0
  0
POINT
  5
2B56
330
2B52
100
AcDbEntity
  8
Defpoints
 62
     0
100
AcDbPoint
 10
220.2055415813778
 20
-1.562279143075812
 30
0.0
  0
POINT
  5
2B57
330
2B52
100
AcDbEntity
  8
Defpoints
 62
     0
100
AcDbPoint
 10
220.1217076716804
 20
-1.381647248011319
 30
0.0
  0
ENDBLK
  5
2B59
330
2B52
100
AcDbEntity
  8
0
100
AcDbBlockEnd
  0
BLOCK
  5
2B61
330
2B5B
100
AcDbEntity
  8
0
100
AcDbBlockBegin
  2
*D69
 70
     1
 10
0.0
 20
0.0
 30
0.0
  3
*D69
  1

  0
LINE
  5
2B5C
330
2B5B
100
AcDbEntity
  8
D
 62
     0
370
    -2
100
AcDbLine
 10
221.8319279463295
 20
-1.609931669221545
 30
0.0
 11
221.8177586721436
 21
-1.564070665426974
 31
0.0
  0
MTEXT
  5
2B5D
330
2B5B
100
AcDbEntity
  8
D
 62
     0
100
AcDbMText
 10
221.8701062684413
 20
-1.733501596112482
 30
0.0
 40
0.04
 41
0.0
 46
0.0
 71
     5
 72
     1
  1
\A1;R0.033
 11
0.295193212205346
 21
-0.9554375790536447
 31
0.0
 73
     1
 44
1.0
  0
SOLID
  5
2B5E
330
2B5B
100
AcDbEntity
  8
D
 62
     0
100
AcDbTrace
 10
221.825402172776
 20
-1.561709119729329
 30
0.0
 11
221.8101151715112
 21
-1.56643221112462
 31
0.0
 12
221.8035893979577
 22
-1.518209661632397
 32
0.0
 13
221.8035893979577
 23
-1.518209661632397
 33
0.0
  0
POINT
  5
2B5F
330
2B5B
100
AcDbEntity
  8
Defpoints
 62
     0
100
AcDbPoint
 10
221.8035893979577
 20
-1.518209661632397
 30
0.0
  0
POINT
  5
2B60
330
2B5B
100
AcDbEntity
  8
Defpoints
 62
     0
100
AcDbPoint
 10
221.7938040484414
 20
-1.486537894580855
 30
0.0
  0
ENDBLK
  5
2B62
330
2B5B
100
AcDbEntity
  8
0
100
AcDbBlockEnd
  0
BLOCK
  5
2B6A
330
2B64
100
AcDbEntity
  8
0
100
AcDbBlockBegin
  2
*D70
 70
     1
 10
0.0
 20
0.0
 30
0.0
  3
*D70
  1

  0
LINE
  5
2B75
330
2B64
100
AcDbEntity
  8
D
 62
     0
370
    -2
100
AcDbLine
 10
221.6055272326599
 20
-1.208624963701666
 30
0.0
 11
221.6637472747871
 21
-1.331758052708877
 31
0.0
  0
MTEXT
  5
2B76
330
2B64
100
AcDbEntity
  8
D
 62
     0
100
AcDbMText
 10
221.5502437428902
 20
-1.091702566916438
 30
0.0
 40
0.04
 41
0.0
 46
0.0
 71
     5
 72
     1
  1
\A1;R0.036
 11
0.4274496631677549
 21
-0.9040391504010061
 31
0.0
 73
     1
 44
1.0
  0
SOLID
  5
2B77
330
2B64
100
AcDbEntity
  8
D
 62
     0
100
AcDbTrace
 10
221.6709795879903
 20
-1.328338455403525
 30
0.0
 11
221.6565149615838
 21
-1.335177650014216
 31
0.0
 12
221.6842648586191
 22
-1.375151931928115
 32
0.0
 13
221.6842648586191
 23
-1.375151931928115
 33
0.0
  0
POINT
  5
2B78
330
2B64
100
AcDbEntity
  8
Defpoints
 62
     0
100
AcDbPoint
 10
221.6842648586191
 20
-1.375151931928115
 30
0.0
  0
POINT
  5
2B79
330
2B64
100
AcDbEntity
  8
Defpoints
 62
     0
100
AcDbPoint
 10
221.6997955297141
 20
-1.407998687725893
 30
0.0
  0
ENDBLK
  5
2B6B
330
2B64
100
AcDbEntity
  8
0
100
AcDbBlockEnd
  0
BLOCK
  5
2B73
330
2B6D
100
AcDbEntity
  8
0
100
AcDbBlockBegin
  2
*D71
 70
     1
 10
0.0
 20
0.0
 30
0.0
  3
*D71
  1

  0
LINE
  5
2B6E
330
2B6D
100
AcDbEntity
  8
D
 62
     0
370
    -2
100
AcDbLine
 10
221.4512786841936
 20
-1.399632324114108
 30
0.0
 11
221.4185650280553
 21
-1.440367845314284
 31
0.0
  0
MTEXT
  5
2B6F
330
2B6D
100
AcDbEntity
  8
D
 62
     0
100
AcDbMText
 10
221.5301742928066
 20
-1.301390362908094
 30
0.0
 40
0.04
 41
0.0
 46
0.0
 71
     5
 72
     1
  1
\A1;R0.070
 11
0.6261556239118678
 21
0.7796981048095088
 31
0.0
 73
     1
 44
1.0
  0
SOLID
  5
2B70
330
2B6D
100
AcDbEntity
  8
D
 62
     0
100
AcDbTrace
 10
221.4123274432168
 20
-1.435358600322985
 30
0.0
 11
221.4248026128938
 21
-1.445377090305584
 31
0.0
 12
221.3885095581075
 22
-1.477793354345152
 32
0.0
 13
221.3885095581075
 23
-1.477793354345152
 33
0.0
  0
POINT
  5
2B71
330
2B6D
100
AcDbEntity
  8
Defpoints
 62
     0
100
AcDbPoint
 10
221.3885095581075
 20
-1.477793354345152
 30
0.0
  0
POINT
  5
2B72
330
2B6D
100
AcDbEntity
  8
Defpoints
 62
     0
100
AcDbPoint
 10
221.4324056763256
 20
-1.423133268455799
 30
0.0
  0
ENDBLK
  5
2B74
330
2B6D
100
AcDbEntity
  8
0
100
AcDbBlockEnd
  0
BLOCK
  5
2B81
330
2B7B
100
AcDbEntity
  8
0
100
AcDbBlockBegin
  2
*D72
 70
     1
 10
0.0
 20
0.0
 30
0.0
  3
*D72
  1

  0
LINE
  5
2B7C
330
2B7B
100
AcDbEntity
  8
D
 62
     0
370
    -2
100
AcDbLine
 10
221.3008501898015
 20
-1.324668854844812
 30
0.0
 11
221.3005315660951
 21
-1.372667797322055
 31
0.0
  0
MTEXT
  5
2B7D
330
2B7B
100
AcDbEntity
  8
D
 62
     0
100
AcDbMText
 10
221.3017087036772
 20
-1.195338370947827
 30
0.0
 40
0.04
 41
0.0
 46
0.0
 71
     5
 72
     1
  1
\A1;R0.063
 11
0.006637993884054
 21
0.9999779682758992
 31
0.0
 73
     1
 44
1.0
  0
SOLID
  5
2B7E
330
2B7B
100
AcDbEntity
  8
D
 62
     0
100
AcDbTrace
 10
221.2925317423489
 20
-1.372614693370983
 30
0.0
 11
221.3085313898413
 21
-1.372720901273128
 31
0.0
 12
221.3002129423887
 22
-1.420666739799298
 32
0.0
 13
221.3002129423887
 23
-1.420666739799298
 33
0.0
  0
POINT
  5
2B7F
330
2B7B
100
AcDbEntity
  8
Defpoints
 62
     0
100
AcDbPoint
 10
221.3002129423887
 20
-1.420666739799298
 30
0.0
  0
POINT
  5
2B80
330
2B7B
100
AcDbEntity
  8
Defpoints
 62
     0
100
AcDbPoint
 10
221.2997955297144
 20
-1.483547707333825
 30
0.0
  0
ENDBLK
  5
2B82
330
2B7B
100
AcDbEntity
  8
0
100
AcDbBlockEnd
  0
BLOCK
  5
2B8A
330
2B84
100
AcDbEntity
  8
0
100
AcDbBlockBegin
  2
*D73
 70
     1
 10
0.0
 20
0.0
 30
0.0
  3
*D73
  1

  0
LINE
  5
2B85
330
2B84
100
AcDbEntity
  8
D
 62
     0
370
    -2
100
AcDbLine
 10
221.1571282480956
 20
-1.363108587887559
 30
0.0
 11
221.1800292049148
 21
-1.438261083833431
 31
0.0
  0
MTEXT
  5
2B86
330
2B84
100
AcDbEntity
  8
D
 62
     0
100
AcDbMText
 10
221.1194284716634
 20
-1.239391822782451
 30
0.0
 40
0.04
 41
0.0
 46
0.0
 71
     5
 72
     1
  1
\A1;R0.063
 11
0.2914931167437533
 21
-0.9565729260704657
 31
0.0
 73
     1
 44
1.0
  0
SOLID
  5
2B87
330
2B84
100
AcDbEntity
  8
D
 62
     0
100
AcDbTrace
 10
221.1876817883233
 20
-1.435929138899474
 30
0.0
 11
221.1723766215062
 21
-1.440593028767381
 31
0.0
 12
221.1940208745185
 22
-1.48417658428481
 32
0.0
 13
221.1940208745185
 23
-1.48417658428481
 33
0.0
  0
POINT
  5
2B88
330
2B84
100
AcDbEntity
  8
Defpoints
 62
     0
100
AcDbPoint
 10
221.1940208745185
 20
-1.48417658428481
 30
0.0
  0
POINT
  5
2B89
330
2B84
100
AcDbEntity
  8
Defpoints
 62
     0
100
AcDbPoint
 10
221.1755547855727
 20
-1.423577689417925
 30
0.0
  0
ENDBLK
  5
2B8B
330
2B84
100
AcDbEntity
  8
0
100
AcDbBlockEnd
  0
BLOCK
  5
2B93
330
2B8D
100
AcDbEntity
  8
0
100
AcDbBlockBegin
  2
*D74
 70
     1
 10
0.0
 20
0.0
 30
0.0
  3
*D74
  1

  0
LINE
  5
2B8E
330
2B8D
100
AcDbEntity
  8
D
 62
     0
370
    -2
100
AcDbLine
 10
221.6549089275938
 20
-1.596086439098669
 30
0.0
 11
221.6895906924965
 21
-1.505075408994599
 31
0.0
  0
MTEXT
  5
2B8F
330
2B8D
100
AcDbEntity
  8
D
 62
     0
100
AcDbMText
 10
221.6088542297951
 20
-1.716942038562578
 30
0.0
 40
0.04
 41
0.0
 46
0.0
 71
     5
 72
     1
  1
\A1;R0.039
 11
0.3560930242167471
 21
0.9344505113189093
 31
0.0
 73
     1
 44
1.0
  0
SOLID
  5
2B90
330
2B8D
100
AcDbEntity
  8
D
 62
     0
100
AcDbTrace
 10
221.682115088406
 20
-1.502226664800872
 30
0.0
 11
221.6970662965871
 21
-1.507924153188341
 31
0.0
 12
221.7066831576589
 22
-1.460221784451292
 32
0.0
 13
221.7066831576589
 23
-1.460221784451292
 33
0.0
  0
POINT
  5
2B91
330
2B8D
100
AcDbEntity
  8
Defpoints
 62
     0
100
AcDbPoint
 10
221.7066831576589
 20
-1.460221784451292
 30
0.0
  0
POINT
  5
2B92
330
2B8D
100
AcDbEntity
  8
Defpoints
 62
     0
100
AcDbPoint
 10
221.6927955297145
 20
-1.496665354392646
 30
0.0
  0
ENDBLK
  5
2B94
330
2B8D
100
AcDbEntity
  8
0
100
AcDbBlockEnd
  0
BLOCK
  5
2B9C
330
2B96
100
AcDbEntity
  8
0
100
AcDbBlockBegin
  2
*D75
 70
     1
 10
0.0
 20
0.0
 30
0.0
  3
*D75
  1

  0
LINE
  5
2B97
330
2B96
100
AcDbEntity
  8
D
 62
     0
370
    -2
100
AcDbLine
 10
221.3704851538328
 20
-1.667598521709436
 30
0.0
 11
221.3095338849619
 21
-1.545890347498144
 31
0.0
  0
MTEXT
  5
2B98
330
2B96
100
AcDbEntity
  8
D
 62
     0
100
AcDbMText
 10
221.4283986376719
 20
-1.783240812852071
 30
0.0
 40
0.04
 41
0.0
 46
0.0
 71
     5
 72
     1
  1
\A1;R0.022
 11
0.4477846688595574
 21
-0.894141426360694
 31
0.0
 73
     1
 44
1.0
  0
SOLID
  5
2B99
330
2B96
100
AcDbEntity
  8
D
 62
     0
100
AcDbTrace
 10
221.3166870163728
 20
-1.542308070147271
 30
0.0
 11
221.302380753551
 21
-1.54947262484903
 31
0.0
 12
221.2880402208566
 22
-1.502971559032829
 32
0.0
 13
221.2880402208566
 23
-1.502971559032829
 33
0.0
  0
POINT
  5
2B9A
330
2B96
100
AcDbEntity
  8
Defpoints
 62
     0
100
AcDbPoint
 10
221.2880402208566
 20
-1.502971559032829
 30
0.0
  0
POINT
  5
2B9B
330
2B96
100
AcDbEntity
  8
Defpoints
 62
     0
100
AcDbPoint
 10
221.2977955297139
 20
-1.522451068678449
 30
0.0
  0
ENDBLK
  5
2B9D
330
2B96
100
AcDbEntity
  8
0
100
AcDbBlockEnd
  0
BLOCK
  5
2BAA
330
2B9F
100
AcDbEntity
  8
0
100
AcDbBlockBegin
  2
*D76
 70
     1
 10
0.0
 20
0.0
 30
0.0
  3
*D76
  1

  0
LINE
  5
2BAC
330
2B9F
100
AcDbEntity
  8
D
 62
     0
370
    -2
100
AcDbLine
 10
218.5809133927198
 20
-1.580665411011395
 30
0.0
 11
218.6195032100003
 21
-1.580665411011395
 31
0.0
  0
LINE
  5
2BAD
330
2B9F
100
AcDbEntity
  8
D
 62
     0
370
    -2
100
AcDbLine
 10
218.5809133927198
 20
-1.269665411011395
 30
0.0
 11
218.6195032100003
 21
-1.269665411011395
 31
0.0
  0
LINE
  5
2BAE
330
2B9F
100
AcDbEntity
  8
D
 62
     0
370
    -2
100
AcDbLine
 10
218.5715032100003
 20
-1.532665411011395
 30
0.0
 11
218.5715032100003
 21
-1.317665411011395
 31
0.0
  0
LINE
  5
2BAF
330
2B9F
100
AcDbEntity
  8
D
 62
     0
370
    -2
100
AcDbLine
 10
218.5715032100003
 20
-1.269665411011395
 30
0.0
 11
218.5715032100003
 21
-1.221665411011395
 31
0.0
  0
SOLID
  5
2BB0
330
2B9F
100
AcDbEntity
  8
D
 62
     0
100
AcDbTrace
 10
218.5635032100003
 20
-1.532665411011395
 30
0.0
 11
218.5795032100003
 21
-1.532665411011395
 31
0.0
 12
218.5715032100003
 22
-1.580665411011395
 32
0.0
 13
218.5715032100003
 23
-1.580665411011395
 33
0.0
  0
SOLID
  5
2BB1
330
2B9F
100
AcDbEntity
  8
D
 62
     0
100
AcDbTrace
 10
218.5635032100003
 20
-1.317665411011395
 30
0.0
 11
218.5795032100003
 21
-1.317665411011395
 31
0.0
 12
218.5715032100003
 22
-1.269665411011395
 32
0.0
 13
218.5715032100003
 23
-1.269665411011395
 33
0.0
  0
MTEXT
  5
2BB2
330
2B9F
100
AcDbEntity
  8
D
 62
     0
100
AcDbMText
 10
218.5715032100003
 20
-1.042332077678026
 30
0.0
 40
0.04
 41
0.0
 46
0.0
 71
     5
 72
     1
  1
\A1;0.311 REF
 11
0.0000000000000001
 21
1.0
 31
0.0
 73
     1
 44
1.0
  0
POINT
  5
2BB3
330
2B9F
100
AcDbEntity
  8
Defpoints
 62
     0
100
AcDbPoint
 10
218.5409133927199
 20
-1.580665411011395
 30
0.0
  0
POINT
  5
2BB4
330
2B9F
100
AcDbEntity
  8
Defpoints
 62
     0
100
AcDbPoint
 10
218.5409133927199
 20
-1.269665411011395
 30
0.0
  0
POINT
  5
2BB5
330
2B9F
100
AcDbEntity
  8
Defpoints
 62
     0
100
AcDbPoint
 10
218.5715032100003
 20
-1.269665411011395
 30
0.0
  0
ENDBLK
  5
2BAB
330
2B9F
100
AcDbEntity
  8
0
100
AcDbBlockEnd
  0
BLOCK
  5
2BC2
330
2BB7
100
AcDbEntity
  8
0
100
AcDbBlockBegin
  2
*D77
 70
     1
 10
0.0
 20
0.0
 30
0.0
  3
*D77
  1

  0
LINE
  5
2BC4
330
2BB7
100
AcDbEntity
  8
D
 62
     0
370
    -2
100
AcDbLine
 10
221.826953013634
 20
-1.526537894580927
 30
0.0
 11
221.826953013634
 21
-2.43344153739911
 31
0.0
  0
LINE
  5
2BC5
330
2BB7
100
AcDbEntity
  8
D
 62
     0
370
    -2
100
AcDbLine
 10
217.0637956006614
 20
-1.500165411011395
 30
0.0
 11
217.0637956006614
 21
-2.43344153739911
 31
0.0
  0
LINE
  5
2BC6
330
2BB7
100
AcDbEntity
  8
D
 62
     0
370
    -2
100
AcDbLine
 10
221.778953013634
 20
-2.38544153739911
 30
0.0
 11
219.6413743071477
 21
-2.38544153739911
 31
0.0
  0
LINE
  5
2BC7
330
2BB7
100
AcDbEntity
  8
D
 62
     0
370
    -2
100
AcDbLine
 10
217.1117956006614
 20
-2.38544153739911
 30
0.0
 11
219.2493743071477
 21
-2.38544153739911
 31
0.0
  0
SOLID
  5
2BC8
330
2BB7
100
AcDbEntity
  8
D
 62
     0
100
AcDbTrace
 10
221.778953013634
 20
-2.37744153739911
 30
0.0
 11
221.778953013634
 21
-2.39344153739911
 31
0.0
 12
221.826953013634
 22
-2.38544153739911
 32
0.0
 13
221.826953013634
 23
-2.38544153739911
 33
0.0
  0
SOLID
  5
2BC9
330
2BB7
100
AcDbEntity
  8
D
 62
     0
100
AcDbTrace
 10
217.1117956006614
 20
-2.37744153739911
 30
0.0
 11
217.1117956006614
 21
-2.39344153739911
 31
0.0
 12
217.0637956006614
 22
-2.38544153739911
 32
0.0
 13
217.0637956006614
 23
-2.38544153739911
 33
0.0
  0
MTEXT
  5
2BCA
330
2BB7
100
AcDbEntity
  8
D
 62
     0
100
AcDbMText
 10
219.4453743071477
 20
-2.38544153739911
 30
0.0
 40
0.04
 41
0.0
 46
0.0
 71
     5
 72
     1
  1
\A1;4.763 REF
 73
     1
 44
1.0
  0
POINT
  5
2BCB
330
2BB7
100
AcDbEntity
  8
Defpoints
 62
     0
100
AcDbPoint
 10
221.826953013634
 20
-1.486537894580927
 30
0.0
  0
POINT
  5
2BCC
330
2BB7
100
AcDbEntity
  8
Defpoints
 62
     0
100
AcDbPoint
 10
217.0637956006614
 20
-1.460165411011395
 30
0.0
  0
POINT
  5
2BCD
330
2BB7
100
AcDbEntity
  8
Defpoints
 62
     0
100
AcDbPoint
 10
217.0637956006614
 20
-2.38544153739911
 30
0.0
  0
ENDBLK
  5
2BC3
330
2BB7
100
AcDbEntity
  8
0
100
AcDbBlockEnd
  0
ENDSEC
  0
SECTION
  2
ENTITIES
  0
TEXT
  5
45
330
18
100
AcDbEntity
  8
T
100
AcDbText
 10
15.48616755326692
 20
1.693507973140668
 30
0.0
 40
0.12
  1
 
100
AcDbText
  0
TEXT
  5
69
330
18
100
AcDbEntity
  8
D
100
AcDbText
 10
5.604806811939204
 20
5.027631219471905
 30
0.0
 40
0.1
  1

100
AcDbText
  0
LINE
  5
F5C
330
18
100
AcDbEntity
  8
Title Block
100
AcDbLine
 10
222.8671132055122
 20
0.6807462179658899
 30
0.0
 11
222.8671132055122
 21
-4.19425378203411
 31
0.0
  0
LINE
  5
F5D
330
18
100
AcDbEntity
  8
Title Block
100
AcDbLine
 10
215.1171132055122
 20
-4.19425378203411
 30
0.0
 11
215.1171132055122
 21
0.6807462179658899
 31
0.0
  0
LINE
  5
F5E
330
18
100
AcDbEntity
  8
Title Block
100
AcDbLine
 10
222.8671132055122
 20
-4.19425378203411
 30
0.0
 11
215.1171132055122
 21
-4.19425378203411
 31
0.0
  0
MTEXT
  5
F60
330
18
100
AcDbEntity
  8
TITLE BLOCK TEXT
100
AcDbMText
 10
220.3446099066594
 20
-4.035675370464758
 30
0.0
 40
0.036
 41
0.0
 46
0.0
 71
     4
 72
     1
  1
TOLERANCES:\PX.XXX +/- 0.005"\PFRACTIONS +/- 1/64"\PANGLES +/- 1/2
  7
Roman
 73
     1
 44
1.0
  0
LINE
  5
F61
330
18
100
AcDbEntity
  8
Title Block
100
AcDbLine
 10
220.2832050155143
 20
-3.859688787552666
 30
0.0
 11
221.9689509740086
 21
-3.859688787552283
 31
0.0
  0
LINE
  5
F62
330
18
100
AcDbEntity
  8
Title Block
100
AcDbLine
 10
220.2808159956285
 20
-3.594253782034109
 30
0.0
 11
222.867113205512
 21
-3.594253782034109
 31
0.0
  0
LINE
  5
F63
330
18
100
AcDbEntity
  8
Title Block
100
AcDbLine
 10
220.2808159956286
 20
-4.19425378203411
 30
0.0
 11
220.2808159956286
 21
-3.379762381082252
 31
0.0
  0
TEXT
  5
F65
330
18
100
AcDbEntity
  8
TITLE BLOCK TEXT
100
AcDbText
 10
221.8279701110593
 20
-4.145839862090286
 30
0.0
 40
0.067392
  1
ISON-1016-01-13
  7
Roman
100
AcDbText
  0
LINE
  5
F67
330
18
100
AcDbEntity
  8
Title Block
100
AcDbLine
 10
221.1129344065043
 20
-3.966253782034112
 30
0.0
 11
222.867113205512
 21
-3.966253782034112
 31
0.0
  0
LINE
  5
F68
330
18
100
AcDbEntity
  8
Title Block
100
AcDbLine
 10
221.9689509740085
 20
-3.966253782034112
 30
0.0
 11
221.9689509740086
 21
-3.594253782034178
 31
0.0
  0
LINE
  5
F69
330
18
100
AcDbEntity
  8
Title Block
100
AcDbLine
 10
221.1129344065044
 20
-4.19425378203411
 30
0.0
 11
221.1129344065042
 21
-3.379762381082252
 31
0.0
  0
LINE
  5
F6A
330
18
100
AcDbEntity
  8
Title Block
100
AcDbLine
 10
221.7583542112901
 20
-4.19425378203411
 30
0.0
 11
221.7583542112901
 21
-3.966253782034112
 31
0.0
  0
LINE
  5
F6B
330
18
100
AcDbEntity
  8
Title Block
100
AcDbLine
 10
221.5589703949634
 20
-4.19425378203411
 30
0.0
 11
221.5589703949634
 21
-3.966253782034112
 31
0.0
  0
TEXT
  5
F6C
330
18
100
AcDbEntity
  8
TITLE BLOCK TEXT
100
AcDbText
 10
221.3761493243485
 20
-4.145839862090286
 30
0.0
 40
0.048
  1
2:1
  7
Roman
100
AcDbText
  0
MTEXT
  5
F6D
330
18
100
AcDbEntity
  8
TITLE BLOCK TEXT
100
AcDbMText
 10
221.6084994779424
 20
-4.014697940828336
 30
0.0
 40
0.036
 41
0.0
 46
0.0
 71
     4
 72
     1
  1
REV.
  7
Roman
 73
     1
 44
1.0
  0
LINE
  5
F6E
330
18
100
AcDbEntity
  8
Title Block
100
AcDbLine
 10
221.3188540139814
 20
-4.19425378203411
 30
0.0
 11
221.3188540139814
 21
-3.966253782034112
 31
0.0
  0
TEXT
  5
F6F
330
18
100
AcDbEntity
  8
TITLE BLOCK TEXT
100
AcDbText
 10
221.1908273965526
 20
-4.145839862090286
 30
0.0
 40
0.048
  1
B
  7
Roman
100
AcDbText
  0
MTEXT
  5
F70
330
18
100
AcDbEntity
  8
TITLE BLOCK TEXT
100
AcDbMText
 10
221.1579325797837
 20
-4.014697940828336
 30
0.0
 40
0.036
 41
0.0
 46
0.0
 71
     4
 72
     1
  1
SIZE
  7
Roman
 73
     1
 44
1.0
  0
MTEXT
  5
F71
330
18
100
AcDbEntity
  8
TITLE BLOCK TEXT
100
AcDbMText
 10
221.1463230824977
 20
-3.725798926643472
 30
0.0
 40
0.048
 41
0.0
 46
0.0
 71
     4
 72
     1
  1
OPEN\PLOCK PICK SET\PPICK BLADE
  7
Roman
 73
     1
 44
1.0
  0
MTEXT
  5
F72
330
18
100
AcDbEntity
  8
TITLE BLOCK TEXT
100
AcDbMText
 10
221.3491514798801
 20
-4.014697940828336
 30
0.0
 40
0.036
 41
0.0
 46
0.0
 71
     4
 72
     1
  1
SCALE
  7
Roman
 73
     1
 44
1.0
  0
TEXT
  5
F73
330
18
100
AcDbEntity
  8
TITLE BLOCK TEXT
100
AcDbText
 10
221.8354072920479
 20
-4.034713782034117
 30
0.0
 40
0.039
  1
DWG NO.
  7
Roman
100
AcDbText
  0
LINE
  5
F74
330
18
100
AcDbEntity
  8
Title Block
100
AcDbLine
 10
215.1171132055122
 20
0.6807462179658899
 30
0.0
 11
222.8671132055122
 21
0.6807462179658899
 31
0.0
  0
TEXT
  5
F75
330
18
100
AcDbEntity
  8
TITLE BLOCK TEXT
100
AcDbText
 10
220.6963132055122
 20
0.5849262179658635
 30
0.0
 40
0.039
  1
DESCRIPTION
  7
Roman
100
AcDbText
  0
LINE
  5
F76
330
18
100
AcDbEntity
  8
Title Block
100
AcDbLine
 10
219.8671132055122
 20
0.5307462179658895
 30
0.0
 11
222.8671132055122
 21
0.5307462179658895
 31
0.0
  0
LINE
  5
F77
330
18
100
AcDbEntity
  8
Title Block
100
AcDbLine
 10
219.8671132055122
 20
0.6807462179658899
 30
0.0
 11
222.8671132055122
 21
0.6807462179658899
 31
0.0
  0
TEXT
  5
F78
330
18
100
AcDbEntity
  8
TITLE BLOCK TEXT
100
AcDbText
 10
219.9151732055121
 20
0.5849262179658635
 30
0.0
 40
0.039
  1
REV
  7
Roman
100
AcDbText
  0
LINE
  5
F79
330
18
100
AcDbEntity
  8
Title Block
100
AcDbLine
 10
219.8671132055122
 20
0.5307462179658895
 30
0.0
 11
219.8671132055122
 21
0.6807462179658899
 31
0.0
  0
LINE
  5
F7A
330
18
100
AcDbEntity
  8
Title Block
100
AcDbLine
 10
220.0951132055123
 20
0.5307462179658895
 30
0.0
 11
220.0951132055123
 21
0.6807462179658899
 31
0.0
  0
TEXT
  5
F7B
330
18
100
AcDbEntity
  8
TITLE BLOCK TEXT
100
AcDbText
 10
222.4119532055121
 20
0.5849262179658635
 30
0.0
 40
0.039
  1
APPROVED
  7
Roman
100
AcDbText
  0
LINE
  5
F7C
330
18
100
AcDbEntity
  8
Title Block
100
AcDbLine
 10
221.7391132055121
 20
0.5307462179658895
 30
0.0
 11
221.7391132055121
 21
0.6807462179658899
 31
0.0
  0
LINE
  5
F7D
330
18
100
AcDbEntity
  8
Title Block
100
AcDbLine
 10
222.2671132055122
 20
0.5307462179658895
 30
0.0
 11
222.2671132055122
 21
0.6807462179658899
 31
0.0
  0
TEXT
  5
F7E
330
18
100
AcDbEntity
  8
TITLE BLOCK TEXT
100
AcDbText
 10
221.9357332055122
 20
0.5849262179658635
 30
0.0
 40
0.039
  1
DATE
  7
Roman
100
AcDbText
  0
LINE
  5
119C
330
18
100
AcDbEntity
  8
PICK
100
AcDbLine
 10
215.9464550908254
 20
-1.580665411011395
 30
0.0
 11
215.9464550908254
 21
-1.269665411011402
 31
0.0
  0
LINE
  5
119D
330
18
100
AcDbEntity
  8
PICK
100
AcDbLine
 10
215.9664550908254
 20
-1.580665411011395
 30
0.0
 11
215.9664550908254
 21
-1.269665411011402
 31
0.0
  0
LINE
  5
119E
330
18
100
AcDbEntity
  8
PICK
100
AcDbLine
 10
214.836885864041
 20
-5.999676172326758
 30
0.0
 11
214.856885864041
 21
-5.999676172326758
 31
0.0
  0
LINE
  5
119F
330
18
100
AcDbEntity
  8
PICK
100
AcDbLine
 10
215.9664550908254
 20
-1.269665411011402
 30
0.0
 11
215.9464550908254
 21
-1.269665411011402
 31
0.0
  0
LINE
  5
11A0
330
18
100
AcDbEntity
  8
PICK
100
AcDbLine
 10
215.9464550908254
 20
-1.269665411011402
 30
0.0
 11
215.9664550908254
 21
-1.269665411011402
 31
0.0
  0
LINE
  5
11A1
330
18
100
AcDbEntity
  8
PICK
100
AcDbLine
 10
215.9464550908254
 20
-1.580665411011395
 30
0.0
 11
215.9664550908254
 21
-1.580665411011395
 31
0.0
  0
DIMENSION
  5
11A2
330
18
100
AcDbEntity
  8
D
100
AcDbDimension
280
     0
  2
*D20
 10
215.9464550908254
 20
-1.073153340859391
 30
0.0
 11
215.7444550908254
 21
-1.073153340859391
 31
0.0
 70
    32
 71
     5
 42
0.0199999999999818
 73
     0
 74
     0
 75
     0
  3
TPS3
100
AcDbAlignedDimension
 13
215.9664550908254
 23
-1.269665411011402
 33
0.0
 14
215.9464550908254
 24
-1.269665411011402
 34
0.0
100
AcDbRotatedDimension
  0
LINE
  5
123E
330
18
100
AcDbEntity
  8
Title Block
100
AcDbLine
 10
218.3670431001213
 20
-3.194056640204962
 30
0.0
 11
215.1171132055122
 21
-3.194056640204962
 31
0.0
  0
MTEXT
  5
1240
330
18
100
AcDbEntity
  8
D
100
AcDbMText
 10
216.6536727265738
 20
-3.963035119641034
 30
0.0
 40
0.04
 41
0.0
 46
0.0
 71
     5
 72
     1
  1
*****THIS VIEW IS 1:1 ONLY WHEN PRINTED \PON 11X17 PAPER.*****
 73
     1
 44
1.0
  0
LINE
  5
1241
330
18
100
AcDbEntity
  8
Title Block
100
AcDbLine
 10
218.3670431001213
 20
-4.19425378203411
 30
0.0
 11
218.3670431001213
 21
-3.194056640204962
 31
0.0
  0
LINE
  5
12AA
330
18
100
AcDbEntity
  8
Title Block
100
AcDbLine
 10
220.2808159956285
 20
-3.379762381082252
 30
0.0
 11
221.1129344065042
 21
-3.379762381082251
 31
0.0
  0
MTEXT
  5
137A
330
18
100
AcDbEntity
  8
D
100
AcDbMText
 10
216.6536727265738
 20
-3.39668549162647
 30
0.0
 40
0.04
 41
0.0
 46
0.0
 71
     5
 72
     1
  1
*****THIS VIEW IS 1:1 ONLY WHEN PRINTED \PON 11X17 PAPER.*****
 73
     1
 44
1.0
  0
MTEXT
  5
17D9
330
18
100
AcDbEntity
  8
TITLE BLOCK TEXT
100
AcDbMText
 10
221.1561052303493
 20
-3.91012371801049
 30
0.0
 40
0.048
 41
0.0
 46
0.0
 71
     4
 72
     1
  1
DATE: 5-18-2011
  7
Roman
 73
     1
 44
1.0
  0
LINE
  5
28BA
330
18
100
AcDbEntity
  8
PICK
100
AcDbLine
 10
217.1842956006615
 20
-1.580665411011395
 30
0.0
 11
220.1147956006615
 21
-1.580665411011395
 31
0.0
  0
LINE
  5
28BB
330
18
100
AcDbEntity
  8
PICK
100
AcDbLine
 10
217.1842956006615
 20
-1.269665411011395
 30
0.0
 11
219.9657956006615
 21
-1.269665411011395
 31
0.0
  0
LINE
  5
28BC
330
18
100
AcDbEntity
  8
PICK
100
AcDbLine
 10
217.0637956006614
 20
-1.460165411011393
 30
0.0
 11
217.0637956006614
 21
-1.390165411011395
 31
0.0
  0
ARC
  5
28BD
330
18
100
AcDbEntity
  8
PICK
100
AcDbCircle
 10
219.9299898472671
 20
-2.082980753396274
 30
0.0
 40
0.8141031250000029
100
AcDbArc
 50
51.40869651708104
 51
87.47921304375259
  0
ARC
  5
28BF
330
18
100
AcDbEntity
  8
PICK
100
AcDbCircle
 10
220.1217076716806
 20
-1.38164724801128
 30
0.0
 40
0.1991381578947491
100
AcDbArc
 50
268.0108681009747
 51
303.5210438782801
  0
ARC
  5
28C0
330
18
100
AcDbEntity
  8
PICK
100
AcDbCircle
 10
217.1842956006615
 20
-1.390165411011395
 30
0.0
 40
0.1204999999999998
100
AcDbArc
 50
90.0
 51
180.0
  0
ARC
  5
28C1
330
18
100
AcDbEntity
  8
PICK
100
AcDbCircle
 10
217.1842956006615
 20
-1.460165411011395
 30
0.0
 40
0.1204999999999998
100
AcDbArc
 50
179.999999999999
 51
270.0
  0
LINE
  5
28C2
330
18
100
AcDbEntity
  8
PICK
100
AcDbLine
 10
220.4817955297143
 20
-1.452665354392647
 30
0.0
 11
220.4377956006615
 21
-1.446665411011395
 31
0.0
  0
LINE
  5
28C3
330
18
100
AcDbEntity
  8
PICK
100
AcDbLine
 10
220.4817955297143
 20
-1.452665354392647
 30
0.0
 11
221.1697955297143
 21
-1.486665354392647
 31
0.0
  0
ARC
  5
28C4
330
18
100
AcDbEntity
  8
PICK
100
AcDbCircle
 10
221.1755547855734
 20
-1.423577689418028
 30
0.0
 40
0.0633500000000089
100
AcDbArc
 50
264.7839416230523
 51
310.6169139542819
  0
LINE
  5
28C5
330
18
100
AcDbEntity
  8
PICK
100
AcDbLine
 10
221.2167955297143
 20
-1.471665354392647
 30
0.0
 11
221.2567955297143
 21
-1.437665354392646
 31
0.0
  0
ARC
  5
28C6
330
18
100
AcDbEntity
  8
PICK
100
AcDbCircle
 10
221.2997955297143
 20
-1.483547707333823
 30
0.0
 40
0.062882352941176
100
AcDbArc
 50
46.85738561749098
 51
133.142614382509
  0
LINE
  5
28C7
330
18
100
AcDbEntity
  8
PICK
100
AcDbLine
 10
221.3427955297143
 20
-1.437665354392646
 30
0.0
 11
221.3827955297143
 21
-1.472665354392646
 31
0.0
  0
ARC
  5
28C8
330
18
100
AcDbEntity
  8
PICK
100
AcDbCircle
 10
221.4324056763254
 20
-1.42313326845579
 30
0.0
 40
0.0701041666666743
100
AcDbArc
 50
224.954887577782
 51
292.9982004947364
  0
LINE
  5
28C9
330
18
100
AcDbEntity
  8
PICK
100
AcDbLine
 10
221.6797955297143
 20
-1.377665354392647
 30
0.0
 11
221.4597955297143
 21
-1.487665354392647
 31
0.0
  0
ARC
  5
28CA
330
18
100
AcDbEntity
  8
PICK
100
AcDbCircle
 10
221.6997955297143
 20
-1.40799868772599
 30
0.0
 40
0.0363333333333438
100
AcDbArc
 50
56.60151153202775
 51
123.3984884679819
  0
LINE
  5
28CB
330
18
100
AcDbEntity
  8
PICK
100
AcDbLine
 10
221.7197955297143
 20
-1.377665354392642
 30
0.0
 11
221.8179328130217
 21
-1.463807812901309
 31
0.0
  0
LINE
  5
28CC
330
18
100
AcDbEntity
  8
PICK
100
AcDbLine
 10
221.5207955297143
 20
-1.547665354392647
 30
0.0
 11
221.3577955297143
 21
-1.547665354392647
 31
0.0
  0
LINE
  5
28CD
330
18
100
AcDbEntity
  8
PICK
100
AcDbLine
 10
221.2367955297143
 20
-1.547665354392647
 30
0.0
 11
220.23168036958
 21
-1.547665354392647
 31
0.0
  0
ARC
  5
28CE
330
18
100
AcDbEntity
  8
PICK
100
AcDbCircle
 10
221.2977955297143
 20
-1.52245106867836
 30
0.0
 40
0.0217857142857122
100
AcDbArc
 50
42.74124453868716
 51
137.2587554613128
  0
LINE
  5
28CF
330
18
100
AcDbEntity
  8
PICK
100
AcDbLine
 10
221.3137955297143
 20
-1.507665354392647
 30
0.0
 11
221.3577955297143
 21
-1.547665354392647
 31
0.0
  0
LINE
  5
28D0
330
18
100
AcDbEntity
  8
PICK
100
AcDbLine
 10
221.2817955297143
 20
-1.507665354392647
 30
0.0
 11
221.2367955297143
 21
-1.547665354392647
 31
0.0
  0
ARC
  5
28D1
330
18
100
AcDbEntity
  8
PICK
100
AcDbCircle
 10
221.6927955297143
 20
-1.496665354392653
 30
0.0
 40
0.039000000000007
100
AcDbArc
 50
67.38013505195763
 51
112.6198649480334
  0
LINE
  5
28D2
330
18
100
AcDbEntity
  8
PICK
100
AcDbLine
 10
221.6777955297143
 20
-1.460665354392647
 30
0.0
 11
221.5207955297143
 21
-1.547665354392647
 31
0.0
  0
LINE
  5
28D3
330
18
100
AcDbEntity
  8
PICK
100
AcDbLine
 10
221.7077955297143
 20
-1.460665354392647
 30
0.0
 11
221.774393602898
 21
-1.513409598976011
 31
0.0
  0
ARC
  5
28D4
330
18
100
AcDbEntity
  8
PICK
100
AcDbCircle
 10
221.7938040484419
 20
-1.486537894580927
 30
0.0
 40
0.0331489651921497
100
AcDbArc
 50
229.0850651500405
 51
54.15799843266306
  0
ARC
  5
28D5
330
18
100
AcDbEntity
  8
Title Block
100
AcDbCircle
 10
215.6776639285976
 20
-3.695595123213101
 30
0.0
 40
0.0602499999999999
100
AcDbArc
 50
179.999999999999
 51
270.0
  0
ARC
  5
28D6
330
18
100
AcDbEntity
  8
Title Block
100
AcDbCircle
 10
217.1463699641072
 20
-3.656336041713043
 30
0.0
 40
0.0995690789473746
100
AcDbArc
 50
268.0108681009747
 51
303.5210438782801
  0
LINE
  5
28D7
330
18
100
AcDbEntity
  8
Title Block
100
AcDbLine
 10
215.6776639285976
 20
-3.7558451232131
 30
0.0
 11
217.1429139285977
 21
-3.7558451232131
 31
0.0
  0
LINE
  5
28D8
330
18
100
AcDbEntity
  8
Title Block
100
AcDbLine
 10
217.703913893124
 20
-3.739345094903726
 30
0.0
 11
217.2013563130569
 21
-3.739345094903726
 31
0.0
  0
ARC
  5
28D9
330
18
100
AcDbEntity
  8
Title Block
100
AcDbCircle
 10
217.0505110519005
 20
-4.00700279440554
 30
0.0
 40
0.4070515625000015
100
AcDbArc
 50
51.40869651708104
 51
87.47921304375259
  0
LINE
  5
28DA
330
18
100
AcDbEntity
  8
Title Block
100
AcDbLine
 10
215.6776639285976
 20
-3.6003451232131
 30
0.0
 11
217.0684139285977
 21
-3.6003451232131
 31
0.0
  0
ARC
  5
28DB
330
18
100
AcDbEntity
  8
Title Block
100
AcDbCircle
 10
215.6776639285976
 20
-3.6605951232131
 30
0.0
 40
0.0602499999999999
100
AcDbArc
 50
90.0
 51
180.0
  0
LINE
  5
28DC
330
18
100
AcDbEntity
  8
Title Block
100
AcDbLine
 10
215.6174139285977
 20
-3.6955951232131
 30
0.0
 11
215.6174139285977
 21
-3.6605951232131
 31
0.0
  0
ARC
  5
28DD
330
18
100
AcDbEntity
  8
Title Block
100
AcDbCircle
 10
217.9824181524878
 20
-3.708781364997867
 30
0.0
 40
0.0165744825960748
100
AcDbArc
 50
229.0850651500405
 51
54.15799843266306
  0
LINE
  5
28DE
330
18
100
AcDbEntity
  8
Title Block
100
AcDbLine
 10
217.9394138931241
 20
-3.695845094903726
 30
0.0
 11
217.9727129297159
 21
-3.722217217195408
 31
0.0
  0
LINE
  5
28DF
330
18
100
AcDbEntity
  8
Title Block
100
AcDbLine
 10
217.924413893124
 20
-3.695845094903726
 30
0.0
 11
217.845913893124
 21
-3.739345094903726
 31
0.0
  0
ARC
  5
28E0
330
18
100
AcDbEntity
  8
Title Block
100
AcDbCircle
 10
217.9319138931241
 20
-3.713845094903729
 30
0.0
 40
0.0195000000000035
100
AcDbArc
 50
67.38013505195763
 51
112.6198649480334
  0
LINE
  5
28E1
330
18
100
AcDbEntity
  8
Title Block
100
AcDbLine
 10
217.726413893124
 20
-3.719345094903726
 30
0.0
 11
217.703913893124
 21
-3.739345094903727
 31
0.0
  0
LINE
  5
28E2
330
18
100
AcDbEntity
  8
Title Block
100
AcDbLine
 10
217.742413893124
 20
-3.719345094903726
 30
0.0
 11
217.7644138931241
 21
-3.739345094903726
 31
0.0
  0
ARC
  5
28E3
330
18
100
AcDbEntity
  8
Title Block
100
AcDbCircle
 10
217.734413893124
 20
-3.726737952046583
 30
0.0
 40
0.0108928571428561
100
AcDbArc
 50
42.74124453868716
 51
137.2587554613128
  0
LINE
  5
28E4
330
18
100
AcDbEntity
  8
Title Block
100
AcDbLine
 10
217.845913893124
 20
-3.739345094903726
 30
0.0
 11
217.7644138931241
 21
-3.739345094903726
 31
0.0
  0
LINE
  5
28E5
330
18
100
AcDbEntity
  8
Title Block
100
AcDbLine
 10
217.945413893124
 20
-3.654345094903724
 30
0.0
 11
217.9944825347778
 21
-3.697416324158058
 31
0.0
  0
ARC
  5
28E6
330
18
100
AcDbEntity
  8
Title Block
100
AcDbCircle
 10
217.935413893124
 20
-3.669511761570398
 30
0.0
 40
0.0181666666666719
100
AcDbArc
 50
56.60151153202775
 51
123.3984884679819
  0
LINE
  5
28E7
330
18
100
AcDbEntity
  8
Title Block
100
AcDbLine
 10
217.925413893124
 20
-3.654345094903726
 30
0.0
 11
217.815413893124
 21
-3.709345094903726
 31
0.0
  0
ARC
  5
28E8
330
18
100
AcDbEntity
  8
Title Block
100
AcDbCircle
 10
217.8017189664296
 20
-3.677079051935298
 30
0.0
 40
0.0350520833333372
100
AcDbArc
 50
224.954887577782
 51
292.9982004947364
  0
LINE
  5
28E9
330
18
100
AcDbEntity
  8
Title Block
100
AcDbLine
 10
217.756913893124
 20
-3.684345094903726
 30
0.0
 11
217.776913893124
 21
-3.701845094903726
 31
0.0
  0
ARC
  5
28EA
330
18
100
AcDbEntity
  8
Title Block
100
AcDbCircle
 10
217.735413893124
 20
-3.707286271374314
 30
0.0
 40
0.031441176470588
100
AcDbArc
 50
46.85738561749098
 51
133.142614382509
  0
LINE
  5
28EB
330
18
100
AcDbEntity
  8
Title Block
100
AcDbLine
 10
217.6939138931241
 20
-3.701345094903726
 30
0.0
 11
217.7139138931241
 21
-3.684345094903726
 31
0.0
  0
ARC
  5
28EC
330
18
100
AcDbEntity
  8
Title Block
100
AcDbCircle
 10
217.6732935210536
 20
-3.677301262416417
 30
0.0
 40
0.0316750000000045
100
AcDbArc
 50
264.7839416230523
 51
310.6169139542819
  0
LINE
  5
28ED
330
18
100
AcDbEntity
  8
Title Block
100
AcDbLine
 10
217.3264138931241
 20
-3.691845094903726
 30
0.0
 11
217.6704138931241
 21
-3.708845094903726
 31
0.0
  0
LINE
  5
28EE
330
18
100
AcDbEntity
  8
Title Block
100
AcDbLine
 10
217.3264138931241
 20
-3.691845094903726
 30
0.0
 11
217.3044139285976
 21
-3.6888451232131
 31
0.0
  0
POINT
  5
28EF
330
18
100
AcDbEntity
  8
D
100
AcDbPoint
 10
217.0637956006614
 20
-1.390165411011395
 30
0.0
  0
POINT
  5
28F0
330
18
100
AcDbEntity
  8
D
100
AcDbPoint
 10
217.1842956006615
 20
-1.269665411011395
 30
0.0
  0
POINT
  5
28F1
330
18
100
AcDbEntity
  8
D
100
AcDbPoint
 10
219.9657956006615
 20
-1.269665411011395
 30
0.0
  0
POINT
  5
28F2
330
18
100
AcDbEntity
  8
D
100
AcDbPoint
 10
220.4377956006615
 20
-1.446665411011395
 30
0.0
  0
POINT
  5
28F4
330
18
100
AcDbEntity
  8
D
100
AcDbPoint
 10
220.4817955297143
 20
-1.452665354392647
 30
0.0
  0
POINT
  5
28F5
330
18
100
AcDbEntity
  8
D
100
AcDbPoint
 10
221.1697955297143
 20
-1.486665354392647
 30
0.0
  0
POINT
  5
28F6
330
18
100
AcDbEntity
  8
D
100
AcDbPoint
 10
221.2167955297143
 20
-1.471665354392647
 30
0.0
  0
POINT
  5
28F7
330
18
100
AcDbEntity
  8
D
100
AcDbPoint
 10
221.2567955297143
 20
-1.437665354392646
 30
0.0
  0
POINT
  5
28F8
330
18
100
AcDbEntity
  8
D
100
AcDbPoint
 10
221.3427955297143
 20
-1.437665354392646
 30
0.0
  0
POINT
  5
28F9
330
18
100
AcDbEntity
  8
D
100
AcDbPoint
 10
221.3827955297142
 20
-1.47266535439265
 30
0.0
  0
POINT
  5
28FA
330
18
100
AcDbEntity
  8
D
100
AcDbPoint
 10
221.4597955297143
 20
-1.487665354392647
 30
0.0
  0
POINT
  5
28FB
330
18
100
AcDbEntity
  8
D
100
AcDbPoint
 10
221.6797955297143
 20
-1.377665354392647
 30
0.0
  0
POINT
  5
28FC
330
18
100
AcDbEntity
  8
D
100
AcDbPoint
 10
221.7197955297143
 20
-1.377665354392642
 30
0.0
  0
POINT
  5
28FD
330
18
100
AcDbEntity
  8
D
100
AcDbPoint
 10
221.8179328130217
 20
-1.463807812901309
 30
0.0
  0
POINT
  5
28FE
330
18
100
AcDbEntity
  8
D
100
AcDbPoint
 10
221.774393602898
 20
-1.513409598976011
 30
0.0
  0
POINT
  5
28FF
330
18
100
AcDbEntity
  8
D
100
AcDbPoint
 10
221.7077955297143
 20
-1.460665354392647
 30
0.0
  0
POINT
  5
2900
330
18
100
AcDbEntity
  8
D
100
AcDbPoint
 10
221.6777955297143
 20
-1.460665354392647
 30
0.0
  0
POINT
  5
2901
330
18
100
AcDbEntity
  8
D
100
AcDbPoint
 10
221.5207955297143
 20
-1.547665354392647
 30
0.0
  0
POINT
  5
2902
330
18
100
AcDbEntity
  8
D
100
AcDbPoint
 10
221.3577955297143
 20
-1.547665354392647
 30
0.0
  0
POINT
  5
2903
330
18
100
AcDbEntity
  8
D
100
AcDbPoint
 10
221.3137955297143
 20
-1.507665354392647
 30
0.0
  0
POINT
  5
2904
330
18
100
AcDbEntity
  8
D
100
AcDbPoint
 10
221.2817955297143
 20
-1.507665354392647
 30
0.0
  0
POINT
  5
2905
330
18
100
AcDbEntity
  8
D
100
AcDbPoint
 10
221.2367955297143
 20
-1.547665354392647
 30
0.0
  0
POINT
  5
2906
330
18
100
AcDbEntity
  8
D
100
AcDbPoint
 10
220.23168036958
 20
-1.547665354392647
 30
0.0
  0
POINT
  5
2907
330
18
100
AcDbEntity
  8
D
100
AcDbPoint
 10
220.1147956006614
 20
-1.580665411011393
 30
0.0
  0
POINT
  5
2908
330
18
100
AcDbEntity
  8
D
100
AcDbPoint
 10
217.1842956006615
 20
-1.580665411011395
 30
0.0
  0
POINT
  5
2909
330
18
100
AcDbEntity
  8
D
100
AcDbPoint
 10
217.0637956006614
 20
-1.460165411011393
 30
0.0
  0
DIMENSION
  5
290A
330
18
100
AcDbEntity
  8
D
100
AcDbDimension
280
     0
  2
*D23
 10
217.0637956006614
 20
-1.390165411011395
 30
0.0
 11
216.7679276861519
 21
-1.390165411011395
 31
0.0
 70
    38
 71
     5
 42
0.0
 73
     0
 74
     0
 75
     0
  3
TPS3
100
AcDbOrdinateDimension
 13
217.0637956006614
 23
-1.390165411011395
 33
0.0
 14
216.8705943528185
 24
-1.390165411011395
 34
0.0
  0
DIMENSION
  5
2913
330
18
100
AcDbEntity
  8
D
100
AcDbDimension
280
     0
  2
*D24
 10
217.0637956006614
 20
-1.390165411011395
 30
0.0
 11
217.0637956006614
 21
-1.036493671291825
 31
0.0
 70
   230
 71
     5
 42
0.0
 73
     0
 74
     0
 75
     0
  3
TPS3
100
AcDbOrdinateDimension
 13
217.0637956006614
 23
-1.390165411011395
 33
0.0
 14
217.0637956006614
 24
-1.139160337958527
 34
0.0
  0
DIMENSION
  5
291C
330
18
100
AcDbEntity
  8
D
100
AcDbDimension
280
     0
  2
*D25
 10
217.0637956006614
 20
-1.390165411011395
 30
0.0
 11
217.1842956006615
 21
-0.930224711633547
 31
0.0
 70
   102
 71
     5
 42
0.1204999999999927
 73
     0
 74
     0
 75
     0
  3
TPS3
100
AcDbOrdinateDimension
 13
217.1842956006615
 23
-1.269665411011395
 33
0.0
 14
217.1842956006615
 24
-1.029558044966915
 34
0.0
  0
DIMENSION
  5
2925
330
18
100
AcDbEntity
  8
D
100
AcDbDimension
280
     0
  2
*D26
 10
217.0637956006614
 20
-1.390165411011395
 30
0.0
 11
216.8363884382113
 21
-1.269665411011395
 31
0.0
 70
    38
 71
     5
 42
0.1204999999999998
 73
     0
 74
     0
 75
     0
  3
TPS3
100
AcDbOrdinateDimension
 13
217.1842956006615
 23
-1.269665411011395
 33
0.0
 14
216.9357217715446
 24
-1.269665411011395
 34
0.0
  0
DIMENSION
  5
2933
330
18
100
AcDbEntity
  8
D
100
AcDbDimension
280
     0
  2
*D27
 10
217.0637956006614
 20
-1.390165411011395
 30
0.0
 11
219.9657956006615
 21
-0.9826491744751699
 31
0.0
 70
   102
 71
     5
 42
2.902000000000043
 73
     0
 74
     0
 75
     0
  3
TPS3
100
AcDbOrdinateDimension
 13
219.9657956006615
 23
-1.269665411011395
 33
0.0
 14
219.9657956006615
 24
-1.095315841141871
 34
0.0
  0
DIMENSION
  5
293C
330
18
100
AcDbEntity
  8
D
100
AcDbDimension
280
     0
  2
*D28
 10
217.0637956006614
 20
-1.390165411011395
 30
0.0
 11
220.4377956006615
 21
-1.163109946671855
 31
0.0
 70
   102
 71
     5
 42
3.374000000000023
 73
     0
 74
     0
 75
     0
  3
TPS3
100
AcDbOrdinateDimension
 13
220.4377956006615
 23
-1.446665411011395
 33
0.0
 14
220.4377956006615
 24
-1.279109946671891
 34
0.0
  0
DIMENSION
  5
2945
330
18
100
AcDbEntity
  8
D
100
AcDbDimension
280
     0
  2
*D29
 10
217.0637956006614
 20
-1.390165411011395
 30
0.0
 11
220.5497742695749
 21
-1.096756560019321
 31
0.0
 70
   102
 71
     5
 42
3.417999929052825
 73
     0
 74
     0
 75
     0
  3
TPS3
100
AcDbOrdinateDimension
 13
220.4817955297143
 23
-1.452665354392647
 33
0.0
 14
220.5497742695749
 24
-1.20608989335269
 34
0.0
  0
DIMENSION
  5
2950
330
18
100
AcDbEntity
  8
D
100
AcDbDimension
280
     0
  2
*D30
 10
217.0637956006614
 20
-1.390165411011395
 30
0.0
 11
221.0596459920733
 21
-0.6708889818507177
 31
0.0
 70
   102
 71
     5
 42
4.105999929052842
 73
     0
 74
     0
 75
     0
  3
TPS3
100
AcDbOrdinateDimension
 13
221.1697955297143
 23
-1.486665354392647
 33
0.0
 14
221.0596459920733
 24
-0.7768889818507532
 34
0.0
  0
DIMENSION
  5
295B
330
18
100
AcDbEntity
  8
D
100
AcDbDimension
280
     0
  2
*D31
 10
217.0637956006614
 20
-1.390165411011395
 30
0.0
 11
221.1293035525646
 21
-0.6332056208059087
 31
0.0
 70
   102
 71
     5
 42
4.152999929052839
 73
     0
 74
     0
 75
     0
  3
TPS3
100
AcDbOrdinateDimension
 13
221.2167955297143
 23
-1.471665354392647
 33
0.0
 14
221.1293035525646
 24
-0.7425389541392775
 34
0.0
  0
DIMENSION
  5
2966
330
18
100
AcDbEntity
  8
D
100
AcDbDimension
280
     0
  2
*D32
 10
217.0637956006614
 20
-1.390165411011395
 30
0.0
 11
221.1883320147458
 21
-0.5807797032125941
 31
0.0
 70
   102
 71
     5
 42
4.192999929052831
 73
     0
 74
     0
 75
     0
  3
TPS3
100
AcDbOrdinateDimension
 13
221.2567955297143
 23
-1.437665354392646
 33
0.0
 14
221.1883320147458
 24
-0.6901130365459629
 34
0.0
  0
DIMENSION
  5
2971
330
18
100
AcDbEntity
  8
D
100
AcDbDimension
280
     0
  2
*D33
 10
217.0637956006614
 20
-1.390165411011395
 30
0.0
 11
221.4025834964501
 21
-0.5762974603387927
 31
0.0
 70
   102
 71
     5
 42
4.278999929052844
 73
     0
 74
     0
 75
     0
  3
TPS3
100
AcDbOrdinateDimension
 13
221.3427955297143
 23
-1.437665354392646
 33
0.0
 14
221.4025834964501
 24
-0.6922974603388284
 34
0.0
  0
DIMENSION
  5
297C
330
18
100
AcDbEntity
  8
D
100
AcDbDimension
280
     0
  2
*D34
 10
217.0637956006614
 20
-1.390165411011395
 30
0.0
 11
221.4900331002005
 21
-0.6026238461029527
 31
0.0
 70
   102
 71
     5
 42
4.318999929052807
 73
     0
 74
     0
 75
     0
  3
TPS3
100
AcDbOrdinateDimension
 13
221.3827955297142
 23
-1.47266535439265
 33
0.0
 14
221.4900331002005
 24
-0.7119571794363218
 34
0.0
  0
DIMENSION
  5
2987
330
18
100
AcDbEntity
  8
D
100
AcDbDimension
280
     0
  2
*D35
 10
217.0637956006614
 20
-1.390165411011395
 30
0.0
 11
221.5927863642569
 21
-0.6090636588346139
 31
0.0
 70
   102
 71
     5
 42
4.395999929052834
 73
     0
 74
     0
 75
     0
  3
TPS3
100
AcDbOrdinateDimension
 13
221.4597955297143
 23
-1.487665354392647
 33
0.0
 14
221.5927863642569
 24
-0.7250636588346496
 34
0.0
  0
DIMENSION
  5
2992
330
18
100
AcDbEntity
  8
D
100
AcDbDimension
280
     0
  2
*D36
 10
217.0637956006614
 20
-1.390165411011395
 30
0.0
 11
221.6797955297143
 21
-0.6157303255012805
 31
0.0
 70
   102
 71
     5
 42
4.615999929052833
 73
     0
 74
     0
 75
     0
  3
TPS3
100
AcDbOrdinateDimension
 13
221.6797955297143
 23
-1.377665354392647
 33
0.0
 14
221.6797955297143
 24
-0.7250636588346496
 34
0.0
  0
DIMENSION
  5
299B
330
18
100
AcDbEntity
  8
D
100
AcDbDimension
280
     0
  2
*D37
 10
217.0637956006614
 20
-1.390165411011395
 30
0.0
 11
221.7982928923697
 21
-0.6134324747409141
 31
0.0
 70
   102
 71
     5
 42
4.655999929052825
 73
     0
 74
     0
 75
     0
  3
TPS3
100
AcDbOrdinateDimension
 13
221.7197955297143
 23
-1.377665354392642
 33
0.0
 14
221.7982928923697
 24
-0.7294324747409498
 34
0.0
  0
DIMENSION
  5
29A6
330
18
100
AcDbEntity
  8
D
100
AcDbDimension
280
     0
  2
*D38
 10
217.0637956006614
 20
-1.390165411011395
 30
0.0
 11
221.9097911100176
 21
-0.6156168985337795
 31
0.0
 70
   102
 71
     5
 42
4.754137212360262
 73
     0
 74
     0
 75
     0
  3
TPS3
100
AcDbOrdinateDimension
 13
221.8179328130217
 23
-1.463807812901309
 33
0.0
 14
221.9097911100176
 24
-0.7316168985338152
 34
0.0
  0
DIMENSION
  5
29B1
330
18
100
AcDbEntity
  8
D
100
AcDbDimension
280
     0
  2
*D39
 10
217.0637956006614
 20
-1.390165411011395
 30
0.0
 11
221.9436075240644
 21
-2.131901929614688
 31
0.0
 70
   230
 71
     5
 42
4.710598002236508
 73
     0
 74
     0
 75
     0
  3
TPS3
100
AcDbOrdinateDimension
 13
221.774393602898
 23
-1.513409598976011
 33
0.0
 14
221.9436075240644
 24
-2.029235262948057
 34
0.0
  0
DIMENSION
  5
29BC
330
18
100
AcDbEntity
  8
D
100
AcDbDimension
280
     0
  2
*D40
 10
217.0637956006614
 20
-1.390165411011395
 30
0.0
 11
221.8761192507245
 21
-2.176856521828465
 31
0.0
 70
   230
 71
     5
 42
4.643999929052824
 73
     0
 74
     0
 75
     0
  3
TPS3
100
AcDbOrdinateDimension
 13
221.7077955297143
 23
-1.460665354392647
 33
0.0
 14
221.8761192507245
 24
-2.060856521828501
 34
0.0
  0
DIMENSION
  5
29C7
330
18
100
AcDbEntity
  8
D
100
AcDbDimension
280
     0
  2
*D41
 10
217.0637956006614
 20
-1.390165411011395
 30
0.0
 11
221.7802873052473
 21
-2.201963405375328
 31
0.0
 70
   102
 71
     5
 42
4.613999929052823
 73
     0
 74
     0
 75
     0
  3
TPS3
100
AcDbOrdinateDimension
 13
221.6777955297143
 23
-1.460665354392647
 33
0.0
 14
221.7802873052473
 24
-2.09263007204203
 34
0.0
  0
DIMENSION
  5
29D2
330
18
100
AcDbEntity
  8
D
100
AcDbDimension
280
     0
  2
*D42
 10
217.0637956006614
 20
-1.390165411011395
 30
0.0
 11
221.554306038217
 21
-2.18503161705404
 31
0.0
 70
   102
 71
     5
 42
4.456999929052841
 73
     0
 74
     0
 75
     0
  3
TPS3
100
AcDbOrdinateDimension
 13
221.5207955297143
 23
-1.547665354392647
 33
0.0
 14
221.554306038217
 24
-2.069031617054076
 34
0.0
  0
DIMENSION
  5
29DD
330
18
100
AcDbEntity
  8
D
100
AcDbDimension
280
     0
  2
*D43
 10
217.0637956006614
 20
-1.390165411011395
 30
0.0
 11
221.3872976088545
 21
-2.183524974782887
 31
0.0
 70
   102
 71
     5
 42
4.29399992905283
 73
     0
 74
     0
 75
     0
  3
TPS3
100
AcDbOrdinateDimension
 13
221.3577955297143
 23
-1.547665354392647
 33
0.0
 14
221.3872976088545
 24
-2.067524974782923
 34
0.0
  0
DIMENSION
  5
29E8
330
18
100
AcDbEntity
  8
D
100
AcDbDimension
280
     0
  2
*D44
 10
217.0637956006614
 20
-1.390165411011395
 30
0.0
 11
221.2834565124718
 21
-2.180191641449554
 31
0.0
 70
   102
 71
     5
 42
4.249999929052819
 73
     0
 74
     0
 75
     0
  3
TPS3
100
AcDbOrdinateDimension
 13
221.3137955297143
 23
-1.507665354392647
 33
0.0
 14
221.2834565124718
 24
-2.067524974782923
 34
0.0
  0
DIMENSION
  5
29F3
330
18
100
AcDbEntity
  8
D
100
AcDbDimension
280
     0
  2
*D45
 10
217.0637956006614
 20
-1.390165411011395
 30
0.0
 11
221.1907412684371
 21
-2.21206067103881
 31
0.0
 70
   102
 71
     5
 42
4.217999929052837
 73
     0
 74
     0
 75
     0
  3
TPS3
100
AcDbOrdinateDimension
 13
221.2817955297143
 23
-1.507665354392647
 33
0.0
 14
221.1907412684371
 24
-2.102727337705513
 34
0.0
  0
DIMENSION
  5
29FE
330
18
100
AcDbEntity
  8
D
100
AcDbDimension
280
     0
  2
*D46
 10
217.0637956006614
 20
-1.390165411011395
 30
0.0
 11
221.1295491822752
 21
-2.197238623492457
 31
0.0
 70
   102
 71
     5
 42
4.172999929052821
 73
     0
 74
     0
 75
     0
  3
TPS3
100
AcDbOrdinateDimension
 13
221.2367955297143
 23
-1.547665354392647
 33
0.0
 14
221.1295491822752
 24
-2.087905290159159
 34
0.0
  0
DIMENSION
  5
2A09
330
18
100
AcDbEntity
  8
D
100
AcDbDimension
280
     0
  2
*D47
 10
217.0637956006614
 20
-1.390165411011395
 30
0.0
 11
220.23168036958
 21
-1.861575680313888
 31
0.0
 70
   102
 71
     5
 42
3.167884768918526
 73
     0
 74
     0
 75
     0
  3
TPS3
100
AcDbOrdinateDimension
 13
220.23168036958
 23
-1.547665354392647
 33
0.0
 14
220.23168036958
 24
-1.75224234698059
 34
0.0
  0
DIMENSION
  5
2A12
330
18
100
AcDbEntity
  8
D
100
AcDbDimension
280
     0
  2
*D48
 10
217.0637956006614
 20
-1.390165411011395
 30
0.0
 11
220.5992758467439
 21
-1.693431914361386
 31
0.0
 70
   166
 71
     5
 42
0.1574999433812518
 73
     0
 74
     0
 75
     0
  3
TPS3
100
AcDbOrdinateDimension
 13
220.23168036958
 23
-1.547665354392647
 33
0.0
 14
220.4932758467439
 24
-1.693431914361386
 34
0.0
  0
DIMENSION
  5
2A1D
330
18
100
AcDbEntity
  8
D
100
AcDbDimension
280
     0
  2
*D49
 10
217.0637956006614
 20
-1.390165411011395
 30
0.0
 11
220.1147956006614
 21
-1.865653370753732
 31
0.0
 70
   102
 71
     5
 42
3.050999999999987
 73
     0
 74
     0
 75
     0
  3
TPS3
100
AcDbOrdinateDimension
 13
220.1147956006614
 23
-1.580665411011393
 33
0.0
 14
220.1147956006614
 24
-1.759653370753767
 34
0.0
  0
DIMENSION
  5
2A26
330
18
100
AcDbEntity
  8
D
100
AcDbDimension
280
     0
  2
*D50
 10
217.0637956006614
 20
-1.390165411011395
 30
0.0
 11
219.7855774768762
 21
-1.485445491146233
 31
0.0
 70
    38
 71
     5
 42
0.1904999999999983
 73
     0
 74
     0
 75
     0
  3
TPS3
100
AcDbOrdinateDimension
 13
220.1147956006614
 23
-1.580665411011393
 33
0.0
 14
219.8849108102096
 24
-1.485445491146233
 34
0.0
  0
DIMENSION
  5
2A31
330
18
100
AcDbEntity
  8
D
100
AcDbDimension
280
     0
  2
*D51
 10
217.0637956006614
 20
-1.390165411011395
 30
0.0
 11
217.1842956006615
 21
-1.883009948625137
 31
0.0
 70
   102
 71
     5
 42
0.1204999999999927
 73
     0
 74
     0
 75
     0
  3
TPS3
100
AcDbOrdinateDimension
 13
217.1842956006615
 23
-1.580665411011395
 33
0.0
 14
217.1842956006615
 24
-1.783676615291838
 34
0.0
  0
DIMENSION
  5
2A3A
330
18
100
AcDbEntity
  8
D
100
AcDbDimension
280
     0
  2
*D52
 10
217.0637956006614
 20
-1.390165411011395
 30
0.0
 11
216.9240023377803
 21
-1.580665411011395
 31
0.0
 70
    38
 71
     5
 42
0.1905000000000001
 73
     0
 74
     0
 75
     0
  3
TPS3
100
AcDbOrdinateDimension
 13
217.1842956006615
 23
-1.580665411011395
 33
0.0
 14
217.0233356711136
 24
-1.580665411011395
 34
0.0
  0
DIMENSION
  5
2A43
330
18
100
AcDbEntity
  8
D
100
AcDbDimension
280
     0
  2
*D53
 10
217.0637956006614
 20
-1.390165411011395
 30
0.0
 11
216.8256890621647
 21
-1.460165411011393
 31
0.0
 70
    38
 71
     5
 42
0.0699999999999981
 73
     0
 74
     0
 75
     0
  3
TPS3
100
AcDbOrdinateDimension
 13
217.0637956006614
 23
-1.460165411011393
 33
0.0
 14
216.9316890621647
 24
-1.460165411011393
 34
0.0
  0
DIMENSION
  5
2A4C
330
18
100
AcDbEntity
  8
D
100
AcDbDimension
280
     0
  2
*D54
 10
217.0637956006614
 20
-1.390165411011395
 30
0.0
 11
222.2037374884965
 21
-1.311231468656057
 31
0.0
 70
    38
 71
     5
 42
0.0736424018899147
 73
     0
 74
     0
 75
     0
  3
TPS3
100
AcDbOrdinateDimension
 13
221.8179328130217
 23
-1.463807812901309
 33
0.0
 14
222.0944041551632
 24
-1.311231468656057
 34
0.0
  0
DIMENSION
  5
2A57
330
18
100
AcDbEntity
  8
D
100
AcDbDimension
280
     0
  2
*D55
 10
217.0637956006614
 20
-1.390165411011395
 30
0.0
 11
222.2650975105834
 21
-1.162236193399703
 31
0.0
 70
    38
  1
<> (X2)
 71
     5
 42
0.0125000566187525
 73
     0
 74
     0
 75
     0
  3
TPS3
100
AcDbOrdinateDimension
 13
221.7197955297143
 23
-1.377665354392642
 33
0.0
 14
222.0757641772501
 24
-1.162236193399703
 34
0.0
  0
DIMENSION
  5
2A69
330
18
100
AcDbEntity
  8
D
100
AcDbDimension
280
     0
  2
*D56
 10
217.0637956006614
 20
-1.390165411011395
 30
0.0
 11
222.0544053477448
 21
-1.020091089191105
 31
0.0
 70
   166
 71
     5
 42
0.0974999433812523
 73
     0
 74
     0
 75
     0
  3
TPS3
100
AcDbOrdinateDimension
 13
221.4597955297143
 23
-1.487665354392647
 33
0.0
 14
221.9450720144115
 24
-1.020091089191105
 34
0.0
  0
DIMENSION
  5
2A7B
330
18
100
AcDbEntity
  8
D
100
AcDbDimension
280
     0
  2
*D57
 10
217.0637956006614
 20
-1.390165411011395
 30
0.0
 11
222.034836135203
 21
-0.9584995822915374
 31
0.0
 70
   166
 71
     5
 42
0.0824999433812548
 73
     0
 74
     0
 75
     0
  3
TPS3
100
AcDbOrdinateDimension
 13
221.3827955297142
 23
-1.47266535439265
 33
0.0
 14
221.9255028018697
 24
-0.9584995822915374
 34
0.0
  0
DIMENSION
  5
2AA6
330
18
100
AcDbEntity
  8
D
100
AcDbDimension
280
     0
  2
*D58
 10
217.0637956006614
 20
-1.390165411011395
 30
0.0
 11
222.016556151036
 21
-0.8827559211879005
 31
0.0
 70
    38
 71
     5
 42
0.0474999433812518
 73
     0
 74
     0
 75
     0
  3
TPS3
100
AcDbOrdinateDimension
 13
221.3427955297143
 23
-1.437665354392646
 33
0.0
 14
221.9072228177026
 24
-0.8827559211879005
 34
0.0
  0
DIMENSION
  5
2ABF
330
18
100
AcDbEntity
  8
D
100
AcDbDimension
280
     0
  2
*D59
 10
217.0637956006614
 20
-1.390165411011395
 30
0.0
 11
220.8607530829231
 21
-1.15496017154075
 31
0.0
 70
   166
 71
     5
 42
0.0814999433812522
 73
     0
 74
     0
 75
     0
  3
TPS3
100
AcDbOrdinateDimension
 13
221.2167955297143
 23
-1.471665354392647
 33
0.0
 14
220.9634197495897
 24
-1.15496017154075
 34
0.0
  0
DIMENSION
  5
2ADC
330
18
100
AcDbEntity
  8
D
100
AcDbDimension
280
     0
  2
*D60
 10
217.0637956006614
 20
-1.390165411011395
 30
0.0
 11
220.828235167422
 21
-1.260270043845011
 31
0.0
 70
    38
 71
     5
 42
0.0964999433812519
 73
     0
 74
     0
 75
     0
  3
TPS3
100
AcDbOrdinateDimension
 13
221.1697955297143
 23
-1.486665354392647
 33
0.0
 14
220.9375685007553
 24
-1.260270043845011
 34
0.0
  0
DIMENSION
  5
2AE7
330
18
100
AcDbEntity
  8
D
100
AcDbDimension
280
     0
  2
*D61
 10
217.0637956006614
 20
-1.390165411011395
 30
0.0
 11
222.1139188227013
 21
-1.686917941322477
 31
0.0
 70
    38
 71
     5
 42
0.123244187964616
 73
     0
 74
     0
 75
     0
  3
TPS3
100
AcDbOrdinateDimension
 13
221.774393602898
 23
-1.513409598976011
 33
0.0
 14
222.0079188227013
 24
-1.686917941322477
 34
0.0
  0
DIMENSION
  5
2AF2
330
18
100
AcDbEntity
  8
D
100
AcDbDimension
280
     0
  2
*D62
 10
217.0637956006614
 20
-1.390165411011395
 30
0.0
 11
222.3469903615803
 21
-1.615949163128892
 31
0.0
 70
    38
  1
<> (X2)
 71
     5
 42
0.0704999433812521
 73
     0
 74
     0
 75
     0
  3
TPS3
100
AcDbOrdinateDimension
 13
221.7077955297143
 23
-1.460665354392647
 33
0.0
 14
222.1543236949136
 24
-1.615949163128892
 34
0.0
  0
DIMENSION
  5
2B04
330
18
100
AcDbEntity
  8
D
100
AcDbDimension
280
     0
  2
*D63
 10
217.0637956006614
 20
-1.390165411011395
 30
0.0
 11
220.7764104083977
 21
-1.627399489160406
 31
0.0
 70
    38
  1
<> (X2)
 71
     5
 42
0.1174999433812518
 73
     0
 74
     0
 75
     0
  3
TPS3
100
AcDbOrdinateDimension
 13
221.2817955297143
 23
-1.507665354392647
 33
0.0
 14
220.9624104083978
 24
-1.627399489160406
 34
0.0
  0
DIMENSION
  5
2B1D
330
18
100
AcDbEntity
  8
D
100
AcDbDimension
280
     0
  2
*D64
 10
217.0637956006614
 20
-1.390165411011395
 30
0.0
 11
220.8799141055691
 21
-1.769259953641377
 31
0.0
 70
    38
  1
<>\P(X3)
 71
     5
 42
0.1574999433812527
 73
     0
 74
     0
 75
     0
  3
TPS3
100
AcDbOrdinateDimension
 13
221.2367955297143
 23
-1.547665354392647
 33
0.0
 14
220.9859141055691
 24
-1.769259953641377
 34
0.0
  0
DIMENSION
  5
2B36
330
18
100
AcDbEntity
  8
D
100
AcDbDimension
280
     0
  2
*D65
 10
217.1842956006613
 20
-1.390165411011466
 30
0.0
 11
216.9259439317925
 21
-1.119635304240944
 31
0.0
 70
   164
 71
     5
 42
0.1204999999999075
 73
     0
 74
     0
 75
     0
  3
TPS3
100
AcDbRadialDimension
 15
217.1010733214047
 25
-1.303020117189475
 35
0.0
 40
0.0
1001
ACAD
1000
DSTYLE
1002
{
1070
   288
1070
     1
1002
}
  0
DIMENSION
  5
2B3F
330
18
100
AcDbEntity
  8
D
100
AcDbDimension
280
     0
  2
*D66
 10
217.1842956006617
 20
-1.460165411011487
 30
0.0
 11
216.9396045321599
 21
-1.755687358869025
 31
0.0
 70
   164
 71
     5
 42
0.120500000000078
 73
     0
 74
     0
 75
     0
  3
TPS3
100
AcDbRadialDimension
 15
217.1074461051639
 25
-1.552979230250628
 35
0.0
 40
0.0
1001
ACAD
1000
DSTYLE
1002
{
1070
   288
1070
     1
1002
}
  0
DIMENSION
  5
2B48
330
18
100
AcDbEntity
  8
D
100
AcDbDimension
280
     0
  2
*D67
 10
219.9299898472669
 20
-2.082980753396263
 30
0.0
 11
220.2710589288875
 21
-0.9281737457476992
 31
0.0
 70
   164
 71
     5
 42
0.8141031250000452
 73
     0
 74
     0
 75
     0
  3
TPS3
100
AcDbRadialDimension
 15
220.1605857831822
 25
-1.30221868178021
 35
0.0
 40
0.0
1001
ACAD
1000
DSTYLE
1002
{
1070
   288
1070
     1
1002
}
  0
DIMENSION
  5
2B51
330
18
100
AcDbEntity
  8
D
100
AcDbDimension
280
     0
  2
*D68
 10
220.1217076716804
 20
-1.381647248011319
 30
0.0
 11
220.3280724269917
 21
-1.826289004085253
 31
0.0
 70
   164
 71
     5
 42
0.1991381578948221
 73
     0
 74
     0
 75
     0
  3
TPS3
100
AcDbRadialDimension
 15
220.2055415813778
 25
-1.562279143075812
 35
0.0
 40
0.0
1001
ACAD
1000
DSTYLE
1002
{
1070
   288
1070
     1
1002
}
  0
DIMENSION
  5
2B5A
330
18
100
AcDbEntity
  8
D
100
AcDbDimension
280
     0
  2
*D69
 10
221.7938040484414
 20
-1.486537894580855
 30
0.0
 11
221.8701062684413
 21
-1.733501596112482
 31
0.0
 70
    36
 71
     5
 42
0.0331489651923676
 73
     0
 74
     0
 75
     0
  3
TPS3
100
AcDbRadialDimension
 15
221.8035893979577
 25
-1.518209661632397
 35
0.0
 40
0.0
1001
ACAD
1000
DSTYLE
1002
{
1070
   288
1070
     1
1002
}
  0
DIMENSION
  5
2B63
330
18
100
AcDbEntity
  8
D
100
AcDbDimension
280
     0
  2
*D70
 10
221.6997955297141
 20
-1.407998687725893
 30
0.0
 11
221.5502437428902
 21
-1.091702566916438
 31
0.0
 70
   164
 71
     5
 42
0.0363333333331895
 73
     0
 74
     0
 75
     0
  3
TPS3
100
AcDbRadialDimension
 15
221.6842648586191
 25
-1.375151931928115
 35
0.0
 40
0.0
1001
ACAD
1000
DSTYLE
1002
{
1070
   288
1070
     1
1002
}
  0
DIMENSION
  5
2B6C
330
18
100
AcDbEntity
  8
D
100
AcDbDimension
280
     0
  2
*D71
 10
221.4324056763256
 20
-1.423133268455799
 30
0.0
 11
221.5301742928066
 21
-1.301390362908094
 31
0.0
 70
   164
 71
     5
 42
0.0701041666667948
 73
     0
 74
     0
 75
     0
  3
TPS3
100
AcDbRadialDimension
 15
221.3885095581075
 25
-1.477793354345152
 35
0.0
 40
0.0
1001
ACAD
1000
DSTYLE
1002
{
1070
   279
1070
     1
1070
   288
1070
     1
1002
}
  0
DIMENSION
  5
2B7A
330
18
100
AcDbEntity
  8
D
100
AcDbDimension
280
     0
  2
*D72
 10
221.2997955297144
 20
-1.483547707333825
 30
0.0
 11
221.3017087036772
 21
-1.195338370947827
 31
0.0
 70
    36
 71
     5
 42
0.0628823529411782
 73
     0
 74
     0
 75
     0
  3
TPS3
100
AcDbRadialDimension
 15
221.3002129423887
 25
-1.420666739799298
 35
0.0
 40
0.0
1001
ACAD
1000
DSTYLE
1002
{
1070
   288
1070
     1
1002
}
  0
DIMENSION
  5
2B83
330
18
100
AcDbEntity
  8
D
100
AcDbDimension
280
     0
  2
*D73
 10
221.1755547855727
 20
-1.423577689417925
 30
0.0
 11
221.1194284716634
 21
-1.239391822782451
 31
0.0
 70
   164
 71
     5
 42
0.0633500000003267
 73
     0
 74
     0
 75
     0
  3
TPS3
100
AcDbRadialDimension
 15
221.1940208745185
 25
-1.48417658428481
 35
0.0
 40
0.0
1001
ACAD
1000
DSTYLE
1002
{
1070
   279
1070
     1
1070
   288
1070
     1
1002
}
  0
DIMENSION
  5
2B8C
330
18
100
AcDbEntity
  8
D
100
AcDbDimension
280
     0
  2
*D74
 10
221.6927955297145
 20
-1.496665354392646
 30
0.0
 11
221.6088542297951
 21
-1.716942038562578
 31
0.0
 70
   164
 71
     5
 42
0.0389999999999162
 73
     0
 74
     0
 75
     0
  3
TPS3
100
AcDbRadialDimension
 15
221.7066831576589
 25
-1.460221784451292
 35
0.0
 40
0.0
1001
ACAD
1000
DSTYLE
1002
{
1070
   279
1070
     1
1070
   288
1070
     1
1002
}
  0
DIMENSION
  5
2B95
330
18
100
AcDbEntity
  8
D
100
AcDbDimension
280
     0
  2
*D75
 10
221.2977955297139
 20
-1.522451068678449
 30
0.0
 11
221.4283986376719
 21
-1.783240812852071
 31
0.0
 70
   164
 71
     5
 42
0.0217857142856133
 73
     0
 74
     0
 75
     0
  3
TPS3
100
AcDbRadialDimension
 15
221.2880402208566
 25
-1.502971559032829
 35
0.0
 40
0.0
1001
ACAD
1000
DSTYLE
1002
{
1070
   279
1070
     1
1070
   288
1070
     1
1002
}
  0
DIMENSION
  5
2B9E
330
18
100
AcDbEntity
  8
D
100
AcDbDimension
280
     0
  2
*D76
 10
218.5715032100003
 20
-1.269665411011395
 30
0.0
 11
218.5715032100003
 21
-1.042332077678026
 31
0.0
 70
    32
  1
<> REF
 71
     5
 42
0.3109999999999999
 73
     0
 74
     0
 75
     0
  3
TPS3
100
AcDbAlignedDimension
 13
218.5409133927199
 23
-1.580665411011395
 33
0.0
 14
218.5409133927199
 24
-1.269665411011395
 34
0.0
 50
90.0
100
AcDbRotatedDimension
  0
DIMENSION
  5
2BB6
330
18
100
AcDbEntity
  8
D
100
AcDbDimension
280
     0
  2
*D77
 10
217.0637956006614
 20
-2.38544153739911
 30
0.0
 11
219.4453743071477
 21
-2.38544153739911
 31
0.0
 70
    32
  1
<> REF
 71
     5
 42
4.763157412972589
 73
     0
 74
     0
 75
     0
  3
TPS3
100
AcDbAlignedDimension
 13
221.826953013634
 23
-1.486537894580927
 33
0.0
 14
217.0637956006614
 24
-1.460165411011395
 34
0.0
100
AcDbRotatedDimension
  0
MTEXT
  5
2BF4
330
18
100
AcDbEntity
  8
TITLE BLOCK TEXT
100
AcDbMText
 10
220.3431312761054
 20
-3.489393816339566
 30
0.0
 40
0.048
 41
0.0
 46
0.0
 71
     4
 72
     1
  1
MOCK UP QTY: 30\PPROD QTY: 2500
  7
Roman
 73
     1
 44
1.0
  0
MTEXT
  5
2BF5
330
18
100
AcDbEntity
  8
TITLE BLOCK TEXT
100
AcDbMText
 10
220.3496846080446
 20
-3.746666059204761
 30
0.0
 40
0.036
 41
0.0
 46
0.0
 71
     4
 72
     1
  1
MATL: 1095 STEEL\PMATL CERTS REQUIRED\PFINISH: DEBUR, TUMBLE
  7
Roman
 73
     1
 44
1.0
  0
MTEXT
  5
2BF6
330
18
100
AcDbEntity
  8
TITLE BLOCK TEXT
100
AcDbMText
 10
221.3459265286971
 20
-3.342274995093253
 30
0.0
 40
0.036
 41
0.0
 46
0.0
 71
     4
 72
     1
  1
NOTES:\P-CAD FILES AVAILABLE WITH ORDER.\P-ACAD 2000 DWG OR ACAD DXF PROVIDED.\P-CAD FILE IN MAIN VIEW IS DRAWN 1:1.\P-BORDER IS SCALED TO PRINT.\P-LAYED TO CUT IS CALLED "PICK"
  7
Roman
 73
     1
 44
1.0
  0
ENDSEC
  0
SECTION
  2
OBJECTS
  0
DICTIONARY
  5
C
330
0
100
AcDbDictionary
281
     1
  3
ACAD_COLOR
350
2C2E
  3
ACAD_GROUP
350
D
  3
ACAD_LAYOUT
350
107
  3
ACAD_MATERIAL
350
2C01
  3
ACAD_MLEADERSTYLE
350
2C53
  3
ACAD_MLINESTYLE
350
E
  3
ACAD_PLOTSETTINGS
350
108
  3
ACAD_PLOTSTYLENAME
350
105
  3
ACAD_SCALELIST
350
2C31
  3
ACAD_TABLESTYLE
350
2C2F
  3
ACAD_VISUALSTYLE
350
2C1A
  3
AcadDim
350
2A8
  3
ACDB_RECOMPOSE_DATA
350
2C85
  3
AcDbVariableDictionary
350
2C7B
  3
ASE_INDEX_DICTIONARY
350
29C
  0
DICTIONARY
  5
2C5C
330
F
100
AcDbDictionary
280
     1
281
     1
  3
ADSK_XREC_LAYER_RECONCILED
360
2C5D
  0
DICTIONARY
  5
2C5E
330
24
100
AcDbDictionary
280
     1
281
     1
  3
ADSK_XREC_LAYER_RECONCILED
360
2C5F
  0
DICTIONARY
  5
2C60
330
25
100
AcDbDictionary
280
     1
281
     1
  3
ADSK_XREC_LAYER_RECONCILED
360
2C61
  0
DICTIONARY
  5
2C62
330
26
100
AcDbDictionary
280
     1
281
     1
  3
ADSK_XREC_LAYER_RECONCILED
360
2C63
  0
DICTIONARY
  5
2C64
330
27
100
AcDbDictionary
280
     1
281
     1
  3
ADSK_XREC_LAYER_RECONCILED
360
2C65
  0
DICTIONARY
  5
2C66
330
28
100
AcDbDictionary
280
     1
281
     1
  3
ADSK_XREC_LAYER_RECONCILED
360
2C67
  0
DICTIONARY
  5
2C68
330
2A
100
AcDbDictionary
280
     1
281
     1
  3
ADSK_XREC_LAYER_RECONCILED
360
2C69
  0
DICTIONARY
  5
2C6A
330
371
100
AcDbDictionary
280
     1
281
     1
  3
ADSK_XREC_LAYER_RECONCILED
360
2C6B
  0
DICTIONARY
  5
2C6C
330
372
100
AcDbDictionary
280
     1
281
     1
  3
ADSK_XREC_LAYER_RECONCILED
360
2C6D
  0
DICTIONARY
  5
2C6E
330
373
100
AcDbDictionary
280
     1
281
     1
  3
ADSK_XREC_LAYER_RECONCILED
360
2C6F
  0
DICTIONARY
  5
2C70
330
374
100
AcDbDictionary
280
     1
281
     1
  3
ADSK_XREC_LAYER_RECONCILED
360
2C71
  0
DICTIONARY
  5
2C72
330
496
100
AcDbDictionary
280
     1
281
     1
  3
ADSK_XREC_LAYER_RECONCILED
360
2C73
  0
DICTIONARY
  5
2C74
330
4F0
100
AcDbDictionary
280
     1
281
     1
  3
ADSK_XREC_LAYER_RECONCILED
360
2C75
  0
DICTIONARY
  5
2C76
330
504
100
AcDbDictionary
280
     1
281
     1
  3
ADSK_XREC_LAYER_RECONCILED
360
2C77
  0
DICTIONARY
  5
AF8
330
AF7
100
AcDbDictionary
280
     1
281
     1
  3
ADSK_XREC_LAYER_RECONCILED
360
2C78
  0
DICTIONARY
  5
2C79
330
1197
100
AcDbDictionary
280
     1
281
     1
  3
ADSK_XREC_LAYER_RECONCILED
360
2C7A
  0
DICTIONARY
  5
9AD
330
9A4
100
AcDbDictionary
280
     1
281
     1
  3
ACAD_SORTENTS
360
9AE
  0
DICTIONARY
  5
AA9
330
AA8
100
AcDbDictionary
280
     1
281
     1
  0
DICTIONARY
  5
AAB
330
AAA
100
AcDbDictionary
280
     1
281
     1
  0
DICTIONARY
  5
AAD
330
AAC
100
AcDbDictionary
280
     1
281
     1
  0
DICTIONARY
  5
AAF
330
AAE
100
AcDbDictionary
280
     1
281
     1
  0
DICTIONARY
  5
AB1
330
AB0
100
AcDbDictionary
280
     1
281
     1
  0
DICTIONARY
  5
AB3
330
AB2
100
AcDbDictionary
280
     1
281
     1
  0
DICTIONARY
  5
AB5
330
AB4
100
AcDbDictionary
280
     1
281
     1
  0
DICTIONARY
  5
AB7
330
AB6
100
AcDbDictionary
280
     1
281
     1
  0
DICTIONARY
  5
AB9
330
AB8
100
AcDbDictionary
280
     1
281
     1
  0
DICTIONARY
  5
ABB
330
ABA
100
AcDbDictionary
280
     1
281
     1
  0
DICTIONARY
  5
ABD
330
ABC
100
AcDbDictionary
280
     1
281
     1
  0
DICTIONARY
  5
ABF
330
ABE
100
AcDbDictionary
280
     1
281
     1
  0
DICTIONARY
  5
ACE
330
ACD
100
AcDbDictionary
280
     1
281
     1
  0
DICTIONARY
  5
AD0
330
ACF
100
AcDbDictionary
280
     1
281
     1
  0
DICTIONARY
  5
AD2
330
AD1
100
AcDbDictionary
280
     1
281
     1
  0
DICTIONARY
  5
AD4
330
AD3
100
AcDbDictionary
280
     1
281
     1
  0
DICTIONARY
  5
AD6
330
AD5
100
AcDbDictionary
280
     1
281
     1
  0
DICTIONARY
  5
2C2E
102
{ACAD_REACTORS
330
C
102
}
330
C
100
AcDbDictionary
281
     1
  0
DICTIONARY
  5
D
102
{ACAD_REACTORS
330
C
102
}
330
C
100
AcDbDictionary
281
     1
  0
DICTIONARY
  5
107
102
{ACAD_REACTORS
330
C
102
}
330
C
100
AcDbDictionary
281
     1
  3
Layout1
350
10A
  3
Model
350
109
  0
DICTIONARY
  5
2C01
102
{ACAD_REACTORS
330
C
102
}
330
C
100
AcDbDictionary
281
     1
  3
ByBlock
350
2C0A
  3
ByLayer
350
2C02
  3
Global
350
2C12
  0
DICTIONARY
  5
2C53
102
{ACAD_REACTORS
330
C
102
}
330
C
100
AcDbDictionary
281
     1
  3
Standard
350
2C54
  0
DICTIONARY
  5
E
102
{ACAD_REACTORS
330
C
102
}
330
C
100
AcDbDictionary
281
     1
  3
STANDARD
350
1B
  0
DICTIONARY
  5
108
102
{ACAD_REACTORS
330
C
102
}
330
C
100
AcDbDictionary
281
     1
  3
hp-a-fit
350
11C
  3
hp-B-1-1
350
11B
  0
ACDBDICTIONARYWDFLT
  5
105
102
{ACAD_REACTORS
330
C
102
}
330
C
100
AcDbDictionary
281
     1
  3
Normal
350
106
100
AcDbDictionaryWithDefault
340
106
  0
DICTIONARY
  5
2C31
102
{ACAD_REACTORS
330
C
102
}
330
C
100
AcDbDictionary
281
     1
  3
A0
350
2C32
  3
A1
350
2C33
  3
A2
350
2C34
  3
A3
350
2C35
  3
A4
350
2C36
  3
A5
350
2C37
  3
A6
350
2C38
  3
A7
350
2C39
  3
A8
350
2C3A
  3
A9
350
2C3B
  3
B0
350
2C3C
  3
B1
350
2C3D
  3
B2
350
2C3E
  3
B3
350
2C3F
  3
B4
350
2C40
  3
B5
350
2C41
  3
B6
350
2C42
  3
B7
350
2C43
  3
B8
350
2C44
  3
B9
350
2C45
  3
C0
350
2C46
  3
C1
350
2C47
  3
C2
350
2C48
  3
C3
350
2C49
  3
C4
350
2C4A
  3
C5
350
2C4B
  3
C6
350
2C4C
  3
C7
350
2C4D
  3
C8
350
2C4E
  3
C9
350
2C4F
  3
D0
350
2C50
  3
D1
350
2C51
  3
D2
350
2C52
  0
DICTIONARY
  5
2C2F
102
{ACAD_REACTORS
330
C
102
}
330
C
100
AcDbDictionary
281
     1
  3
Standard
350
2C30
  0
DICTIONARY
  5
2C1A
102
{ACAD_REACTORS
330
C
102
}
330
C
100
AcDbDictionary
281
     1
  3
2dWireframe
350
2C20
  3
3D Hidden
350
2C22
  3
3dWireframe
350
2C21
  3
Basic
350
2C1F
  3
Brighten
350
2C26
  3
ColorChange
350
2C2A
  3
Conceptual
350
2C23
  3
Dim
350
2C25
  3
EdgeColorOff
350
2C2D
  3
Facepattern
350
2C29
  3
Flat
350
2C1B
  3
FlatWithEdges
350
2C1C
  3
Gouraud
350
2C1D
  3
GouraudWithEdges
350
2C1E
  3
JitterOff
350
2C2B
  3
Linepattern
350
2C28
  3
OverhangOff
350
2C2C
  3
Realistic
350
2C24
  3
Thicken
350
2C27
  0
XRECORD
  5
2A8
102
{ACAD_REACTORS
330
C
102
}
330
C
100
AcDbXrecord
280
     1
 90
   990106
  3

 60
     0
 61
     0
 62
     2
 63
     2
 64
     0
 65
     0
 66
     0
 67
     3
 68
     0
 69
     0
 70
     0
 71
     0
 72
     0
 40
0.0
170
     2
340
1240
  0
XRECORD
  5
2C85
102
{ACAD_REACTORS
330
C
102
}
330
C
100
AcDbXrecord
280
     1
 90
        1
330
2C30
  0
DICTIONARY
  5
2C7B
102
{ACAD_REACTORS
330
C
102
}
330
C
100
AcDbDictionary
281
     1
  3
CANNOSCALE
350
2C7F
  3
CMLEADERSTYLE
350
2C7D
  3
CTABLESTYLE
350
2C7C
  3
LAYEREVAL
350
2C81
  3
LAYERNOTIFY
350
2C82
  3
LIGHTINGUNITS
350
2C80
  3
MSLTSCALE
350
2C7E
  0
DICTIONARY
  5
29C
102
{ACAD_REACTORS
330
C
102
}
330
C
100
AcDbDictionary
281
     1
  3
ASEBlockHierarchyIndexRecord
350
29E
1001
DCO15
1040
1663581020.26
  0
XRECORD
  5
2C5D
102
{ACAD_REACTORS
330
2C5C
102
}
330
2C5C
100
AcDbXrecord
280
     1
290
     1
  0
XRECORD
  5
2C5F
102
{ACAD_REACTORS
330
2C5E
102
}
330
2C5E
100
AcDbXrecord
280
     1
290
     1
  0
XRECORD
  5
2C61
102
{ACAD_REACTORS
330
2C60
102
}
330
2C60
100
AcDbXrecord
280
     1
290
     1
  0
XRECORD
  5
2C63
102
{ACAD_REACTORS
330
2C62
102
}
330
2C62
100
AcDbXrecord
280
     1
290
     1
  0
XRECORD
  5
2C65
102
{ACAD_REACTORS
330
2C64
102
}
330
2C64
100
AcDbXrecord
280
     1
290
     1
  0
XRECORD
  5
2C67
102
{ACAD_REACTORS
330
2C66
102
}
330
2C66
100
AcDbXrecord
280
     1
290
     1
  0
XRECORD
  5
2C69
102
{ACAD_REACTORS
330
2C68
102
}
330
2C68
100
AcDbXrecord
280
     1
290
     1
  0
XRECORD
  5
2C6B
102
{ACAD_REACTORS
330
2C6A
102
}
330
2C6A
100
AcDbXrecord
280
     1
290
     1
  0
XRECORD
  5
2C6D
102
{ACAD_REACTORS
330
2C6C
102
}
330
2C6C
100
AcDbXrecord
280
     1
290
     1
  0
XRECORD
  5
2C6F
102
{ACAD_REACTORS
330
2C6E
102
}
330
2C6E
100
AcDbXrecord
280
     1
290
     1
  0
XRECORD
  5
2C71
102
{ACAD_REACTORS
330
2C70
102
}
330
2C70
100
AcDbXrecord
280
     1
290
     1
  0
XRECORD
  5
2C73
102
{ACAD_REACTORS
330
2C72
102
}
330
2C72
100
AcDbXrecord
280
     1
290
     1
  0
XRECORD
  5
2C75
102
{ACAD_REACTORS
330
2C74
102
}
330
2C74
100
AcDbXrecord
280
     1
290
     1
  0
XRECORD
  5
2C77
102
{ACAD_REACTORS
330
2C76
102
}
330
2C76
100
AcDbXrecord
280
     1
290
     1
  0
XRECORD
  5
2C78
102
{ACAD_REACTORS
330
AF8
102
}
330
AF8
100
AcDbXrecord
280
     1
290
     1
  0
XRECORD
  5
2C7A
102
{ACAD_REACTORS
330
2C79
102
}
330
2C79
100
AcDbXrecord
280
     1
290
     1
  0
SORTENTSTABLE
  5
9AE
102
{ACAD_REACTORS
330
9AD
102
}
330
9AD
100
AcDbSortentsTable
330
9A4
  0
LAYOUT
  5
10A
102
{ACAD_REACTORS
330
107
102
}
330
107
100
AcDbPlotSettings
  1

  2
C:\PROGRAM FILES\ACAD2000\plotters\HP-5000PLT.pc3
  4

  6

 40
0.0
 41
0.0
 42
0.0
 43
0.0
 44
0.0
 45
0.0
 46
0.0
 47
0.0
 48
0.0
 49
0.0
140
0.0
141
0.0
142
1.0
143
1.0
 70
   688
 72
     0
 73
     0
 74
     5
  7
tps-s1_BLACK.ctb
 75
    16
147
1.0
 76
     0
 77
     2
 78
   300
148
0.0
149
0.0
100
AcDbLayout
  1
Layout1
 70
     0
 71
     1
 10
0.0
 20
0.0
 11
12.0
 21
9.0
 12
0.0
 22
0.0
 32
0.0
 14
1.000000000000000E+20
 24
1.000000000000000E+20
 34
1.000000000000000E+20
 15
-1.000000000000000E+20
 25
-1.000000000000000E+20
 35
-1.000000000000000E+20
146
0.0
 13
0.0
 23
0.0
 33
0.0
 16
1.0
 26
0.0
 36
0.0
 17
0.0
 27
1.0
 37
0.0
 76
     0
330
15
  0
LAYOUT
  5
109
102
{ACAD_REACTORS
330
107
102
}
330
107
100
AcDbPlotSettings
  1

  2
EPSON Stylus Photo 1400 Series
  4
User262
  6
BORDER
 40
3.757083177566528
 41
3.757076978683471
 42
3.757080078125
 43
3.757080078125
 44
279.3999938964844
 45
431.7999877929687
 46
12.192
 47
15.24
 48
0.0
 49
0.0
140
0.0
141
0.0
142
1.0
143
0.5
 70
 11940
 72
     0
 73
     1
 74
     3
  7
tps-s1_BLACK.ctb
 75
     0
147
2.0
 76
     0
 77
     2
 78
   300
148
-5463.97467542001
149
106.5340460636664
100
AcDbLayout
  1
Model
 70
     1
 71
     0
 10
0.0
 20
0.0
 11
12.0
 21
9.0
 12
0.0
 22
0.0
 32
0.0
 14
0.0
 24
0.0
 34
0.0
 15
0.0
 25
0.0
 35
0.0
146
0.0
 13
0.0
 23
0.0
 33
0.0
 16
1.0
 26
0.0
 36
0.0
 17
0.0
 27
1.0
 37
0.0
 76
     0
330
18
331
2BFF
  0
MATERIAL
  5
2C0A
102
{ACAD_XDICTIONARY
360
2C0B
102
}
102
{ACAD_REACTORS
330
2C01
102
}
330
2C01
100
AcDbMaterial
  1
ByBlock
 72
     0
 43
0.0208333333333333
 43
0.0
 43
0.0
 43
0.0
 43
0.0
 43
0.0208333333333333
 43
0.0
 43
0.0
 43
0.0
 43
0.0
 43
1.0
 43
0.0
 43
0.0
 43
0.0
 43
0.0
 43
1.0
 77
     0
 47
0.0208333333333333
 47
0.0
 47
0.0
 47
0.0
 47
0.0
 47
0.0208333333333333
 47
0.0
 47
0.0
 47
0.0
 47
0.0
 47
1.0
 47
0.0
 47
0.0
 47
0.0
 47
0.0
 47
1.0
171
     0
 49
0.0208333333333333
 49
0.0
 49
0.0
 49
0.0
 49
0.0
 49
0.0208333333333333
 49
0.0
 49
0.0
 49
0.0
 49
0.0
 49
1.0
 49
0.0
 49
0.0
 49
0.0
 49
0.0
 49
1.0
175
     0
142
0.0208333333333333
142
0.0
142
0.0
142
0.0
142
0.0
142
0.0208333333333333
142
0.0
142
0.0
142
0.0
142
0.0
142
1.0
142
0.0
142
0.0
142
0.0
142
0.0
142
1.0
179
     0
144
0.0208333333333333
144
0.0
144
0.0
144
0.0
144
0.0
144
0.0208333333333333
144
0.0
144
0.0
144
0.0
144
0.0
144
1.0
144
0.0
144
0.0
144
0.0
144
0.0
144
1.0
147
0.0208333333333333
147
0.0
147
0.0
147
0.0
147
0.0
147
0.0208333333333333
147
0.0
147
0.0
147
0.0
147
0.0
147
1.0
147
0.0
147
0.0
147
0.0
147
0.0
147
1.0
  0
MATERIAL
  5
2C02
102
{ACAD_XDICTIONARY
360
2C03
102
}
102
{ACAD_REACTORS
330
2C01
102
}
330
2C01
100
AcDbMaterial
  1
ByLayer
 72
     0
 43
0.0208333333333333
 43
0.0
 43
0.0
 43
0.0
 43
0.0
 43
0.0208333333333333
 43
0.0
 43
0.0
 43
0.0
 43
0.0
 43
1.0
 43
0.0
 43
0.0
 43
0.0
 43
0.0
 43
1.0
 77
     0
 47
0.0208333333333333
 47
0.0
 47
0.0
 47
0.0
 47
0.0
 47
0.0208333333333333
 47
0.0
 47
0.0
 47
0.0
 47
0.0
 47
1.0
 47
0.0
 47
0.0
 47
0.0
 47
0.0
 47
1.0
171
     0
 49
0.0208333333333333
 49
0.0
 49
0.0
 49
0.0
 49
0.0
 49
0.0208333333333333
 49
0.0
 49
0.0
 49
0.0
 49
0.0
 49
1.0
 49
0.0
 49
0.0
 49
0.0
 49
0.0
 49
1.0
175
     0
142
0.0208333333333333
142
0.0
142
0.0
142
0.0
142
0.0
142
0.0208333333333333
142
0.0
142
0.0
142
0.0
142
0.0
142
1.0
142
0.0
142
0.0
142
0.0
142
0.0
142
1.0
179
     0
144
0.0208333333333333
144
0.0
144
0.0
144
0.0
144
0.0
144
0.0208333333333333
144
0.0
144
0.0
144
0.0
144
0.0
144
1.0
144
0.0
144
0.0
144
0.0
144
0.0
144
1.0
147
0.0208333333333333
147
0.0
147
0.0
147
0.0
147
0.0
147
0.0208333333333333
147
0.0
147
0.0
147
0.0
147
0.0
147
1.0
147
0.0
147
0.0
147
0.0
147
0.0
147
1.0
  0
MATERIAL
  5
2C12
102
{ACAD_XDICTIONARY
360
2C13
102
}
102
{ACAD_REACTORS
330
2C01
102
}
330
2C01
100
AcDbMaterial
  1
Global
 72
     0
 43
0.0208333333333333
 43
0.0
 43
0.0
 43
0.0
 43
0.0
 43
0.0208333333333333
 43
0.0
 43
0.0
 43
0.0
 43
0.0
 43
1.0
 43
0.0
 43
0.0
 43
0.0
 43
0.0
 43
1.0
 77
     0
 47
0.0208333333333333
 47
0.0
 47
0.0
 47
0.0
 47
0.0
 47
0.0208333333333333
 47
0.0
 47
0.0
 47
0.0
 47
0.0
 47
1.0
 47
0.0
 47
0.0
 47
0.0
 47
0.0
 47
1.0
171
     0
 49
0.0208333333333333
 49
0.0
 49
0.0
 49
0.0
 49
0.0
 49
0.0208333333333333
 49
0.0
 49
0.0
 49
0.0
 49
0.0
 49
1.0
 49
0.0
 49
0.0
 49
0.0
 49
0.0
 49
1.0
175
     0
142
0.0208333333333333
142
0.0
142
0.0
142
0.0
142
0.0
142
0.0208333333333333
142
0.0
142
0.0
142
0.0
142
0.0
142
1.0
142
0.0
142
0.0
142
0.0
142
0.0
142
1.0
179
     0
144
0.0208333333333333
144
0.0
144
0.0
144
0.0
144
0.0
144
0.0208333333333333
144
0.0
144
0.0
144
0.0
144
0.0
144
1.0
144
0.0
144
0.0
144
0.0
144
0.0
144
1.0
147
0.0208333333333333
147
0.0
147
0.0
147
0.0
147
0.0
147
0.0208333333333333
147
0.0
147
0.0
147
0.0
147
0.0
147
1.0
147
0.0
147
0.0
147
0.0
147
0.0
147
1.0
  0
MLEADERSTYLE
  5
2C54
102
{ACAD_REACTORS
330
2C53
102
}
330
2C53
100
AcDbMLeaderStyle
179
     2
170
     2
171
     1
172
     0
 90
        2
 40
0.0
 41
0.0
173
     1
 91
-1056964608
340
12
 92
       -2
290
     1
 42
0.09
291
     1
 43
0.36
  3
Standard
 44
0.18
300

342
10
174
     1
178
     6
175
     1
176
     0
 93
-1056964608
 45
0.18
292
     0
297
     0
 46
0.18
 94
-1056964608
 47
1.0
 49
1.0
140
1.0
293
     1
141
0.0
294
     1
177
     0
142
1.0
295
     1
296
     0
143
0.125
271
     0
272
     9
273
     9
  0
MLINESTYLE
  5
1B
102
{ACAD_REACTORS
330
E
102
}
330
E
100
AcDbMlineStyle
  2
STANDARD
 70
     0
  3

 62
     0
 51
90.0
 52
90.0
 71
     2
 49
0.5
 62
   256
  6
BYLAYER
 49
-0.5
 62
   256
  6
BYLAYER
  0
PLOTSETTINGS
  5
11C
102
{ACAD_REACTORS
330
108
102
}
330
108
100
AcDbPlotSettings
  1
hp-a-fit
  2
HP-5000PLT.pc3
  4
ANSI_A_(8.50_x_11.00_Inches)
  6
BORDER
 40
5.027082920074462
 41
5.027082920074462
 42
9.345077514648437
 43
5.11175537109375
 44
215.8999938964844
 45
279.3999938964844
 46
0.0
 47
0.0
 48
0.0
 49
0.0
140
0.0
141
0.0
142
1.0
143
1.509315367403764
 70
  1712
 72
     0
 73
     1
 74
     3
  7
tps-s1.ctb
 75
     0
147
0.6625520561154433
 76
     0
 77
     2
 78
   300
148
-12.7
149
-19.05
  0
PLOTSETTINGS
  5
11B
102
{ACAD_REACTORS
330
108
102
}
330
108
100
AcDbPlotSettings
  1
hp-B-1-1
  2
HP-5000PLT.pc3
  4
ANSI_B_(11.00_x_17.00_Inches)
  6
BORDER
 40
5.027082920074462
 41
5.027082920074462
 42
9.26043701171875
 43
5.027069091796875
 44
279.3999938964844
 45
431.7999877929687
 46
0.0
 47
0.0
 48
0.0
 49
0.0
140
0.0
141
0.0
142
1.0
143
1.0
 70
  1712
 72
     0
 73
     1
 74
     3
  7
tps-s1.ctb
 75
    16
147
1.0
 76
     0
 77
     2
 78
   300
148
-12.7
149
-19.05
  0
ACDBPLACEHOLDER
  5
106
102
{ACAD_REACTORS
330
105
102
}
330
105
  0
SCALE
  5
2C32
102
{ACAD_REACTORS
330
2C31
102
}
330
2C31
100
AcDbScale
 70
     0
300
1:1
140
1.0
141
1.0
290
     1
  0
SCALE
  5
2C33
102
{ACAD_REACTORS
330
2C31
102
}
330
2C31
100
AcDbScale
 70
     0
300
1:2
140
1.0
141
2.0
290
     0
  0
SCALE
  5
2C34
102
{ACAD_REACTORS
330
2C31
102
}
330
2C31
100
AcDbScale
 70
     0
300
1:4
140
1.0
141
4.0
290
     0
  0
SCALE
  5
2C35
102
{ACAD_REACTORS
330
2C31
102
}
330
2C31
100
AcDbScale
 70
     0
300
1:5
140
1.0
141
5.0
290
     0
  0
SCALE
  5
2C36
102
{ACAD_REACTORS
330
2C31
102
}
330
2C31
100
AcDbScale
 70
     0
300
1:8
140
1.0
141
8.0
290
     0
  0
SCALE
  5
2C37
102
{ACAD_REACTORS
330
2C31
102
}
330
2C31
100
AcDbScale
 70
     0
300
1:10
140
1.0
141
10.0
290
     0
  0
SCALE
  5
2C38
102
{ACAD_REACTORS
330
2C31
102
}
330
2C31
100
AcDbScale
 70
     0
300
1:16
140
1.0
141
16.0
290
     0
  0
SCALE
  5
2C39
102
{ACAD_REACTORS
330
2C31
102
}
330
2C31
100
AcDbScale
 70
     0
300
1:20
140
1.0
141
20.0
290
     0
  0
SCALE
  5
2C3A
102
{ACAD_REACTORS
330
2C31
102
}
330
2C31
100
AcDbScale
 70
     0
300
1:30
140
1.0
141
30.0
290
     0
  0
SCALE
  5
2C3B
102
{ACAD_REACTORS
330
2C31
102
}
330
2C31
100
AcDbScale
 70
     0
300
1:40
140
1.0
141
40.0
290
     0
  0
SCALE
  5
2C3C
102
{ACAD_REACTORS
330
2C31
102
}
330
2C31
100
AcDbScale
 70
     0
300
1:50
140
1.0
141
50.0
290
     0
  0
SCALE
  5
2C3D
102
{ACAD_REACTORS
330
2C31
102
}
330
2C31
100
AcDbScale
 70
     0
300
1:100
140
1.0
141
100.0
290
     0
  0
SCALE
  5
2C3E
102
{ACAD_REACTORS
330
2C31
102
}
330
2C31
100
AcDbScale
 70
     0
300
2:1
140
2.0
141
1.0
290
     0
  0
SCALE
  5
2C3F
102
{ACAD_REACTORS
330
2C31
102
}
330
2C31
100
AcDbScale
 70
     0
300
4:1
140
4.0
141
1.0
290
     0
  0
SCALE
  5
2C40
102
{ACAD_REACTORS
330
2C31
102
}
330
2C31
100
AcDbScale
 70
     0
300
8:1
140
8.0
141
1.0
290
     0
  0
SCALE
  5
2C41
102
{ACAD_REACTORS
330
2C31
102
}
330
2C31
100
AcDbScale
 70
     0
300
10:1
140
10.0
141
1.0
290
     0
  0
SCALE
  5
2C42
102
{ACAD_REACTORS
330
2C31
102
}
330
2C31
100
AcDbScale
 70
     0
300
100:1
140
100.0
141
1.0
290
     0
  0
SCALE
  5
2C43
102
{ACAD_REACTORS
330
2C31
102
}
330
2C31
100
AcDbScale
 70
     0
300
1/128" = 1'-0"
140
0.0078125
141
12.0
290
     0
  0
SCALE
  5
2C44
102
{ACAD_REACTORS
330
2C31
102
}
330
2C31
100
AcDbScale
 70
     0
300
1/64" = 1'-0"
140
0.015625
141
12.0
290
     0
  0
SCALE
  5
2C45
102
{ACAD_REACTORS
330
2C31
102
}
330
2C31
100
AcDbScale
 70
     0
300
1/32" = 1'-0"
140
0.03125
141
12.0
290
     0
  0
SCALE
  5
2C46
102
{ACAD_REACTORS
330
2C31
102
}
330
2C31
100
AcDbScale
 70
     0
300
1/16" = 1'-0"
140
0.0625
141
12.0
290
     0
  0
SCALE
  5
2C47
102
{ACAD_REACTORS
330
2C31
102
}
330
2C31
100
AcDbScale
 70
     0
300
3/32" = 1'-0"
140
0.09375
141
12.0
290
     0
  0
SCALE
  5
2C48
102
{ACAD_REACTORS
330
2C31
102
}
330
2C31
100
AcDbScale
 70
     0
300
1/8" = 1'-0"
140
0.125
141
12.0
290
     0
  0
SCALE
  5
2C49
102
{ACAD_REACTORS
330
2C31
102
}
330
2C31
100
AcDbScale
 70
     0
300
3/16" = 1'-0"
140
0.1875
141
12.0
290
     0
  0
SCALE
  5
2C4A
102
{ACAD_REACTORS
330
2C31
102
}
330
2C31
100
AcDbScale
 70
     0
300
1/4" = 1'-0"
140
0.25
141
12.0
290
     0
  0
SCALE
  5
2C4B
102
{ACAD_REACTORS
330
2C31
102
}
330
2C31
100
AcDbScale
 70
     0
300
3/8" = 1'-0"
140
0.375
141
12.0
290
     0
  0
SCALE
  5
2C4C
102
{ACAD_REACTORS
330
2C31
102
}
330
2C31
100
AcDbScale
 70
     0
300
1/2" = 1'-0"
140
0.5
141
12.0
290
     0
  0
SCALE
  5
2C4D
102
{ACAD_REACTORS
330
2C31
102
}
330
2C31
100
AcDbScale
 70
     0
300
3/4" = 1'-0"
140
0.75
141
12.0
290
     0
  0
SCALE
  5
2C4E
102
{ACAD_REACTORS
330
2C31
102
}
330
2C31
100
AcDbScale
 70
     0
300
1" = 1'-0"
140
1.0
141
12.0
290
     0
  0
SCALE
  5
2C4F
102
{ACAD_REACTORS
330
2C31
102
}
330
2C31
100
AcDbScale
 70
     0
300
1-1/2" = 1'-0"
140
1.5
141
12.0
290
     0
  0
SCALE
  5
2C50
102
{ACAD_REACTORS
330
2C31
102
}
330
2C31
100
AcDbScale
 70
     0
300
3" = 1'-0"
140
3.0
141
12.0
290
     0
  0
SCALE
  5
2C51
102
{ACAD_REACTORS
330
2C31
102
}
330
2C31
100
AcDbScale
 70
     0
300
6" = 1'-0"
140
6.0
141
12.0
290
     0
  0
SCALE
  5
2C52
102
{ACAD_REACTORS
330
2C31
102
}
330
2C31
100
AcDbScale
 70
     0
300
1'-0" = 1'-0"
140
12.0
141
12.0
290
     0
  0
TABLESTYLE
  5
2C30
102
{ACAD_XDICTIONARY
360
2C83
102
}
102
{ACAD_REACTORS
330
2C2F
102
}
330
2C2F
100
AcDbTableStyle
280
     0
  3
Standard
 70
     0
 71
     0
 40
0.06
 41
0.06
280
     0
281
     0
  7
STANDARD
140
0.18
170
     2
 62
     0
 63
     7
283
     0
 90
      512
 91
        0
  1

274
    -2
284
     1
 64
     0
275
    -2
285
     1
 65
     0
276
    -2
286
     1
 66
     0
277
    -2
287
     1
 67
     0
278
    -2
288
     1
 68
     0
279
    -2
289
     1
 69
     0
  7
STANDARD
140
0.25
170
     5
 62
     0
 63
     7
283
     0
 90
      512
 91
        0
  1

274
    -2
284
     1
 64
     0
275
    -2
285
     1
 65
     0
276
    -2
286
     1
 66
     0
277
    -2
287
     1
 67
     0
278
    -2
288
     1
 68
     0
279
    -2
289
     1
 69
     0
  7
STANDARD
140
0.18
170
     5
 62
     0
 63
     7
283
     0
 90
      512
 91
        0
  1

274
    -2
284
     1
 64
     0
275
    -2
285
     1
 65
     0
276
    -2
286
     1
 66
     0
277
    -2
287
     1
 67
     0
278
    -2
288
     1
 68
     0
279
    -2
289
     1
 69
     0
  0
VISUALSTYLE
  5
2C20
102
{ACAD_REACTORS
330
2C1A
102
}
330
2C1A
100
AcDbVisualStyle
  2
2dWireframe
 70
     4
177
     2
291
     0
 71
     0
176
     1
 72
     2
176
     1
 73
     0
176
     1
 90
        0
176
     1
 40
0.6
176
     1
 41
30.0
176
     1
 63
     7
421
 16777215
176
     1
 74
     1
176
     1
 91
        4
176
     1
 64
     7
176
     1
 65
   257
176
     1
 75
     1
176
     1
175
     1
176
     1
 42
1.0
176
     1
 92
        0
176
     1
 66
   257
176
     1
 43
1.0
176
     1
 76
     1
176
     1
 77
     6
176
     1
 78
     2
176
     1
 67
     7
176
     1
 79
     5
176
     1
170
     0
176
     1
171
     0
176
     1
290
     0
176
     1
 93
        1
176
     1
 44
0.0
176
     1
173
     0
176
     1
  0
VISUALSTYLE
  5
2C22
102
{ACAD_REACTORS
330
2C1A
102
}
330
2C1A
100
AcDbVisualStyle
  2
3D Hidden
 70
     6
177
     2
291
     0
 71
     1
176
     1
 72
     2
176
     1
 73
     2
176
     1
 90
        0
176
     1
 40
0.6
176
     1
 41
30.0
176
     1
 63
     7
421
 16777215
176
     1
 74
     2
176
     1
 91
        2
176
     1
 64
     7
176
     1
 65
   257
176
     1
 75
     2
176
     1
175
     1
176
     1
 42
179.0
176
     1
 92
        0
176
     1
 66
   257
176
     1
 43
1.0
176
     1
 76
     1
176
     1
 77
     6
176
     1
 78
     2
176
     1
 67
     7
176
     1
 79
     3
176
     1
170
     0
176
     1
171
     0
176
     1
290
     0
176
     1
 93
        1
176
     1
 44
0.0
176
     1
173
     0
176
     1
  0
VISUALSTYLE
  5
2C21
102
{ACAD_REACTORS
330
2C1A
102
}
330
2C1A
100
AcDbVisualStyle
  2
3dWireframe
 70
     5
177
     2
291
     0
 71
     0
176
     1
 72
     2
176
     1
 73
     0
176
     1
 90
        0
176
     1
 40
0.6
176
     1
 41
30.0
176
     1
 63
     7
421
 16777215
176
     1
 74
     1
176
     1
 91
        4
176
     1
 64
     7
176
     1
 65
   257
176
     1
 75
     1
176
     1
175
     1
176
     1
 42
1.0
176
     1
 92
        0
176
     1
 66
   257
176
     1
 43
1.0
176
     1
 76
     1
176
     1
 77
     6
176
     1
 78
     2
176
     1
 67
     7
176
     1
 79
     5
176
     1
170
     0
176
     1
171
     0
176
     1
290
     0
176
     1
 93
        1
176
     1
 44
0.0
176
     1
173
     0
176
     1
  0
VISUALSTYLE
  5
2C1F
102
{ACAD_REACTORS
330
2C1A
102
}
330
2C1A
100
AcDbVisualStyle
  2
Basic
 70
     7
177
     2
291
     1
 71
     1
176
     1
 72
     0
176
     1
 73
     1
176
     1
 90
        0
176
     1
 40
0.6
176
     1
 41
30.0
176
     1
 63
     7
421
 16777215
176
     1
 74
     0
176
     1
 91
        4
176
     1
 64
     7
176
     1
 65
   257
176
     1
 75
     1
176
     1
175
     1
176
     1
 42
1.0
176
     1
 92
        8
176
     1
 66
     7
176
     1
 43
1.0
176
     1
 76
     1
176
     1
 77
     6
176
     1
 78
     2
176
     1
 67
     7
176
     1
 79
     5
176
     1
170
     0
176
     1
171
     0
176
     1
290
     0
176
     1
 93
        1
176
     1
 44
0.0
176
     1
173
     0
176
     1
  0
VISUALSTYLE
  5
2C26
102
{ACAD_REACTORS
330
2C1A
102
}
330
2C1A
100
AcDbVisualStyle
  2
Brighten
 70
    12
177
     2
291
     1
 71
     2
176
     1
 72
     2
176
     1
 73
     0
176
     1
 90
        0
176
     1
 40
0.6
176
     1
 41
30.0
176
     1
 63
     7
421
 16777215
176
     1
 74
     1
176
     1
 91
        4
176
     1
 64
     7
176
     1
 65
   257
176
     1
 75
     1
176
     1
175
     1
176
     1
 42
1.0
176
     1
 92
        8
176
     1
 66
     7
176
     1
 43
1.0
176
     1
 76
     1
176
     1
 77
     6
176
     1
 78
     2
176
     1
 67
     7
176
     1
 79
     5
176
     1
170
     0
176
     1
171
     0
176
     1
290
     0
176
     1
 93
        1
176
     1
 44
50.0
176
     1
173
     0
176
     1
  0
VISUALSTYLE
  5
2C2A
102
{ACAD_REACTORS
330
2C1A
102
}
330
2C1A
100
AcDbVisualStyle
  2
ColorChange
 70
    16
177
     2
291
     1
 71
     2
176
     1
 72
     2
176
     1
 73
     3
176
     1
 90
        0
176
     1
 40
0.6
176
     1
 41
30.0
176
     1
 63
     8
421
  8421504
176
     1
 74
     1
176
     1
 91
        4
176
     1
 64
     7
176
     1
 65
   257
176
     1
 75
     1
176
     1
175
     1
176
     1
 42
1.0
176
     1
 92
        8
176
     1
 66
     8
424
  8421504
176
     1
 43
1.0
176
     1
 76
     1
176
     1
 77
     6
176
     1
 78
     2
176
     1
 67
     7
176
     1
 79
     5
176
     1
170
     0
176
     1
171
     0
176
     1
290
     0
176
     1
 93
        1
176
     1
 44
0.0
176
     1
173
     0
176
     1
  0
VISUALSTYLE
  5
2C23
102
{ACAD_REACTORS
330
2C1A
102
}
330
2C1A
100
AcDbVisualStyle
  2
Conceptual
 70
     9
177
     2
291
     0
 71
     3
176
     1
 72
     2
176
     1
 73
     0
176
     1
 90
        0
176
     1
 40
0.6
176
     1
 41
30.0
176
     1
 63
     7
421
 16777215
176
     1
 74
     2
176
     1
 91
        2
176
     1
 64
     7
176
     1
 65
   257
176
     1
 75
     1
176
     1
175
     1
176
     1
 42
179.0
176
     1
 92
        8
176
     1
 66
     7
176
     1
 43
1.0
176
     1
 76
     1
176
     1
 77
     6
176
     1
 78
     2
176
     1
 67
     7
176
     1
 79
     3
176
     1
170
     0
176
     1
171
     0
176
     1
290
     0
176
     1
 93
        1
176
     1
 44
0.0
176
     1
173
     0
176
     1
  0
VISUALSTYLE
  5
2C25
102
{ACAD_REACTORS
330
2C1A
102
}
330
2C1A
100
AcDbVisualStyle
  2
Dim
 70
    11
177
     2
291
     1
 71
     2
176
     1
 72
     2
176
     1
 73
     0
176
     1
 90
        0
176
     1
 40
0.6
176
     1
 41
30.0
176
     1
 63
     7
421
 16777215
176
     1
 74
     1
176
     1
 91
        4
176
     1
 64
     7
176
     1
 65
   257
176
     1
 75
     1
176
     1
175
     1
176
     1
 42
1.0
176
     1
 92
        8
176
     1
 66
     7
176
     1
 43
1.0
176
     1
 76
     1
176
     1
 77
     6
176
     1
 78
     2
176
     1
 67
     7
176
     1
 79
     5
176
     1
170
     0
176
     1
171
     0
176
     1
290
     0
176
     1
 93
        1
176
     1
 44
-50.0
176
     1
173
     0
176
     1
  0
VISUALSTYLE
  5
2C2D
102
{ACAD_REACTORS
330
2C1A
102
}
330
2C1A
100
AcDbVisualStyle
  2
EdgeColorOff
 70
    22
177
     2
291
     1
 71
     2
176
     0
 72
     2
176
     0
 73
     0
176
     0
 90
        0
176
     0
 40
0.6
176
     0
 41
30.0
176
     0
 63
     7
421
 16777215
176
     0
 74
     1
176
     0
 91
        4
176
     0
 64
     7
176
     0
 65
   257
176
     0
 75
     1
176
     0
175
     1
176
     0
 42
1.0
176
     0
 92
        8
176
     2
 66
     7
176
     0
 43
1.0
176
     0
 76
     1
176
     0
 77
     6
176
     0
 78
     2
176
     0
 67
     7
176
     0
 79
     5
176
     0
170
     0
176
     0
171
     0
176
     0
290
     0
176
     0
 93
        1
176
     0
 44
0.0
176
     0
173
     0
176
     0
  0
VISUALSTYLE
  5
2C29
102
{ACAD_REACTORS
330
2C1A
102
}
330
2C1A
100
AcDbVisualStyle
  2
Facepattern
 70
    15
177
     2
291
     1
 71
     2
176
     1
 72
     2
176
     1
 73
     0
176
     1
 90
        0
176
     1
 40
0.6
176
     1
 41
30.0
176
     1
 63
     7
421
 16777215
176
     1
 74
     1
176
     1
 91
        4
176
     1
 64
     7
176
     1
 65
   257
176
     1
 75
     1
176
     1
175
     1
176
     1
 42
1.0
176
     1
 92
        8
176
     1
 66
     7
176
     1
 43
1.0
176
     1
 76
     1
176
     1
 77
     6
176
     1
 78
     2
176
     1
 67
     7
176
     1
 79
     5
176
     1
170
     0
176
     1
171
     0
176
     1
290
     0
176
     1
 93
        1
176
     1
 44
0.0
176
     1
173
     0
176
     1
  0
VISUALSTYLE
  5
2C1B
102
{ACAD_REACTORS
330
2C1A
102
}
330
2C1A
100
AcDbVisualStyle
  2
Flat
 70
     0
177
     2
291
     1
 71
     2
176
     1
 72
     1
176
     1
 73
     1
176
     1
 90
        2
176
     1
 40
0.6
176
     1
 41
30.0
176
     1
 63
     7
421
 16777215
176
     1
 74
     0
176
     1
 91
        4
176
     1
 64
     7
176
     1
 65
   257
176
     1
 75
     1
176
     1
175
     1
176
     1
 42
1.0
176
     1
 92
        8
176
     1
 66
     7
176
     1
 43
1.0
176
     1
 76
     1
176
     1
 77
     6
176
     1
 78
     2
176
     1
 67
     7
176
     1
 79
     5
176
     1
170
     0
176
     1
171
     0
176
     1
290
     0
176
     1
 93
       13
176
     1
 44
0.0
176
     1
173
     0
176
     1
  0
VISUALSTYLE
  5
2C1C
102
{ACAD_REACTORS
330
2C1A
102
}
330
2C1A
100
AcDbVisualStyle
  2
FlatWithEdges
 70
     1
177
     2
291
     1
 71
     2
176
     1
 72
     1
176
     1
 73
     1
176
     1
 90
        2
176
     1
 40
0.6
176
     1
 41
30.0
176
     1
 63
     7
421
 16777215
176
     1
 74
     1
176
     1
 91
        4
176
     1
 64
     7
176
     1
 65
   257
176
     1
 75
     1
176
     1
175
     1
176
     1
 42
1.0
176
     1
 92
        0
176
     1
 66
   257
176
     1
 43
1.0
176
     1
 76
     1
176
     1
 77
     6
176
     1
 78
     2
176
     1
 67
     7
176
     1
 79
     5
176
     1
170
     0
176
     1
171
     0
176
     1
290
     0
176
     1
 93
       13
176
     1
 44
0.0
176
     1
173
     0
176
     1
  0
VISUALSTYLE
  5
2C1D
102
{ACAD_REACTORS
330
2C1A
102
}
330
2C1A
100
AcDbVisualStyle
  2
Gouraud
 70
     2
177
     2
291
     1
 71
     2
176
     1
 72
     2
176
     1
 73
     1
176
     1
 90
        2
176
     1
 40
0.6
176
     1
 41
30.0
176
     1
 63
     7
421
 16777215
176
     1
 74
     0
176
     1
 91
        4
176
     1
 64
     7
176
     1
 65
   257
176
     1
 75
     1
176
     1
175
     1
176
     1
 42
1.0
176
     1
 92
        0
176
     1
 66
     7
176
     1
 43
1.0
176
     1
 76
     1
176
     1
 77
     6
176
     1
 78
     2
176
     1
 67
     7
176
     1
 79
     5
176
     1
170
     0
176
     1
171
     0
176
     1
290
     0
176
     1
 93
       13
176
     1
 44
0.0
176
     1
173
     0
176
     1
  0
VISUALSTYLE
  5
2C1E
102
{ACAD_REACTORS
330
2C1A
102
}
330
2C1A
100
AcDbVisualStyle
  2
GouraudWithEdges
 70
     3
177
     2
291
     1
 71
     2
176
     1
 72
     2
176
     1
 73
     1
176
     1
 90
        2
176
     1
 40
0.6
176
     1
 41
30.0
176
     1
 63
     7
421
 16777215
176
     1
 74
     1
176
     1
 91
        4
176
     1
 64
     7
176
     1
 65
   257
176
     1
 75
     1
176
     1
175
     1
176
     1
 42
1.0
176
     1
 92
        0
176
     1
 66
   257
176
     1
 43
1.0
176
     1
 76
     1
176
     1
 77
     6
176
     1
 78
     2
176
     1
 67
     7
176
     1
 79
     5
176
     1
170
     0
176
     1
171
     0
176
     1
290
     0
176
     1
 93
       13
176
     1
 44
0.0
176
     1
173
     0
176
     1
  0
VISUALSTYLE
  5
2C2B
102
{ACAD_REACTORS
330
2C1A
102
}
330
2C1A
100
AcDbVisualStyle
  2
JitterOff
 70
    20
177
     2
291
     1
 71
     2
176
     0
 72
     2
176
     0
 73
     0
176
     0
 90
        0
176
     0
 40
0.6
176
     0
 41
30.0
176
     0
 63
     7
421
 16777215
176
     0
 74
     1
176
     0
 91
        4
176
     0
 64
     7
176
     0
 65
   257
176
     0
 75
     1
176
     0
175
     1
176
     0
 42
1.0
176
     0
 92
       10
176
     2
 66
     7
176
     0
 43
1.0
176
     0
 76
     1
176
     0
 77
     6
176
     0
 78
     2
176
     0
 67
     7
176
     0
 79
     5
176
     0
170
     0
176
     0
171
     0
176
     0
290
     0
176
     0
 93
        1
176
     0
 44
0.0
176
     0
173
     0
176
     0
  0
VISUALSTYLE
  5
2C28
102
{ACAD_REACTORS
330
2C1A
102
}
330
2C1A
100
AcDbVisualStyle
  2
Linepattern
 70
    14
177
     2
291
     1
 71
     2
176
     1
 72
     2
176
     1
 73
     0
176
     1
 90
        0
176
     1
 40
0.6
176
     1
 41
30.0
176
     1
 63
     7
421
 16777215
176
     1
 74
     1
176
     1
 91
        4
176
     1
 64
     7
176
     1
 65
   257
176
     1
 75
     7
176
     1
175
     7
176
     1
 42
1.0
176
     1
 92
        8
176
     1
 66
     7
176
     1
 43
1.0
176
     1
 76
     1
176
     1
 77
     6
176
     1
 78
     2
176
     1
 67
     7
176
     1
 79
     5
176
     1
170
     0
176
     1
171
     0
176
     1
290
     0
176
     1
 93
        1
176
     1
 44
0.0
176
     1
173
     0
176
     1
  0
VISUALSTYLE
  5
2C2C
102
{ACAD_REACTORS
330
2C1A
102
}
330
2C1A
100
AcDbVisualStyle
  2
OverhangOff
 70
    21
177
     2
291
     1
 71
     2
176
     0
 72
     2
176
     0
 73
     0
176
     0
 90
        0
176
     0
 40
0.6
176
     0
 41
30.0
176
     0
 63
     7
421
 16777215
176
     0
 74
     1
176
     0
 91
        4
176
     0
 64
     7
176
     0
 65
   257
176
     0
 75
     1
176
     0
175
     1
176
     0
 42
1.0
176
     0
 92
        9
176
     2
 66
     7
176
     0
 43
1.0
176
     0
 76
     1
176
     0
 77
     6
176
     0
 78
     2
176
     0
 67
     7
176
     0
 79
     5
176
     0
170
     0
176
     0
171
     0
176
     0
290
     0
176
     0
 93
        1
176
     0
 44
0.0
176
     0
173
     0
176
     0
  0
VISUALSTYLE
  5
2C24
102
{ACAD_REACTORS
330
2C1A
102
}
330
2C1A
100
AcDbVisualStyle
  2
Realistic
 70
     8
177
     2
291
     0
 71
     2
176
     1
 72
     2
176
     1
 73
     0
176
     1
 90
        0
176
     1
 40
0.6
176
     1
 41
30.0
176
     1
 63
     7
421
 16777215
176
     1
 74
     1
176
     1
 91
        0
176
     1
 64
     7
176
     1
 65
   257
176
     1
 75
     1
176
     1
175
     1
176
     1
 42
1.0
176
     1
 92
        8
176
     1
 66
     8
424
  7895160
176
     1
 43
1.0
176
     1
 76
     1
176
     1
 77
     6
176
     1
 78
     2
176
     1
 67
     7
176
     1
 79
     5
176
     1
170
     0
176
     1
171
     0
176
     1
290
     0
176
     1
 93
       13
176
     1
 44
0.0
176
     1
173
     0
176
     1
  0
VISUALSTYLE
  5
2C27
102
{ACAD_REACTORS
330
2C1A
102
}
330
2C1A
100
AcDbVisualStyle
  2
Thicken
 70
    13
177
     2
291
     1
 71
     2
176
     1
 72
     2
176
     1
 73
     0
176
     1
 90
        0
176
     1
 40
0.6
176
     1
 41
30.0
176
     1
 63
     7
421
 16777215
176
     1
 74
     1
176
     1
 91
        4
176
     1
 64
     7
176
     1
 65
   257
176
     1
 75
     1
176
     1
175
     1
176
     1
 42
1.0
176
     1
 92
       12
176
     1
 66
     7
176
     1
 43
1.0
176
     1
 76
     1
176
     1
 77
     6
176
     1
 78
     2
176
     1
 67
     7
176
     1
 79
     5
176
     1
170
     0
176
     1
171
     0
176
     1
290
     0
176
     1
 93
        1
176
     1
 44
0.0
176
     1
173
     0
176
     1
  0
DICTIONARYVAR
  5
2C7F
102
{ACAD_REACTORS
330
2C7B
102
}
330
2C7B
100
DictionaryVariables
280
     0
  1
1:1
  0
DICTIONARYVAR
  5
2C7D
102
{ACAD_REACTORS
330
2C7B
102
}
330
2C7B
100
DictionaryVariables
280
     0
  1
STANDARD
  0
DICTIONARYVAR
  5
2C7C
102
{ACAD_REACTORS
330
2C7B
102
}
330
2C7B
100
DictionaryVariables
280
     0
  1
STANDARD
  0
DICTIONARYVAR
  5
2C81
102
{ACAD_REACTORS
330
2C7B
102
}
330
2C7B
100
DictionaryVariables
280
     0
  1
1
  0
DICTIONARYVAR
  5
2C82
102
{ACAD_REACTORS
330
2C7B
102
}
330
2C7B
100
DictionaryVariables
280
     0
  1
15
  0
DICTIONARYVAR
  5
2C80
102
{ACAD_REACTORS
330
2C7B
102
}
330
2C7B
100
DictionaryVariables
280
     0
  1
0
  0
DICTIONARYVAR
  5
2C7E
102
{ACAD_REACTORS
330
2C7B
102
}
330
2C7B
100
DictionaryVariables
280
     0
  1
0
  0
XRECORD
  5
29E
102
{ACAD_REACTORS
330
29C
102
}
330
29C
100
AcDbXrecord
280
     1
330
0
  0
DICTIONARY
  5
2C0B
330
2C0A
100
AcDbDictionary
280
     1
281
     1
  3
BUMPTILE
360
2C0D
  3
DIFFUSETILE
360
2C0C
  3
OPACITYTILE
360
2C10
  3
REFLECTIONTILE
360
2C0F
  3
REFRACTIONTILE
360
2C11
  3
SPECULARTILE
360
2C0E
  0
DICTIONARY
  5
2C03
330
2C02
100
AcDbDictionary
280
     1
281
     1
  3
BUMPTILE
360
2C05
  3
DIFFUSETILE
360
2C04
  3
OPACITYTILE
360
2C08
  3
REFLECTIONTILE
360
2C07
  3
REFRACTIONTILE
360
2C09
  3
SPECULARTILE
360
2C06
  0
DICTIONARY
  5
2C13
330
2C12
100
AcDbDictionary
280
     1
281
     1
  3
BUMPTILE
360
2C15
  3
DIFFUSETILE
360
2C14
  3
OPACITYTILE
360
2C18
  3
REFLECTIONTILE
360
2C17
  3
REFRACTIONTILE
360
2C19
  3
SPECULARTILE
360
2C16
  0
DICTIONARY
  5
2C83
330
2C30
100
AcDbDictionary
280
     1
281
     1
  3
ACAD_ROUNDTRIP_2008_TABLESTYLE_CELLSTYLEMAP
360
2C84
  0
XRECORD
  5
2C0D
102
{ACAD_REACTORS
330
2C0B
102
}
330
2C0B
100
AcDbXrecord
280
     1
270
     1
271
     1
  0
XRECORD
  5
2C0C
102
{ACAD_REACTORS
330
2C0B
102
}
330
2C0B
100
AcDbXrecord
280
     1
270
     1
271
     1
  0
XRECORD
  5
2C10
102
{ACAD_REACTORS
330
2C0B
102
}
330
2C0B
100
AcDbXrecord
280
     1
270
     1
271
     1
  0
XRECORD
  5
2C0F
102
{ACAD_REACTORS
330
2C0B
102
}
330
2C0B
100
AcDbXrecord
280
     1
270
     1
271
     1
  0
XRECORD
  5
2C11
102
{ACAD_REACTORS
330
2C0B
102
}
330
2C0B
100
AcDbXrecord
280
     1
270
     1
271
     1
  0
XRECORD
  5
2C0E
102
{ACAD_REACTORS
330
2C0B
102
}
330
2C0B
100
AcDbXrecord
280
     1
270
     1
271
     1
  0
XRECORD
  5
2C05
102
{ACAD_REACTORS
330
2C03
102
}
330
2C03
100
AcDbXrecord
280
     1
270
     1
271
     1
  0
XRECORD
  5
2C04
102
{ACAD_REACTORS
330
2C03
102
}
330
2C03
100
AcDbXrecord
280
     1
270
     1
271
     1
  0
XRECORD
  5
2C08
102
{ACAD_REACTORS
330
2C03
102
}
330
2C03
100
AcDbXrecord
280
     1
270
     1
271
     1
  0
XRECORD
  5
2C07
102
{ACAD_REACTORS
330
2C03
102
}
330
2C03
100
AcDbXrecord
280
     1
270
     1
271
     1
  0
XRECORD
  5
2C09
102
{ACAD_REACTORS
330
2C03
102
}
330
2C03
100
AcDbXrecord
280
     1
270
     1
271
     1
  0
XRECORD
  5
2C06
102
{ACAD_REACTORS
330
2C03
102
}
330
2C03
100
AcDbXrecord
280
     1
270
     1
271
     1
  0
XRECORD
  5
2C15
102
{ACAD_REACTORS
330
2C13
102
}
330
2C13
100
AcDbXrecord
280
     1
270
     1
271
     1
  0
XRECORD
  5
2C14
102
{ACAD_REACTORS
330
2C13
102
}
330
2C13
100
AcDbXrecord
280
     1
270
     1
271
     1
  0
XRECORD
  5
2C18
102
{ACAD_REACTORS
330
2C13
102
}
330
2C13
100
AcDbXrecord
280
     1
270
     1
271
     1
  0
XRECORD
  5
2C17
102
{ACAD_REACTORS
330
2C13
102
}
330
2C13
100
AcDbXrecord
280
     1
270
     1
271
     1
  0
XRECORD
  5
2C19
102
{ACAD_REACTORS
330
2C13
102
}
330
2C13
100
AcDbXrecord
280
     1
270
     1
271
     1
  0
XRECORD
  5
2C16
102
{ACAD_REACTORS
330
2C13
102
}
330
2C13
100
AcDbXrecord
280
     1
270
     1
271
     1
  0
CELLSTYLEMAP
  5
2C84
102
{ACAD_REACTORS
330
2C83
102
}
330
2C83
100
AcDbCellStyleMap
 90
        3
300
CELLSTYLE
  1
TABLEFORMAT_BEGIN
 90
        5
170
     1
 91
        0
 92
    32768
 62
   257
 93
        1
300
CONTENTFORMAT
  1
CONTENTFORMAT_BEGIN
 90
        0
 91
        0
 92
      512
 93
        0
300

 40
0.0
140
1.0
 94
        5
 62
     0
340
10
144
0.25
309
CONTENTFORMAT_END
171
     0
 94
        0
309
TABLEFORMAT_END
  1
CELLSTYLE_BEGIN
 90
        1
 91
        1
300
_TITLE
309
CELLSTYLE_END
300
CELLSTYLE
  1
TABLEFORMAT_BEGIN
 90
        5
170
     1
 91
        0
 92
        0
 62
   257
 93
        1
300
CONTENTFORMAT
  1
CONTENTFORMAT_BEGIN
 90
        0
 91
        0
 92
      512
 93
        0
300

 40
0.0
140
1.0
 94
        5
 62
     0
340
10
144
0.18
309
CONTENTFORMAT_END
171
     0
 94
        0
309
TABLEFORMAT_END
  1
CELLSTYLE_BEGIN
 90
        2
 91
        1
300
_HEADER
309
CELLSTYLE_END
300
CELLSTYLE
  1
TABLEFORMAT_BEGIN
 90
        5
170
     1
 91
        0
 92
        0
 62
   257
 93
        1
300
CONTENTFORMAT
  1
CONTENTFORMAT_BEGIN
 90
        0
 91
        0
 92
      512
 93
        0
300

 40
0.0
140
1.0
 94
        2
 62
     0
340
10
144
0.18
309
CONTENTFORMAT_END
171
     0
 94
        0
309
TABLEFORMAT_END
  1
CELLSTYLE_BEGIN
 90
        3
 91
        2
300
_DATA
309
CELLSTYLE_END
  0
ENDSEC
  0
EOF
