  0
SECTION
  2
HEADER
  9
$ACADVER
  1
AC1024
  9
$ACADMAINTVER
 70
     6
  9
$DWGCODEPAGE
  3
ANSI_932
  9
$LASTSAVEDBY
  1
Schuyler
  9
$INSBASE
 10
0.0
 20
0.0
 30
0.0
  9
$EXTMIN
 10
214.836885864041
 20
-5.999676172326758
 30
0.0
  9
$EXTMAX
 10
222.8671132055122
 20
0.7049018907160516
 30
0.0
  9
$LIMMIN
 10
0.0
 20
0.0
  9
$LIMMAX
 10
17.0
 20
11.0
  9
$ORTHOMODE
 70
     0
  9
$REGENMODE
 70
     1
  9
$FILLMODE
 70
     1
  9
$QTEXTMODE
 70
     0
  9
$MIRRTEXT
 70
     0
  9
$LTSCALE
 40
3.2
  9
$ATTMODE
 70
     1
  9
$TEXTSIZE
 40
0.1
  9
$TRACEWID
 40
0.05
  9
$TEXTSTYLE
  7
STANDARD
  9
$CLAYER
  8
SECTION
  9
$CELTYPE
  6
BYLAYER
  9
$CECOLOR
 62
   256
  9
$CELTSCALE
 40
1.0
  9
$DISPSILH
 70
     0
  9
$DIMSCALE
 40
0.4
  9
$DIMASZ
 40
0.12
  9
$DIMEXO
 40
0.1
  9
$DIMDLI
 40
0.22
  9
$DIMRND
 40
0.0
  9
$DIMDLE
 40
0.0
  9
$DIMEXE
 40
0.12
  9
$DIMTP
 40
0.0
  9
$DIMTM
 40
0.0
  9
$DIMTXT
 40
0.1
  9
$DIMCEN
 40
0.0
  9
$DIMTSZ
 40
0.0
  9
$DIMTOL
 70
     0
  9
$DIMLIM
 70
     0
  9
$DIMTIH
 70
     0
  9
$DIMTOH
 70
     0
  9
$DIMSE1
 70
     0
  9
$DIMSE2
 70
     0
  9
$DIMTAD
 70
     0
  9
$DIMZIN
 70
     3
  9
$DIMBLK
  1

  9
$DIMASO
 70
     1
  9
$DIMSHO
 70
     0
  9
$DIMPOST
  1

  9
$DIMAPOST
  1

  9
$DIMALT
 70
     0
  9
$DIMALTD
 70
     2
  9
$DIMALTF
 40
25.4
  9
$DIMLFAC
 40
1.0
  9
$DIMTOFL
 70
     0
  9
$DIMTVP
 40
0.0
  9
$DIMTIX
 70
     0
  9
$DIMSOXD
 70
     0
  9
$DIMSAH
 70
     0
  9
$DIMBLK1
  1

  9
$DIMBLK2
  1

  9
$DIMSTYLE
  2
TPS3
  9
$DIMCLRD
 70
     0
  9
$DIMCLRE
 70
     0
  9
$DIMCLRT
 70
     0
  9
$DIMTFAC
 40
1.0
  9
$DIMGAP
 40
0.09
  9
$DIMJUST
 70
     0
  9
$DIMSD1
 70
     0
  9
$DIMSD2
 70
     0
  9
$DIMTOLJ
 70
     1
  9
$DIMTZIN
 70
     3
  9
$DIMALTZ
 70
     0
  9
$DIMALTTZ
 70
     0
  9
$DIMUPT
 70
     0
  9
$DIMDEC
 70
     3
  9
$DIMTDEC
 70
     3
  9
$DIMALTU
 70
     2
  9
$DIMALTTD
 70
     2
  9
$DIMTXSTY
  7
STANDARD
  9
$DIMAUNIT
 70
     0
  9
$DIMADEC
 70
     0
  9
$DIMALTRND
 40
0.0
  9
$DIMAZIN
 70
     0
  9
$DIMDSEP
 70
    46
  9
$DIMATFIT
 70
     3
  9
$DIMFRAC
 70
     0
  9
$DIMLDRBLK
  1

  9
$DIMLUNIT
 70
     2
  9
$DIMLWD
 70
    -2
  9
$DIMLWE
 70
    -2
  9
$DIMTMOVE
 70
     0
  9
$DIMFXL
 40
1.0
  9
$DIMFXLON
 70
     0
  9
$DIMJOGANG
 40
0.7853981633974483
  9
$DIMTFILL
 70
     0
  9
$DIMTFILLCLR
 70
     0
  9
$DIMARCSYM
 70
     0
  9
$DIMLTYPE
  6

  9
$DIMLTEX1
  6

  9
$DIMLTEX2
  6

  9
$DIMTXTDIRECTION
 70
     0
  9
$LUNITS
 70
     2
  9
$LUPREC
 70
     3
  9
$SKETCHINC
 40
0.1
  9
$FILLETRAD
 40
0.0
  9
$AUNITS
 70
     0
  9
$AUPREC
 70
     1
  9
$MENU
  1
ACAD
  9
$ELEVATION
 40
0.0
  9
$PELEVATION
 40
0.0
  9
$THICKNESS
 40
0.0
  9
$LIMCHECK
 70
     0
  9
$CHAMFERA
 40
0.0
  9
$CHAMFERB
 40
0.0
  9
$CHAMFERC
 40
0.0
  9
$CHAMFERD
 40
0.0
  9
$SKPOLY
 70
     0
  9
$TDCREATE
 40
2455057.585952812
  9
$TDUCREATE
 40
2455057.752619480
  9
$TDUPDATE
 40
2455849.033721470
  9
$TDUUPDATE
 40
2455849.200388137
  9
$TDINDWG
 40
12.0962677546
  9
$TDUSRTIMER
 40
12.0962677546
  9
$USRTIMER
 70
     1
  9
$ANGBASE
 50
0.0
  9
$ANGDIR
 70
     0
  9
$PDMODE
 70
     3
  9
$PDSIZE
 40
0.02
  9
$PLINEWID
 40
0.0
  9
$SPLFRAME
 70
     0
  9
$SPLINETYPE
 70
     6
  9
$SPLINESEGS
 70
     8
  9
$HANDSEED
  5
32B7
  9
$SURFTAB1
 70
     6
  9
$SURFTAB2
 70
     6
  9
$SURFTYPE
 70
     6
  9
$SURFU
 70
     6
  9
$SURFV
 70
     6
  9
$UCSBASE
  2

  9
$UCSNAME
  2

  9
$UCSORG
 10
217.0637956006614
 20
-1.390165411011395
 30
0.0
  9
$UCSXDIR
 10
1.0
 20
0.0
 30
0.0
  9
$UCSYDIR
 10
0.0
 20
1.0
 30
0.0
  9
$UCSORTHOREF
  2

  9
$UCSORTHOVIEW
 70
     0
  9
$UCSORGTOP
 10
0.0
 20
0.0
 30
0.0
  9
$UCSORGBOTTOM
 10
0.0
 20
0.0
 30
0.0
  9
$UCSORGLEFT
 10
0.0
 20
0.0
 30
0.0
  9
$UCSORGRIGHT
 10
0.0
 20
0.0
 30
0.0
  9
$UCSORGFRONT
 10
0.0
 20
0.0
 30
0.0
  9
$UCSORGBACK
 10
0.0
 20
0.0
 30
0.0
  9
$PUCSBASE
  2

  9
$PUCSNAME
  2

  9
$PUCSORG
 10
0.0
 20
0.0
 30
0.0
  9
$PUCSXDIR
 10
1.0
 20
0.0
 30
0.0
  9
$PUCSYDIR
 10
0.0
 20
1.0
 30
0.0
  9
$PUCSORTHOREF
  2

  9
$PUCSORTHOVIEW
 70
     0
  9
$PUCSORGTOP
 10
0.0
 20
0.0
 30
0.0
  9
$PUCSORGBOTTOM
 10
0.0
 20
0.0
 30
0.0
  9
$PUCSORGLEFT
 10
0.0
 20
0.0
 30
0.0
  9
$PUCSORGRIGHT
 10
0.0
 20
0.0
 30
0.0
  9
$PUCSORGFRONT
 10
0.0
 20
0.0
 30
0.0
  9
$PUCSORGBACK
 10
0.0
 20
0.0
 30
0.0
  9
$USERI1
 70
     0
  9
$USERI2
 70
     0
  9
$USERI3
 70
     0
  9
$USERI4
 70
     0
  9
$USERI5
 70
     0
  9
$USERR1
 40
0.0
  9
$USERR2
 40
0.0
  9
$USERR3
 40
0.0
  9
$USERR4
 40
0.0
  9
$USERR5
 40
0.0
  9
$WORLDVIEW
 70
     1
  9
$SHADEDGE
 70
     3
  9
$SHADEDIF
 70
    70
  9
$TILEMODE
 70
     1
  9
$MAXACTVP
 70
    16
  9
$PINSBASE
 10
0.0
 20
0.0
 30
0.0
  9
$PLIMCHECK
 70
     0
  9
$PEXTMIN
 10
1.000000000000000E+20
 20
1.000000000000000E+20
 30
1.000000000000000E+20
  9
$PEXTMAX
 10
-1.000000000000000E+20
 20
-1.000000000000000E+20
 30
-1.000000000000000E+20
  9
$PLIMMIN
 10
0.0
 20
0.0
  9
$PLIMMAX
 10
12.0
 20
9.0
  9
$UNITMODE
 70
     0
  9
$VISRETAIN
 70
     0
  9
$PLINEGEN
 70
     0
  9
$PSLTSCALE
 70
     0
  9
$TREEDEPTH
 70
  3020
  9
$CMLSTYLE
  2
STANDARD
  9
$CMLJUST
 70
     0
  9
$CMLSCALE
 40
1.0
  9
$PROXYGRAPHICS
 70
     1
  9
$MEASUREMENT
 70
     0
  9
$CELWEIGHT
370
    -1
  9
$ENDCAPS
280
     0
  9
$JOINSTYLE
280
     0
  9
$LWDISPLAY
290
     0
  9
$INSUNITS
 70
     0
  9
$HYPERLINKBASE
  1

  9
$STYLESHEET
  1
tps-s1_BLACK.ctb
  9
$XEDIT
290
     1
  9
$CEPSNTYPE
380
     0
  9
$PSTYLEMODE
290
     1
  9
$FINGERPRINTGUID
  2
{AF1BFB27-CCE5-11D3-9728-005004AD2079}
  9
$VERSIONGUID
  2
{6A0B616B-A7F7-48C9-BF88-D2CEC600CB27}
  9
$EXTNAMES
290
     1
  9
$PSVPSCALE
 40
0.0
  9
$OLESTARTUP
290
     0
  9
$SORTENTS
280
   127
  9
$INDEXCTL
280
     0
  9
$HIDETEXT
280
     0
  9
$XCLIPFRAME
280
     2
  9
$HALOGAP
280
     0
  9
$OBSCOLOR
 70
   257
  9
$OBSLTYPE
280
     0
  9
$INTERSECTIONDISPLAY
280
     0
  9
$INTERSECTIONCOLOR
 70
   257
  9
$DIMASSOC
280
     1
  9
$PROJECTNAME
  1

  9
$CAMERADISPLAY
290
     0
  9
$LENSLENGTH
 40
50.0
  9
$CAMERAHEIGHT
 40
0.0
  9
$STEPSPERSEC
 40
2.0
  9
$STEPSIZE
 40
6.0
  9
$3DDWFPREC
 40
2.0
  9
$PSOLWIDTH
 40
0.25
  9
$PSOLHEIGHT
 40
4.0
  9
$LOFTANG1
 40
1.570796326794896
  9
$LOFTANG2
 40
1.570796326794896
  9
$LOFTMAG1
 40
0.0
  9
$LOFTMAG2
 40
0.0
  9
$LOFTPARAM
 70
     7
  9
$LOFTNORMALS
280
     1
  9
$LATITUDE
 40
37.795
  9
$LONGITUDE
 40
-122.394
  9
$NORTHDIRECTION
 40
0.0
  9
$TIMEZONE
 70
 -8000
  9
$LIGHTGLYPHDISPLAY
280
     1
  9
$TILEMODELIGHTSYNCH
280
     1
  9
$CMATERIAL
347
322D
  9
$SOLIDHIST
280
     1
  9
$SHOWHIST
280
     1
  9
$DWFFRAME
280
     2
  9
$DGNFRAME
280
     0
  9
$REALWORLDSCALE
290
     1
  9
$INTERFERECOLOR
 62
     1
  9
$INTERFEREOBJVS
345
324F
  9
$INTERFEREVPVS
346
324C
  9
$CSHADOW
280
     0
  9
$SHADOWPLANELOCATION
 40
0.0
  0
ENDSEC
  0
SECTION
  2
CLASSES
  0
CLASS
  1
ACDBDICTIONARYWDFLT
  2
AcDbDictionaryWithDefault
  3
ObjectDBX Classes
 90
        0
 91
        1
280
     0
281
     0
  0
CLASS
  1
PLOTSETTINGS
  2
AcDbPlotSettings
  3
ObjectDBX Classes
 90
        0
 91
        2
280
     0
281
     0
  0
CLASS
  1
SORTENTSTABLE
  2
AcDbSortentsTable
  3
ObjectDBX Classes
 90
        0
 91
        1
280
     0
281
     0
  0
CLASS
  1
MATERIAL
  2
AcDbMaterial
  3
ObjectDBX Classes
 90
     1153
 91
        3
280
     0
281
     0
  0
CLASS
  1
VISUALSTYLE
  2
AcDbVisualStyle
  3
ObjectDBX Classes
 90
     4095
 91
       19
280
     0
281
     0
  0
CLASS
  1
TABLESTYLE
  2
AcDbTableStyle
  3
ObjectDBX Classes
 90
     4095
 91
        1
280
     0
281
     0
  0
CLASS
  1
SCALE
  2
AcDbScale
  3
ObjectDBX Classes
 90
     1153
 91
       33
280
     0
281
     0
  0
CLASS
  1
MLEADERSTYLE
  2
AcDbMLeaderStyle
  3
ACDB_MLEADERSTYLE_CLASS
 90
     4095
 91
        1
280
     0
281
     0
  0
CLASS
  1
DICTIONARYVAR
  2
AcDbDictionaryVar
  3
ObjectDBX Classes
 90
        0
 91
        7
280
     0
281
     0
  0
CLASS
  1
CELLSTYLEMAP
  2
AcDbCellStyleMap
  3
ObjectDBX Classes
 90
     1152
 91
        1
280
     0
281
     0
  0
ENDSEC
  0
SECTION
  2
TABLES
  0
TABLE
  2
VPORT
  5
8
330
0
100
AcDbSymbolTable
 70
     1
  0
VPORT
  5
322A
330
8
100
AcDbSymbolTableRecord
100
AcDbViewportTableRecord
  2
*Active
 70
     0
 10
0.0
 20
0.0
 11
1.0
 21
1.0
 12
218.9921132055122
 22
-1.377342420474561
 13
0.0
 23
0.0
 14
1.0
 24
1.0
 15
0.0
 25
0.0
 16
0.0
 26
0.0
 36
1.0
 17
0.0
 27
0.0
 37
0.0
 40
5.634240090302898
 41
1.85287610619469
 42
0.0
 43
0.0
 44
0.0
 50
0.0
 51
0.0
 71
     0
 72
   100
 73
     1
 74
     0
 75
     0
 76
     0
 77
     0
 78
     2
281
     0
 65
     1
110
217.0637956006614
120
-1.390165411011395
130
0.0
111
1.0
121
0.0
131
0.0
112
0.0
122
1.0
132
0.0
 79
     0
146
0.0
348
324B
 60
     3
 61
     5
292
     1
282
     1
141
0.0
142
0.0
 63
   250
421
  3355443
  0
ENDTAB
  0
TABLE
  2
LTYPE
  5
5
330
0
100
AcDbSymbolTable
 70
     5
  0
LTYPE
  5
12
330
5
100
AcDbSymbolTableRecord
100
AcDbLinetypeTableRecord
  2
BYBLOCK
 70
     0
  3

 72
    65
 73
     0
 40
0.0
  0
LTYPE
  5
13
330
5
100
AcDbSymbolTableRecord
100
AcDbLinetypeTableRecord
  2
BYLAYER
 70
     0
  3

 72
    65
 73
     0
 40
0.0
  0
LTYPE
  5
14
330
5
100
AcDbSymbolTableRecord
100
AcDbLinetypeTableRecord
  2
CONTINUOUS
 70
     0
  3
Solid line
 72
    65
 73
     0
 40
0.0
  0
LTYPE
  5
1D
330
5
100
AcDbSymbolTableRecord
100
AcDbLinetypeTableRecord
  2
H
 70
     0
  3
_ _ _ _ _ _ _ _ _ _ _ _ _ _ _ _ _ _ _ _ _ _ _
 72
    65
 73
     2
 40
0.375
 49
0.25
 74
     0
 49
-0.125
 74
     0
  0
LTYPE
  5
1E
330
5
100
AcDbSymbolTableRecord
100
AcDbLinetypeTableRecord
  2
C
 70
     0
  3
____ _ ____ _ ____ _ ____ _ ____ _ ____ _ ____
 72
    65
 73
     4
 40
2.0
 49
1.25
 74
     0
 49
-0.25
 74
     0
 49
0.25
 74
     0
 49
-0.25
 74
     0
  0
LTYPE
  5
726
330
5
100
AcDbSymbolTableRecord
100
AcDbLinetypeTableRecord
  2
ACAD_ISO08W100
 70
     0
  3
ISO long-dash short-dash ____ __ ____ __ ____ _
 72
    65
 73
     4
 40
36.0
 49
24.0
 74
     0
 49
-3.0
 74
     0
 49
6.0
 74
     0
 49
-3.0
 74
     0
  0
ENDTAB
  0
TABLE
  2
LAYER
  5
2
330
0
100
AcDbSymbolTable
 70
    17
  0
LAYER
  5
F
102
{ACAD_XDICTIONARY
360
328D
102
}
330
2
100
AcDbSymbolTableRecord
100
AcDbLayerTableRecord
  2
0
 70
     0
 62
     7
  6
CONTINUOUS
370
    -3
390
106
347
323D
  0
LAYER
  5
24
102
{ACAD_XDICTIONARY
360
328F
102
}
330
2
100
AcDbSymbolTableRecord
100
AcDbLayerTableRecord
  2
H
 70
     0
 62
     1
  6
H
370
    -3
390
106
347
323D
  0
LAYER
  5
25
102
{ACAD_XDICTIONARY
360
3291
102
}
330
2
100
AcDbSymbolTableRecord
100
AcDbLayerTableRecord
  2
C
 70
     0
 62
     1
  6
C
370
    -3
390
106
347
323D
  0
LAYER
  5
26
102
{ACAD_XDICTIONARY
360
3293
102
}
330
2
100
AcDbSymbolTableRecord
100
AcDbLayerTableRecord
  2
BORDER
 70
     0
 62
     3
  6
CONTINUOUS
370
    -3
390
106
347
323D
  0
LAYER
  5
27
102
{ACAD_XDICTIONARY
360
3295
102
}
330
2
100
AcDbSymbolTableRecord
100
AcDbLayerTableRecord
  2
X
 70
     0
 62
     1
  6
CONTINUOUS
370
    -3
390
106
347
323D
  0
LAYER
  5
28
102
{ACAD_XDICTIONARY
360
3297
102
}
330
2
100
AcDbSymbolTableRecord
100
AcDbLayerTableRecord
  2
T
 70
     0
 62
    50
  6
CONTINUOUS
370
    -3
390
106
347
323D
  0
LAYER
  5
2A
102
{ACAD_XDICTIONARY
360
3299
102
}
330
2
100
AcDbSymbolTableRecord
100
AcDbLayerTableRecord
  2
D
 70
     0
 62
     7
  6
CONTINUOUS
370
    -3
390
106
347
323D
  0
LAYER
  5
371
102
{ACAD_XDICTIONARY
360
329B
102
}
330
2
100
AcDbSymbolTableRecord
100
AcDbLayerTableRecord
  2
FRAME 070
 70
     0
 62
     5
  6
CONTINUOUS
370
    -3
390
106
347
323D
  0
LAYER
  5
372
102
{ACAD_XDICTIONARY
360
329D
102
}
330
2
100
AcDbSymbolTableRecord
100
AcDbLayerTableRecord
  2
SECTION
 70
     0
 62
     6
  6
ACAD_ISO08W100
370
    -3
390
106
347
323D
  0
LAYER
  5
373
102
{ACAD_XDICTIONARY
360
329F
102
}
330
2
100
AcDbSymbolTableRecord
100
AcDbLayerTableRecord
  2
FRAME 025
 70
     0
 62
     7
  6
CONTINUOUS
370
    -3
390
106
347
323D
  0
LAYER
  5
374
102
{ACAD_XDICTIONARY
360
32A1
102
}
330
2
100
AcDbSymbolTableRecord
100
AcDbLayerTableRecord
  2
Title Block
 70
     0
 62
    30
  6
CONTINUOUS
370
    -3
390
106
347
323D
  0
LAYER
  5
496
102
{ACAD_XDICTIONARY
360
32A3
102
}
330
2
100
AcDbSymbolTableRecord
100
AcDbLayerTableRecord
  2
TITLE BLOCK TEXT
 70
     0
 62
   253
  6
CONTINUOUS
370
    -3
390
106
347
323D
  0
LAYER
  5
4CC
330
2
100
AcDbSymbolTableRecord
100
AcDbLayerTableRecord
  2
Defpoints
 70
     0
 62
     7
  6
CONTINUOUS
290
     0
370
    -3
390
106
347
323D
  0
LAYER
  5
4F0
102
{ACAD_XDICTIONARY
360
32A5
102
}
330
2
100
AcDbSymbolTableRecord
100
AcDbLayerTableRecord
  2
ti tubing 075
 70
     0
 62
    41
  6
CONTINUOUS
370
    -3
390
106
347
323D
  0
LAYER
  5
504
102
{ACAD_XDICTIONARY
360
32A7
102
}
330
2
100
AcDbSymbolTableRecord
100
AcDbLayerTableRecord
  2
ti tubing 2.0
 70
     0
 62
   101
  6
CONTINUOUS
370
    -3
390
106
347
323D
  0
LAYER
  5
AF7
102
{ACAD_XDICTIONARY
360
AF8
102
}
330
2
100
AcDbSymbolTableRecord
100
AcDbLayerTableRecord
  2
Layer 1
 70
     0
 62
     7
  6
CONTINUOUS
370
    -3
390
106
347
323D
  0
LAYER
  5
1197
102
{ACAD_XDICTIONARY
360
32AA
102
}
330
2
100
AcDbSymbolTableRecord
100
AcDbLayerTableRecord
  2
PICK
 70
     0
 62
   211
  6
CONTINUOUS
370
    -3
390
106
347
323D
  0
ENDTAB
  0
TABLE
  2
STYLE
  5
3
330
0
100
AcDbSymbolTable
 70
     6
  0
STYLE
  5
10
330
3
100
AcDbSymbolTableRecord
100
AcDbTextStyleTableRecord
  2
STANDARD
 70
     0
 40
0.0
 41
1.0
 50
0.0
 71
     0
 42
0.1
  3
txt
  4

  0
STYLE
  5
376
330
3
100
AcDbSymbolTableRecord
100
AcDbTextStyleTableRecord
  2
ISO Proportional
 70
     0
 40
0.0
 41
1.0
 50
0.0
 71
     0
 42
2.5
  3
isocp.shx
  4

  0
STYLE
  5
3D0
330
3
100
AcDbSymbolTableRecord
100
AcDbTextStyleTableRecord
  2
Roman
 70
     0
 40
0.0
 41
1.0
 50
0.0
 71
     0
 42
0.065
  3
romans
  4

  0
STYLE
  5
725
330
3
100
AcDbSymbolTableRecord
100
AcDbTextStyleTableRecord
  2

 70
     1
 40
0.0
 41
1.0
 50
0.0
 71
     0
 42
0.1
  3
ltypeshp.shx
  4

  0
STYLE
  5
A85
330
3
100
AcDbSymbolTableRecord
100
AcDbTextStyleTableRecord
  2
Annotative
 70
     0
 40
0.0
 41
1.0
 50
0.0
 71
     0
 42
0.2
  3
ARIAL.TTF
  4

1001
AcadAnnotative
1000
AnnotativeData
1002
{
1070
     1
1070
     1
1002
}
1001
ACAD
1000
Arial
1071
       34
  0
STYLE
  5
A86
330
3
100
AcDbSymbolTableRecord
100
AcDbTextStyleTableRecord
  2
small
 70
     0
 40
0.1
 41
1.0
 50
0.0
 71
     0
 42
0.2
  3
ARIAL.TTF
  4

1001
ACAD
1000
Arial
1071
       34
  0
ENDTAB
  0
TABLE
  2
VIEW
  5
6
330
0
100
AcDbSymbolTable
 70
     1
  0
VIEW
  5
20
330
6
100
AcDbSymbolTableRecord
100
AcDbViewTableRecord
  2
BORDER
 70
     0
 40
4.875
 10
218.9921132055122
 20
-1.75675378203411
 41
7.75
 11
0.0
 21
0.0
 31
1.0
 12
0.0
 22
0.0
 32
0.0
 42
0.0
 43
0.0
 44
0.0
 50
0.0
 71
     0
281
     0
 72
     0
 73
     0
348
324B
  0
ENDTAB
  0
TABLE
  2
UCS
  5
7
330
0
100
AcDbSymbolTable
 70
     0
  0
ENDTAB
  0
TABLE
  2
APPID
  5
9
330
0
100
AcDbSymbolTable
 70
    11
  0
APPID
  5
11
330
9
100
AcDbSymbolTableRecord
100
AcDbRegAppTableRecord
  2
ACAD
 70
     0
  0
APPID
  5
175
330
9
100
AcDbSymbolTableRecord
100
AcDbRegAppTableRecord
  2
SI-MECH
 70
     0
  0
APPID
  5
29D
330
9
100
AcDbSymbolTableRecord
100
AcDbRegAppTableRecord
  2
DCO15
 70
     0
  0
APPID
  5
A8A
330
9
100
AcDbSymbolTableRecord
100
AcDbRegAppTableRecord
  2
AcadAnnoPO
 70
     0
  0
APPID
  5
A8B
330
9
100
AcDbSymbolTableRecord
100
AcDbRegAppTableRecord
  2
AcadAnnotative
 70
     0
  0
APPID
  5
A8C
330
9
100
AcDbSymbolTableRecord
100
AcDbRegAppTableRecord
  2
ACAD_DSTYLE_DIMJAG
 70
     0
  0
APPID
  5
A8D
330
9
100
AcDbSymbolTableRecord
100
AcDbRegAppTableRecord
  2
ACAD_DSTYLE_DIMTALN
 70
     0
  0
APPID
  5
A8E
330
9
100
AcDbSymbolTableRecord
100
AcDbRegAppTableRecord
  2
ACAD_MLEADERVER
 70
     0
  0
APPID
  5
A8F
330
9
100
AcDbSymbolTableRecord
100
AcDbRegAppTableRecord
  2
ACAD_DSTYLE_DIMBREAK
 70
     0
  0
APPID
  5
A90
330
9
100
AcDbSymbolTableRecord
100
AcDbRegAppTableRecord
  2
ACAD_EXEMPT_FROM_CAD_STANDARDS
 70
     0
  0
APPID
  5
A91
330
9
100
AcDbSymbolTableRecord
100
AcDbRegAppTableRecord
  2
ACAD_DSTYLE_DIMRADIAL_EXTENSION
 70
     0
  0
ENDTAB
  0
TABLE
  2
DIMSTYLE
  5
A
330
0
100
AcDbSymbolTable
 70
     6
100
AcDbDimStyleTable
 71
     2
340
49A
340
8C
  0
DIMSTYLE
105
8C
330
A
100
AcDbSymbolTableRecord
100
AcDbDimStyleTableRecord
  2
THREE
 70
     0
 41
0.12
 42
0.1
 43
0.22
 44
0.12
 73
     0
 78
     3
140
0.1
141
0.0
271
     3
272
     3
284
     3
340
10
  0
DIMSTYLE
105
49A
102
{ACAD_REACTORS
330
11A2
330
3077
330
3080
330
3089
330
3092
330
309B
330
30A4
330
30AD
330
30C1
330
30CA
330
30D3
330
30DC
330
30E5
330
30EE
330
30F7
330
3100
330
310B
330
3116
330
3121
330
312C
330
3137
330
3142
330
314D
330
3156
330
315F
330
3168
330
3171
330
317A
330
3183
330
318C
330
319A
102
}
330
A
100
AcDbSymbolTableRecord
100
AcDbDimStyleTableRecord
  2
TPS3
 70
     0
 40
0.4
 41
0.12
 42
0.1
 43
0.22
 44
0.12
 73
     0
 74
     0
 78
     3
140
0.1
141
0.0
271
     3
272
     3
284
     3
340
10
  0
DIMSTYLE
105
A87
330
A
100
AcDbSymbolTableRecord
100
AcDbDimStyleTableRecord
  2
Standard
 70
     0
340
10
  0
DIMSTYLE
105
A88
330
A
100
AcDbSymbolTableRecord
100
AcDbDimStyleTableRecord
  2
Annotative
 70
     0
 40
0.0
340
10
1001
AcadAnnotative
1000
AnnotativeData
1002
{
1070
     1
1070
     1
1002
}
1001
ACAD_DSTYLE_DIMJAG
1070
   388
1040
1.5
1001
ACAD_DSTYLE_DIMTALN
1070
   392
1070
     0
  0
DIMSTYLE
105
A89
102
{ACAD_REACTORS
330
AA8
330
AAA
330
AAC
330
AAE
330
AB0
330
AB2
330
AB4
330
AB6
330
AB8
330
ABA
330
ABC
330
ABE
330
ACD
330
ACF
330
AD1
330
AD3
330
AD5
330
AD7
102
}
330
A
100
AcDbSymbolTableRecord
100
AcDbDimStyleTableRecord
  2
small
 70
     0
 41
0.075
140
0.1
175
     1
279
     1
340
A86
1001
ACAD_DSTYLE_DIMBREAK
1070
   391
1040
0.125
1001
ACAD_DSTYLE_DIMJAG
1070
   388
1040
1.5
1001
ACAD_DSTYLE_DIMTALN
1070
   392
1070
     0
  0
ENDTAB
  0
TABLE
  2
BLOCK_RECORD
  5
1
330
0
100
AcDbSymbolTable
 70
    54
  0
BLOCK_RECORD
  5
18
330
1
100
AcDbSymbolTableRecord
100
AcDbBlockTableRecord
  2
*MODEL_SPACE
340
109
 70
     0
280
     1
281
     0
  0
BLOCK_RECORD
  5
15
330
1
100
AcDbSymbolTableRecord
100
AcDbBlockTableRecord
  2
*PAPER_SPACE
340
10A
 70
     0
280
     1
281
     0
  0
BLOCK_RECORD
  5
9A4
102
{ACAD_XDICTIONARY
360
9AD
102
}
330
1
100
AcDbSymbolTableRecord
100
AcDbBlockTableRecord
  2
A$C0F5103D6
340
0
 70
     1
280
     1
281
     0
  0
BLOCK_RECORD
  5
9B1
330
1
100
AcDbSymbolTableRecord
100
AcDbBlockTableRecord
  2
*D1
340
0
 70
     0
280
     1
281
     0
  0
BLOCK_RECORD
  5
9BE
330
1
100
AcDbSymbolTableRecord
100
AcDbBlockTableRecord
  2
*D2
340
0
 70
     0
280
     1
281
     0
  0
BLOCK_RECORD
  5
9CC
330
1
100
AcDbSymbolTableRecord
100
AcDbBlockTableRecord
  2
*D3
340
0
 70
     0
280
     1
281
     0
  0
BLOCK_RECORD
  5
9D9
330
1
100
AcDbSymbolTableRecord
100
AcDbBlockTableRecord
  2
*D4
340
0
 70
     0
280
     1
281
     0
  0
BLOCK_RECORD
  5
9E5
330
1
100
AcDbSymbolTableRecord
100
AcDbBlockTableRecord
  2
*D5
340
0
 70
     0
280
     1
281
     0
  0
BLOCK_RECORD
  5
9EE
330
1
100
AcDbSymbolTableRecord
100
AcDbBlockTableRecord
  2
*D6
340
0
 70
     0
280
     1
281
     0
  0
BLOCK_RECORD
  5
9FB
330
1
100
AcDbSymbolTableRecord
100
AcDbBlockTableRecord
  2
*D7
340
0
 70
     0
280
     1
281
     0
  0
BLOCK_RECORD
  5
A07
330
1
100
AcDbSymbolTableRecord
100
AcDbBlockTableRecord
  2
*D8
340
0
 70
     0
280
     1
281
     0
  0
BLOCK_RECORD
  5
A12
330
1
100
AcDbSymbolTableRecord
100
AcDbBlockTableRecord
  2
*D9
340
0
 70
     0
280
     1
281
     0
  0
BLOCK_RECORD
  5
A1B
330
1
100
AcDbSymbolTableRecord
100
AcDbBlockTableRecord
  2
*D10
340
0
 70
     0
280
     1
281
     0
  0
BLOCK_RECORD
  5
A26
330
1
100
AcDbSymbolTableRecord
100
AcDbBlockTableRecord
  2
*D11
340
0
 70
     0
280
     1
281
     0
  0
BLOCK_RECORD
  5
A32
330
1
100
AcDbSymbolTableRecord
100
AcDbBlockTableRecord
  2
*D12
340
0
 70
     0
280
     1
281
     0
  0
BLOCK_RECORD
  5
A3B
330
1
100
AcDbSymbolTableRecord
100
AcDbBlockTableRecord
  2
*D13
340
0
 70
     0
280
     1
281
     0
  0
BLOCK_RECORD
  5
A47
330
1
100
AcDbSymbolTableRecord
100
AcDbBlockTableRecord
  2
*D14
340
0
 70
     0
280
     1
281
     0
  0
BLOCK_RECORD
  5
A54
330
1
100
AcDbSymbolTableRecord
100
AcDbBlockTableRecord
  2
*D15
340
0
 70
     0
280
     1
281
     0
  0
BLOCK_RECORD
  5
A60
330
1
100
AcDbSymbolTableRecord
100
AcDbBlockTableRecord
  2
*D16
340
0
 70
     0
280
     1
281
     0
  0
BLOCK_RECORD
  5
A6C
330
1
100
AcDbSymbolTableRecord
100
AcDbBlockTableRecord
  2
*D17
340
0
 70
     0
280
     1
281
     0
  0
BLOCK_RECORD
  5
A79
330
1
100
AcDbSymbolTableRecord
100
AcDbBlockTableRecord
  2
*D18
340
0
 70
     0
280
     1
281
     0
  0
BLOCK_RECORD
  5
A92
330
1
100
AcDbSymbolTableRecord
100
AcDbBlockTableRecord
  2
smaller diamond
340
0
 70
     0
280
     1
281
     0
  0
BLOCK_RECORD
  5
11A3
330
1
100
AcDbSymbolTableRecord
100
AcDbBlockTableRecord
  2
*D20
340
0
 70
     0
280
     1
281
     0
  0
BLOCK_RECORD
  5
17BC
330
1
100
AcDbSymbolTableRecord
100
AcDbBlockTableRecord
  2
A$C34542D0D
340
0
 70
     0
280
     1
281
     0
  0
BLOCK_RECORD
  5
1A8F
330
1
100
AcDbSymbolTableRecord
100
AcDbBlockTableRecord
  2
A$C38DA0378
340
0
 70
     0
280
     1
281
     0
  0
BLOCK_RECORD
  5
3078
330
1
100
AcDbSymbolTableRecord
100
AcDbBlockTableRecord
  2
*D23
340
0
 70
     0
280
     1
281
     0
  0
BLOCK_RECORD
  5
3081
330
1
100
AcDbSymbolTableRecord
100
AcDbBlockTableRecord
  2
*D24
340
0
 70
     0
280
     1
281
     0
  0
BLOCK_RECORD
  5
308A
330
1
100
AcDbSymbolTableRecord
100
AcDbBlockTableRecord
  2
*D25
340
0
 70
     0
280
     1
281
     0
  0
BLOCK_RECORD
  5
3093
330
1
100
AcDbSymbolTableRecord
100
AcDbBlockTableRecord
  2
*D26
340
0
 70
     0
280
     1
281
     0
  0
BLOCK_RECORD
  5
309C
330
1
100
AcDbSymbolTableRecord
100
AcDbBlockTableRecord
  2
*D27
340
0
 70
     0
280
     1
281
     0
  0
BLOCK_RECORD
  5
30A5
330
1
100
AcDbSymbolTableRecord
100
AcDbBlockTableRecord
  2
*D28
340
0
 70
     0
280
     1
281
     0
  0
BLOCK_RECORD
  5
30AE
330
1
100
AcDbSymbolTableRecord
100
AcDbBlockTableRecord
  2
*D29
340
0
 70
     0
280
     1
281
     0
  0
BLOCK_RECORD
  5
30C2
330
1
100
AcDbSymbolTableRecord
100
AcDbBlockTableRecord
  2
*D30
340
0
 70
     0
280
     1
281
     0
  0
BLOCK_RECORD
  5
30CB
330
1
100
AcDbSymbolTableRecord
100
AcDbBlockTableRecord
  2
*D31
340
0
 70
     0
280
     1
281
     0
  0
BLOCK_RECORD
  5
30D4
330
1
100
AcDbSymbolTableRecord
100
AcDbBlockTableRecord
  2
*D32
340
0
 70
     0
280
     1
281
     0
  0
BLOCK_RECORD
  5
30DD
330
1
100
AcDbSymbolTableRecord
100
AcDbBlockTableRecord
  2
*D33
340
0
 70
     0
280
     1
281
     0
  0
BLOCK_RECORD
  5
30E6
330
1
100
AcDbSymbolTableRecord
100
AcDbBlockTableRecord
  2
*D34
340
0
 70
     0
280
     1
281
     0
  0
BLOCK_RECORD
  5
30EF
330
1
100
AcDbSymbolTableRecord
100
AcDbBlockTableRecord
  2
*D35
340
0
 70
     0
280
     1
281
     0
  0
BLOCK_RECORD
  5
30F8
330
1
100
AcDbSymbolTableRecord
100
AcDbBlockTableRecord
  2
*D36
340
0
 70
     0
280
     1
281
     0
  0
BLOCK_RECORD
  5
3101
330
1
100
AcDbSymbolTableRecord
100
AcDbBlockTableRecord
  2
*D37
340
0
 70
     0
280
     1
281
     0
  0
BLOCK_RECORD
  5
310C
330
1
100
AcDbSymbolTableRecord
100
AcDbBlockTableRecord
  2
*D38
340
0
 70
     0
280
     1
281
     0
  0
BLOCK_RECORD
  5
3117
330
1
100
AcDbSymbolTableRecord
100
AcDbBlockTableRecord
  2
*D39
340
0
 70
     0
280
     1
281
     0
  0
BLOCK_RECORD
  5
3122
330
1
100
AcDbSymbolTableRecord
100
AcDbBlockTableRecord
  2
*D40
340
0
 70
     0
280
     1
281
     0
  0
BLOCK_RECORD
  5
312D
330
1
100
AcDbSymbolTableRecord
100
AcDbBlockTableRecord
  2
*D41
340
0
 70
     0
280
     1
281
     0
  0
BLOCK_RECORD
  5
3138
330
1
100
AcDbSymbolTableRecord
100
AcDbBlockTableRecord
  2
*D42
340
0
 70
     0
280
     1
281
     0
  0
BLOCK_RECORD
  5
3143
330
1
100
AcDbSymbolTableRecord
100
AcDbBlockTableRecord
  2
*D43
340
0
 70
     0
280
     1
281
     0
  0
BLOCK_RECORD
  5
314E
330
1
100
AcDbSymbolTableRecord
100
AcDbBlockTableRecord
  2
*D44
340
0
 70
     0
280
     1
281
     0
  0
BLOCK_RECORD
  5
3157
330
1
100
AcDbSymbolTableRecord
100
AcDbBlockTableRecord
  2
*D45
340
0
 70
     0
280
     1
281
     0
  0
BLOCK_RECORD
  5
3160
330
1
100
AcDbSymbolTableRecord
100
AcDbBlockTableRecord
  2
*D46
340
0
 70
     0
280
     1
281
     0
  0
BLOCK_RECORD
  5
3169
330
1
100
AcDbSymbolTableRecord
100
AcDbBlockTableRecord
  2
*D47
340
0
 70
     0
280
     1
281
     0
  0
BLOCK_RECORD
  5
3172
330
1
100
AcDbSymbolTableRecord
100
AcDbBlockTableRecord
  2
*D48
340
0
 70
     0
280
     1
281
     0
  0
BLOCK_RECORD
  5
317B
330
1
100
AcDbSymbolTableRecord
100
AcDbBlockTableRecord
  2
*D49
340
0
 70
     0
280
     1
281
     0
  0
BLOCK_RECORD
  5
3184
330
1
100
AcDbSymbolTableRecord
100
AcDbBlockTableRecord
  2
*D50
340
0
 70
     0
280
     1
281
     0
  0
BLOCK_RECORD
  5
318D
330
1
100
AcDbSymbolTableRecord
100
AcDbBlockTableRecord
  2
*D51
340
0
 70
     0
280
     1
281
     0
  0
BLOCK_RECORD
  5
319B
330
1
100
AcDbSymbolTableRecord
100
AcDbBlockTableRecord
  2
*D52
340
0
 70
     0
280
     1
281
     0
  0
ENDTAB
  0
ENDSEC
  0
SECTION
  2
BLOCKS
  0
BLOCK
  5
2E
330
18
100
AcDbEntity
  8
0
100
AcDbBlockBegin
  2
*MODEL_SPACE
 70
     0
 10
0.0
 20
0.0
 30
0.0
  3
*MODEL_SPACE
  1

  0
ENDBLK
  5
2F
330
18
100
AcDbEntity
  8
0
100
AcDbBlockEnd
  0
BLOCK
  5
2C
330
15
100
AcDbEntity
 67
     1
  8
0
100
AcDbBlockBegin
  2
*PAPER_SPACE
 70
     0
 10
0.0
 20
0.0
 30
0.0
  3
*PAPER_SPACE
  1

  0
ENDBLK
  5
2D
330
15
100
AcDbEntity
 67
     1
  8
0
100
AcDbBlockEnd
  0
BLOCK
  5
9AF
330
9A4
100
AcDbEntity
  8
0
100
AcDbBlockBegin
  2
A$C0F5103D6
 70
     0
 10
0.0
 20
0.0
 30
0.0
  3
A$C0F5103D6
  1

  0
LINE
  5
9A5
330
9A4
100
AcDbEntity
  8
0
100
AcDbLine
 10
3.253499989579381
 20
0.0000000021285
 30
0.0
 11
0.3229999895793227
 21
0.0000000021285
 31
0.0
  0
LINE
  5
9A6
330
9A4
100
AcDbEntity
  8
0
100
AcDbLine
 10
3.253499989579381
 20
0.3110000021285
 30
0.0
 11
0.4719999895793308
 21
0.3110000021285
 31
0.0
  0
LINE
  5
9A7
330
9A4
100
AcDbEntity
  8
0
100
AcDbLine
 10
3.373999989579374
 20
0.1205000021285016
 30
0.0
 11
3.373999989579374
 21
0.1905000021285001
 31
0.0
  0
ARC
  5
9A8
330
9A4
100
AcDbEntity
  8
0
100
AcDbCircle
 10
0.5078057429737122
 20
-0.502315340256379
 30
0.0
 40
0.8141031250000029
100
AcDbArc
 50
92.52078695624824
 51
128.5913034829189
  0
ARC
  5
9A9
330
9A4
100
AcDbEntity
  8
0
100
AcDbCircle
 10
0.0118740707862202
 20
-0.0780302730723541
 30
0.0
 40
0.2123625000000159
100
AcDbArc
 50
43.07360366990042
 51
93.20531985652186
  0
ARC
  5
9AA
330
9A4
100
AcDbEntity
  8
0
100
AcDbCircle
 10
0.3160879185601928
 20
0.1990181651286154
 30
0.0
 40
0.1991381578947491
100
AcDbArc
 50
221.5250625290709
 51
271.989131899025
  0
ARC
  5
9AB
330
9A4
100
AcDbEntity
  8
0
100
AcDbCircle
 10
3.253499989579381
 20
0.1905000021285001
 30
0.0
 40
0.1204999999999998
100
AcDbArc
 50
0.0
 51
90.0
  0
ARC
  5
9AC
330
9A4
100
AcDbEntity
  8
0
100
AcDbCircle
 10
3.253499989579381
 20
0.1205000021284999
 30
0.0
 40
0.1204999999999998
100
AcDbArc
 50
270.0
 51
0.0000000000010178
  0
ENDBLK
  5
9B0
330
9A4
100
AcDbEntity
  8
0
100
AcDbBlockEnd
  0
BLOCK
  5
9BC
330
9B1
100
AcDbEntity
  8
0
100
AcDbBlockBegin
  2
*D1
 70
     1
 10
0.0
 20
0.0
 30
0.0
  3
*D1
  1

  0
LINE
  5
9B2
330
9B1
100
AcDbEntity
  8
0
 62
     0
370
    -2
100
AcDbLine
 10
24.37285187699105
 20
4.846800853362636
 30
0.0
 11
24.37285187699105
 21
5.142679484341527
 31
0.0
  0
LINE
  5
9B3
330
9B1
100
AcDbEntity
  8
0
 62
     0
370
    -2
100
AcDbLine
 10
21.57235591469699
 20
4.846800853362636
 30
0.0
 11
21.57235591469699
 21
5.142679484341527
 31
0.0
  0
LINE
  5
9B4
330
9B1
100
AcDbEntity
  8
0
 62
     0
370
    -2
100
AcDbLine
 10
24.29785187699105
 20
4.962679484341528
 30
0.0
 11
23.27140335014143
 21
4.962679484341528
 31
0.0
  0
LINE
  5
9B5
330
9B1
100
AcDbEntity
  8
0
 62
     0
370
    -2
100
AcDbLine
 10
21.64735591469698
 20
4.962679484341528
 30
0.0
 11
22.67380444154661
 21
4.962679484341528
 31
0.0
  0
SOLID
  5
9B6
330
9B1
100
AcDbEntity
  8
0
 62
     0
100
AcDbTrace
 10
24.29785187699105
 20
4.975179484341528
 30
0.0
 11
24.29785187699105
 21
4.950179484341528
 31
0.0
 12
24.37285187699105
 22
4.962679484341528
 32
0.0
 13
24.37285187699105
 23
4.962679484341528
 33
0.0
  0
SOLID
  5
9B7
330
9B1
100
AcDbEntity
  8
0
 62
     0
100
AcDbTrace
 10
21.64735591469698
 20
4.975179484341528
 30
0.0
 11
21.64735591469698
 21
4.950179484341528
 31
0.0
 12
21.57235591469699
 22
4.962679484341528
 32
0.0
 13
21.57235591469699
 23
4.962679484341528
 33
0.0
  0
MTEXT
  5
9B8
330
9B1
100
AcDbEntity
  8
0
 62
     0
100
AcDbMText
 10
22.97260389584402
 20
4.962679484341528
 30
0.0
 40
0.1
 41
0.0
 46
0.0
 71
     5
 72
     1
  1
\A1;2.8005
  7
small
 73
     1
 44
1.0
  0
POINT
  5
9B9
330
9B1
100
AcDbEntity
  8
Defpoints
 62
     0
100
AcDbPoint
 10
24.37285187699105
 20
4.784300853362636
 30
0.0
  0
POINT
  5
9BA
330
9B1
100
AcDbEntity
  8
Defpoints
 62
     0
100
AcDbPoint
 10
21.57235591469699
 20
4.784300853362636
 30
0.0
  0
POINT
  5
9BB
330
9B1
100
AcDbEntity
  8
Defpoints
 62
     0
100
AcDbPoint
 10
21.57235591469699
 20
4.962679484341528
 30
0.0
  0
ENDBLK
  5
9BD
330
9B1
100
AcDbEntity
  8
0
100
AcDbBlockEnd
  0
BLOCK
  5
9CA
330
9BE
100
AcDbEntity
  8
0
100
AcDbBlockBegin
  2
*D2
 70
     1
 10
0.0
 20
0.0
 30
0.0
  3
*D2
  1

  0
LINE
  5
9BF
330
9BE
100
AcDbEntity
  8
0
 62
     0
370
    -2
100
AcDbLine
 10
21.10035591469701
 20
4.669800853362635
 30
0.0
 11
21.10035591469701
 21
5.149449103713417
 31
0.0
  0
LINE
  5
9C0
330
9BE
100
AcDbEntity
  8
0
 62
     0
370
    -2
100
AcDbLine
 10
21.57235591469699
 20
5.025179484341528
 30
0.0
 11
21.57235591469699
 21
5.149449103713417
 31
0.0
  0
LINE
  5
9C1
330
9BE
100
AcDbEntity
  8
0
 62
     0
370
    -2
100
AcDbLine
 10
21.17535591469701
 20
4.969449103713417
 30
0.0
 11
21.49735591469699
 21
4.969449103713417
 31
0.0
  0
LINE
  5
9C2
330
9BE
100
AcDbEntity
  8
0
 62
     0
370
    -2
100
AcDbLine
 10
21.33635591469699
 20
4.969449103713417
 30
0.0
 11
21.33635591469699
 21
5.296563701257755
 31
0.0
  0
LINE
  5
9C3
330
9BE
100
AcDbEntity
  8
0
 62
     0
370
    -2
100
AcDbLine
 10
21.33635591469699
 20
5.296563701257755
 30
0.0
 11
21.516355914697
 21
5.296563701257755
 31
0.0
  0
MTEXT
  5
9C4
330
9BE
100
AcDbEntity
  8
0
 62
     0
100
AcDbMText
 10
21.81375700610218
 20
5.296563701257755
 30
0.0
 40
0.1
 41
0.0
 46
0.0
 71
     5
 72
     1
  1
\A1;0.4720
  7
small
 73
     1
 44
1.0
  0
SOLID
  5
9C5
330
9BE
100
AcDbEntity
  8
0
 62
     0
100
AcDbTrace
 10
21.17535591469701
 20
4.981949103713417
 30
0.0
 11
21.17535591469701
 21
4.956949103713417
 31
0.0
 12
21.10035591469701
 22
4.969449103713417
 32
0.0
 13
21.10035591469701
 23
4.969449103713417
 33
0.0
  0
SOLID
  5
9C6
330
9BE
100
AcDbEntity
  8
0
 62
     0
100
AcDbTrace
 10
21.49735591469699
 20
4.981949103713417
 30
0.0
 11
21.49735591469699
 21
4.956949103713417
 31
0.0
 12
21.57235591469699
 22
4.969449103713417
 32
0.0
 13
21.57235591469699
 23
4.969449103713417
 33
0.0
  0
POINT
  5
9C7
330
9BE
100
AcDbEntity
  8
Defpoints
 62
     0
100
AcDbPoint
 10
21.10035591469701
 20
4.607300853362635
 30
0.0
  0
POINT
  5
9C8
330
9BE
100
AcDbEntity
  8
Defpoints
 62
     0
100
AcDbPoint
 10
21.57235591469699
 20
4.962679484341528
 30
0.0
  0
POINT
  5
9C9
330
9BE
100
AcDbEntity
  8
Defpoints
 62
     0
100
AcDbPoint
 10
21.57235591469699
 20
4.969449103713417
 30
0.0
  0
ENDBLK
  5
9CB
330
9BE
100
AcDbEntity
  8
0
100
AcDbBlockEnd
  0
BLOCK
  5
9D7
330
9CC
100
AcDbEntity
  8
0
100
AcDbBlockBegin
  2
*D3
 70
     1
 10
0.0
 20
0.0
 30
0.0
  3
*D3
  1

  0
LINE
  5
9CD
330
9CC
100
AcDbEntity
  8
0
 62
     0
370
    -2
100
AcDbLine
 10
21.10035591469702
 20
4.151561370342107
 30
0.0
 11
21.10035591469702
 21
3.461678631460822
 31
0.0
  0
LINE
  5
9CE
330
9CC
100
AcDbEntity
  8
0
 62
     0
370
    -2
100
AcDbLine
 10
24.47435591469703
 20
4.151561370342107
 30
0.0
 11
24.47435591469703
 21
3.461678631460822
 31
0.0
  0
LINE
  5
9CF
330
9CC
100
AcDbEntity
  8
0
 62
     0
370
    -2
100
AcDbLine
 10
21.17535591469702
 20
3.641678631460822
 30
0.0
 11
22.48998892970385
 21
3.641678631460822
 31
0.0
  0
LINE
  5
9D0
330
9CC
100
AcDbEntity
  8
0
 62
     0
370
    -2
100
AcDbLine
 10
24.39935591469703
 20
3.641678631460822
 30
0.0
 11
23.0847228996902
 21
3.641678631460822
 31
0.0
  0
SOLID
  5
9D1
330
9CC
100
AcDbEntity
  8
0
 62
     0
100
AcDbTrace
 10
21.17535591469702
 20
3.654178631460822
 30
0.0
 11
21.17535591469702
 21
3.629178631460821
 31
0.0
 12
21.10035591469702
 22
3.641678631460822
 32
0.0
 13
21.10035591469702
 23
3.641678631460822
 33
0.0
  0
SOLID
  5
9D2
330
9CC
100
AcDbEntity
  8
0
 62
     0
100
AcDbTrace
 10
24.39935591469703
 20
3.654178631460822
 30
0.0
 11
24.39935591469703
 21
3.629178631460821
 31
0.0
 12
24.47435591469703
 22
3.641678631460822
 32
0.0
 13
24.47435591469703
 23
3.641678631460822
 33
0.0
  0
MTEXT
  5
9D3
330
9CC
100
AcDbEntity
  8
0
 62
     0
100
AcDbMText
 10
22.78735591469702
 20
3.641678631460822
 30
0.0
 40
0.1
 41
0.0
 46
0.0
 71
     5
 72
     1
  1
\A1;3.3740
  7
small
 73
     1
 44
1.0
  0
POINT
  5
9D4
330
9CC
100
AcDbEntity
  8
Defpoints
 62
     0
100
AcDbPoint
 10
21.10035591469702
 20
4.214061370342107
 30
0.0
  0
POINT
  5
9D5
330
9CC
100
AcDbEntity
  8
Defpoints
 62
     0
100
AcDbPoint
 10
24.47435591469703
 20
4.214061370342107
 30
0.0
  0
POINT
  5
9D6
330
9CC
100
AcDbEntity
  8
Defpoints
 62
     0
100
AcDbPoint
 10
24.47435591469703
 20
3.641678631460822
 30
0.0
  0
ENDBLK
  5
9D8
330
9CC
100
AcDbEntity
  8
0
100
AcDbBlockEnd
  0
BLOCK
  5
9E3
330
9D9
100
AcDbEntity
  8
0
100
AcDbBlockBegin
  2
*D4
 70
     1
 10
0.0
 20
0.0
 30
0.0
  3
*D4
  1

  0
LINE
  5
9DA
330
9D9
100
AcDbEntity
  8
0
 62
     0
370
    -2
100
AcDbLine
 10
21.10035591469702
 20
4.151561370342107
 30
0.0
 11
21.10035591469702
 21
3.899836661349624
 31
0.0
  0
LINE
  5
9DB
330
9D9
100
AcDbEntity
  8
0
 62
     0
370
    -2
100
AcDbLine
 10
21.26735591469703
 20
4.151561370342107
 30
0.0
 11
21.26735591469703
 21
3.899836661349624
 31
0.0
  0
LINE
  5
9DC
330
9D9
100
AcDbEntity
  8
0
 62
     0
370
    -2
100
AcDbLine
 10
21.18385591469703
 20
4.079836661349624
 30
0.0
 11
21.18385591469703
 21
3.701664765033116
 31
0.0
  0
LINE
  5
9DD
330
9D9
100
AcDbEntity
  8
0
 62
     0
370
    -2
100
AcDbLine
 10
21.18385591469703
 20
3.701664765033116
 30
0.0
 11
21.36385591469703
 21
3.701664765033116
 31
0.0
  0
MTEXT
  5
9DE
330
9D9
100
AcDbEntity
  8
0
 62
     0
100
AcDbMText
 10
21.66125700610221
 20
3.701664765033116
 30
0.0
 40
0.1
 41
0.0
 46
0.0
 71
     5
 72
     1
  1
\A1;0.1670
  7
small
 73
     1
 44
1.0
  0
LINE
  5
9DF
330
9D9
100
AcDbEntity
  8
0
 62
     0
370
    -2
100
AcDbLine
 10
21.10035591469702
 20
4.079836661349624
 30
0.0
 11
21.26735591469703
 21
4.079836661349624
 31
0.0
  0
POINT
  5
9E0
330
9D9
100
AcDbEntity
  8
Defpoints
 62
     0
100
AcDbPoint
 10
21.10035591469702
 20
4.214061370342107
 30
0.0
  0
POINT
  5
9E1
330
9D9
100
AcDbEntity
  8
Defpoints
 62
     0
100
AcDbPoint
 10
21.26735591469703
 20
4.214061370342107
 30
0.0
  0
POINT
  5
9E2
330
9D9
100
AcDbEntity
  8
Defpoints
 62
     0
100
AcDbPoint
 10
21.26735591469703
 20
4.079836661349624
 30
0.0
  0
ENDBLK
  5
9E4
330
9D9
100
AcDbEntity
  8
0
100
AcDbBlockEnd
  0
BLOCK
  5
9EC
330
9E5
100
AcDbEntity
  8
0
100
AcDbBlockBegin
  2
*D5
 70
     1
 10
0.0
 20
0.0
 30
0.0
  3
*D5
  1

  0
LINE
  5
9E6
330
9E5
100
AcDbEntity
  8
0
 62
     0
370
    -2
100
AcDbLine
 10
21.26735591469703
 20
4.151561370342107
 30
0.0
 11
21.26735591469703
 21
3.899836661349624
 31
0.0
  0
LINE
  5
9E7
330
9E5
100
AcDbEntity
  8
0
 62
     0
370
    -2
100
AcDbLine
 10
21.41645197859211
 20
4.151561370342107
 30
0.0
 11
21.41645197859211
 21
3.899836661349624
 31
0.0
  0
MTEXT
  5
9E8
330
9E5
100
AcDbEntity
  8
0
 62
     0
100
AcDbMText
 10
21.61190394664457
 20
3.803779362577455
 30
0.0
 40
0.1
 41
0.0
 46
0.0
 71
     5
 72
     1
  1
\A1;0.1491
  7
small
 73
     1
 44
1.0
  0
POINT
  5
9E9
330
9E5
100
AcDbEntity
  8
Defpoints
 62
     0
100
AcDbPoint
 10
21.26735591469703
 20
4.214061370342107
 30
0.0
  0
POINT
  5
9EA
330
9E5
100
AcDbEntity
  8
Defpoints
 62
     0
100
AcDbPoint
 10
21.41645197859211
 20
4.214061370342107
 30
0.0
  0
POINT
  5
9EB
330
9E5
100
AcDbEntity
  8
Defpoints
 62
     0
100
AcDbPoint
 10
21.41645197859211
 20
4.079836661349624
 30
0.0
  0
ENDBLK
  5
9ED
330
9E5
100
AcDbEntity
  8
0
100
AcDbBlockEnd
  0
BLOCK
  5
9F9
330
9EE
100
AcDbEntity
  8
0
100
AcDbBlockBegin
  2
*D6
 70
     1
 10
0.0
 20
0.0
 30
0.0
  3
*D6
  1

  0
LINE
  5
9EF
330
9EE
100
AcDbEntity
  8
0
 62
     0
370
    -2
100
AcDbLine
 10
21.41645197859211
 20
4.151561370342107
 30
0.0
 11
21.41645197859211
 21
3.899836661349624
 31
0.0
  0
LINE
  5
9F0
330
9EE
100
AcDbEntity
  8
0
 62
     0
370
    -2
100
AcDbLine
 10
24.35385591469704
 20
4.151561370342107
 30
0.0
 11
24.35385591469704
 21
3.899836661349624
 31
0.0
  0
LINE
  5
9F1
330
9EE
100
AcDbEntity
  8
0
 62
     0
370
    -2
100
AcDbLine
 10
21.49145197859211
 20
4.079836661349624
 30
0.0
 11
22.58693430135126
 21
4.079836661349624
 31
0.0
  0
LINE
  5
9F2
330
9EE
100
AcDbEntity
  8
0
 62
     0
370
    -2
100
AcDbLine
 10
24.27885591469704
 20
4.079836661349624
 30
0.0
 11
23.18337359193789
 21
4.079836661349624
 31
0.0
  0
SOLID
  5
9F3
330
9EE
100
AcDbEntity
  8
0
 62
     0
100
AcDbTrace
 10
21.49145197859211
 20
4.092336661349624
 30
0.0
 11
21.49145197859211
 21
4.067336661349624
 31
0.0
 12
21.41645197859211
 22
4.079836661349624
 32
0.0
 13
21.41645197859211
 23
4.079836661349624
 33
0.0
  0
SOLID
  5
9F4
330
9EE
100
AcDbEntity
  8
0
 62
     0
100
AcDbTrace
 10
24.27885591469704
 20
4.092336661349624
 30
0.0
 11
24.27885591469704
 21
4.067336661349624
 31
0.0
 12
24.35385591469704
 22
4.079836661349624
 32
0.0
 13
24.35385591469704
 23
4.079836661349624
 33
0.0
  0
MTEXT
  5
9F5
330
9EE
100
AcDbEntity
  8
0
 62
     0
100
AcDbMText
 10
22.88515394664457
 20
4.079836661349624
 30
0.0
 40
0.1
 41
0.0
 46
0.0
 71
     5
 72
     1
  1
\A1;2.9374
  7
small
 73
     1
 44
1.0
  0
POINT
  5
9F6
330
9EE
100
AcDbEntity
  8
Defpoints
 62
     0
100
AcDbPoint
 10
21.41645197859211
 20
4.214061370342107
 30
0.0
  0
POINT
  5
9F7
330
9EE
100
AcDbEntity
  8
Defpoints
 62
     0
100
AcDbPoint
 10
24.35385591469704
 20
4.214061370342107
 30
0.0
  0
POINT
  5
9F8
330
9EE
100
AcDbEntity
  8
Defpoints
 62
     0
100
AcDbPoint
 10
24.35385591469704
 20
4.079836661349624
 30
0.0
  0
ENDBLK
  5
9FA
330
9EE
100
AcDbEntity
  8
0
100
AcDbBlockEnd
  0
BLOCK
  5
A05
330
9FB
100
AcDbEntity
  8
0
100
AcDbBlockBegin
  2
*D7
 70
     1
 10
0.0
 20
0.0
 30
0.0
  3
*D7
  1

  0
LINE
  5
9FC
330
9FB
100
AcDbEntity
  8
0
 62
     0
370
    -2
100
AcDbLine
 10
24.35385591469704
 20
4.151561370342107
 30
0.0
 11
24.35385591469704
 21
3.899836661349624
 31
0.0
  0
LINE
  5
9FD
330
9FB
100
AcDbEntity
  8
0
 62
     0
370
    -2
100
AcDbLine
 10
24.47435591469703
 20
4.151561370342107
 30
0.0
 11
24.47435591469703
 21
3.899836661349624
 31
0.0
  0
LINE
  5
9FE
330
9FB
100
AcDbEntity
  8
0
 62
     0
370
    -2
100
AcDbLine
 10
24.41410591469703
 20
4.079836661349624
 30
0.0
 11
24.41410591469703
 21
3.701664765033116
 31
0.0
  0
LINE
  5
9FF
330
9FB
100
AcDbEntity
  8
0
 62
     0
370
    -2
100
AcDbLine
 10
24.41410591469703
 20
3.701664765033116
 30
0.0
 11
24.59410591469703
 21
3.701664765033116
 31
0.0
  0
MTEXT
  5
A00
330
9FB
100
AcDbEntity
  8
0
 62
     0
100
AcDbMText
 10
24.8920527086943
 20
3.701664765033116
 30
0.0
 40
0.1
 41
0.0
 46
0.0
 71
     5
 72
     1
  1
\A1;0.1205
  7
small
 73
     1
 44
1.0
  0
LINE
  5
A01
330
9FB
100
AcDbEntity
  8
0
 62
     0
370
    -2
100
AcDbLine
 10
24.35385591469704
 20
4.079836661349624
 30
0.0
 11
24.47435591469703
 21
4.079836661349624
 31
0.0
  0
POINT
  5
A02
330
9FB
100
AcDbEntity
  8
Defpoints
 62
     0
100
AcDbPoint
 10
24.35385591469704
 20
4.214061370342107
 30
0.0
  0
POINT
  5
A03
330
9FB
100
AcDbEntity
  8
Defpoints
 62
     0
100
AcDbPoint
 10
24.47435591469703
 20
4.214061370342107
 30
0.0
  0
POINT
  5
A04
330
9FB
100
AcDbEntity
  8
Defpoints
 62
     0
100
AcDbPoint
 10
24.47435591469703
 20
4.079836661349624
 30
0.0
  0
ENDBLK
  5
A06
330
9FB
100
AcDbEntity
  8
0
100
AcDbBlockEnd
  0
BLOCK
  5
A10
330
A07
100
AcDbEntity
  8
0
100
AcDbBlockBegin
  2
*D8
 70
     1
 10
0.0
 20
0.0
 30
0.0
  3
*D8
  1

  0
LINE
  5
A08
330
A07
100
AcDbEntity
  8
0
 62
     0
370
    -2
100
AcDbLine
 10
21.13464428649994
 20
4.84886860809507
 30
0.0
 11
21.20964428649994
 21
4.848868608095071
 31
0.0
  0
LINE
  5
A09
330
A07
100
AcDbEntity
  8
0
 62
     0
370
    -2
100
AcDbLine
 10
21.20964428649994
 20
4.848868608095071
 30
0.0
 11
21.24064595306892
 21
4.780575880298137
 31
0.0
  0
MTEXT
  5
A0A
330
A07
100
AcDbEntity
  8
0
 62
     0
100
AcDbMText
 10
20.79887348158862
 20
4.848868608095071
 30
0.0
 40
0.1
 41
0.0
 46
0.0
 71
     5
 72
     1
  1
\A1;R0.8141
  7
small
 73
     1
 44
1.0
  0
SOLID
  5
A0B
330
A07
100
AcDbEntity
  8
0
 62
     0
100
AcDbTrace
 10
21.25202807436841
 20
4.7857428247263
 30
0.0
 11
21.22926383176944
 21
4.775408935869975
 31
0.0
 12
21.2716476196379
 22
4.712283152501202
 32
0.0
 13
21.2716476196379
 23
4.712283152501202
 33
0.0
  0
LINE
  5
A0C
330
A07
100
AcDbEntity
  8
0
 62
     0
370
    -2
100
AcDbLine
 10
21.51816166809137
 20
3.970985510977759
 30
0.0
 11
21.69816166809137
 21
3.970985510977759
 31
0.0
  0
LINE
  5
A0D
330
A07
100
AcDbEntity
  8
0
 62
     0
370
    -2
100
AcDbLine
 10
21.60816166809136
 20
3.880985510977757
 30
0.0
 11
21.60816166809137
 21
4.060985510977758
 31
0.0
  0
POINT
  5
A0E
330
A07
100
AcDbEntity
  8
Defpoints
 62
     0
100
AcDbPoint
 10
21.2716476196379
 20
4.712283152501202
 30
0.0
  0
POINT
  5
A0F
330
A07
100
AcDbEntity
  8
Defpoints
 62
     0
100
AcDbPoint
 10
21.60816166809137
 20
3.970985510977759
 30
0.0
  0
ENDBLK
  5
A11
330
A07
100
AcDbEntity
  8
0
100
AcDbBlockEnd
  0
BLOCK
  5
A19
330
A12
100
AcDbEntity
  8
0
100
AcDbBlockBegin
  2
*D9
 70
     1
 10
0.0
 20
0.0
 30
0.0
  3
*D9
  1

  0
LINE
  5
A13
330
A12
100
AcDbEntity
  8
0
 62
     0
370
    -2
100
AcDbLine
 10
21.06100141366542
 20
4.452924728956475
 30
0.0
 11
21.13600141366542
 21
4.452924728956474
 31
0.0
  0
LINE
  5
A14
330
A12
100
AcDbEntity
  8
0
 62
     0
370
    -2
100
AcDbLine
 10
21.13600141366542
 20
4.452924728956474
 30
0.0
 11
21.16459000989098
 21
4.52226225246181
 31
0.0
  0
MTEXT
  5
A15
330
A12
100
AcDbEntity
  8
0
 62
     0
100
AcDbMText
 10
20.71578313262859
 20
4.452924728956477
 30
0.0
 40
0.1
 41
0.0
 46
0.0
 71
     5
 72
     1
  1
\A1;R0.2124
  7
small
 73
     1
 44
1.0
  0
SOLID
  5
A16
330
A12
100
AcDbEntity
  8
0
 62
     0
100
AcDbTrace
 10
21.15303375597342
 20
4.527027018499401
 30
0.0
 11
21.17614626380853
 21
4.517497486424217
 31
0.0
 12
21.19317860611653
 22
4.59159977596714
 32
0.0
 13
21.19317860611653
 23
4.59159977596714
 33
0.0
  0
POINT
  5
A17
330
A12
100
AcDbEntity
  8
Defpoints
 62
     0
100
AcDbPoint
 10
21.19317860611653
 20
4.59159977596714
 30
0.0
  0
POINT
  5
A18
330
A12
100
AcDbEntity
  8
Defpoints
 62
     0
100
AcDbPoint
 10
21.11222999590387
 20
4.395270578161784
 30
0.0
  0
ENDBLK
  5
A1A
330
A12
100
AcDbEntity
  8
0
100
AcDbBlockEnd
  0
BLOCK
  5
A24
330
A1B
100
AcDbEntity
  8
0
100
AcDbBlockBegin
  2
*D10
 70
     1
 10
0.0
 20
0.0
 30
0.0
  3
*D10
  1

  0
LINE
  5
A1C
330
A1B
100
AcDbEntity
  8
0
 62
     0
370
    -2
100
AcDbLine
 10
21.09159879520194
 20
4.300340056785728
 30
0.0
 11
21.16659879520194
 21
4.300340056785726
 31
0.0
  0
LINE
  5
A1D
330
A1B
100
AcDbEntity
  8
0
 62
     0
370
    -2
100
AcDbLine
 10
21.16659879520194
 20
4.300340056785726
 30
0.0
 11
21.26359286293479
 21
4.444748571665257
 31
0.0
  0
MTEXT
  5
A1E
330
A1B
100
AcDbEntity
  8
0
 62
     0
100
AcDbMText
 10
20.75582799029062
 20
4.30034005678573
 30
0.0
 40
0.1
 41
0.0
 46
0.0
 71
     5
 72
     1
  1
\A1;R0.1991
  7
small
 73
     1
 44
1.0
  0
SOLID
  5
A1F
330
A1B
100
AcDbEntity
  8
0
 62
     0
100
AcDbTrace
 10
21.25321623174794
 20
4.451718186088733
 30
0.0
 11
21.27396949412165
 21
4.437778957241784
 31
0.0
 12
21.30541054947565
 22
4.507008358786409
 32
0.0
 13
21.30541054947565
 23
4.507008358786409
 33
0.0
  0
LINE
  5
A20
330
A1B
100
AcDbEntity
  8
0
 62
     0
370
    -2
100
AcDbLine
 10
21.32644384367785
 20
4.672319016362749
 30
0.0
 11
21.50644384367784
 21
4.672319016362749
 31
0.0
  0
LINE
  5
A21
330
A1B
100
AcDbEntity
  8
0
 62
     0
370
    -2
100
AcDbLine
 10
21.41644384367785
 20
4.582319016362749
 30
0.0
 11
21.41644384367785
 21
4.76231901636275
 31
0.0
  0
POINT
  5
A22
330
A1B
100
AcDbEntity
  8
Defpoints
 62
     0
100
AcDbPoint
 10
21.30541054947565
 20
4.507008358786409
 30
0.0
  0
POINT
  5
A23
330
A1B
100
AcDbEntity
  8
Defpoints
 62
     0
100
AcDbPoint
 10
21.41644384367785
 20
4.672319016362749
 30
0.0
  0
ENDBLK
  5
A25
330
A1B
100
AcDbEntity
  8
0
100
AcDbBlockEnd
  0
BLOCK
  5
A30
330
A26
100
AcDbEntity
  8
0
100
AcDbBlockBegin
  2
*D11
 70
     1
 10
0.0
 20
0.0
 30
0.0
  3
*D11
  1

  0
LINE
  5
A27
330
A26
100
AcDbEntity
  8
0
 62
     0
370
    -2
100
AcDbLine
 10
25.05698916678668
 20
4.410800853362636
 30
0.0
 11
25.05698916678668
 21
4.127107797993598
 31
0.0
  0
LINE
  5
A28
330
A26
100
AcDbEntity
  8
0
 62
     0
370
    -2
100
AcDbLine
 10
25.08198916678668
 20
4.410800853362636
 30
0.0
 11
25.08198916678668
 21
4.127107797993598
 31
0.0
  0
LINE
  5
A29
330
A26
100
AcDbEntity
  8
0
 62
     0
370
    -2
100
AcDbLine
 10
25.06948916678668
 20
4.307107797993598
 30
0.0
 11
25.06948916678668
 21
3.877878602904921
 31
0.0
  0
LINE
  5
A2A
330
A26
100
AcDbEntity
  8
0
 62
     0
370
    -2
100
AcDbLine
 10
25.06948916678668
 20
3.877878602904921
 30
0.0
 11
25.24948916678668
 21
3.877878602904921
 31
0.0
  0
MTEXT
  5
A2B
330
A26
100
AcDbEntity
  8
0
 62
     0
100
AcDbMText
 10
25.54689025819186
 20
3.877878602904921
 30
0.0
 40
0.1
 41
0.0
 46
0.0
 71
     5
 72
     1
  1
\A1;0.0250
  7
small
 73
     1
 44
1.0
  0
LINE
  5
A2C
330
A26
100
AcDbEntity
  8
0
 62
     0
370
    -2
100
AcDbLine
 10
25.05698916678668
 20
4.307107797993598
 30
0.0
 11
25.08198916678668
 21
4.307107797993598
 31
0.0
  0
POINT
  5
A2D
330
A26
100
AcDbEntity
  8
Defpoints
 62
     0
100
AcDbPoint
 10
25.05698916678668
 20
4.473300853362636
 30
0.0
  0
POINT
  5
A2E
330
A26
100
AcDbEntity
  8
Defpoints
 62
     0
100
AcDbPoint
 10
25.08198916678668
 20
4.473300853362636
 30
0.0
  0
POINT
  5
A2F
330
A26
100
AcDbEntity
  8
Defpoints
 62
     0
100
AcDbPoint
 10
25.08198916678668
 20
4.307107797993598
 30
0.0
  0
ENDBLK
  5
A31
330
A26
100
AcDbEntity
  8
0
100
AcDbBlockEnd
  0
BLOCK
  5
A39
330
A32
100
AcDbEntity
  8
0
100
AcDbBlockBegin
  2
*D12
 70
     1
 10
0.0
 20
0.0
 30
0.0
  3
*D12
  1

  0
LINE
  5
A33
330
A32
100
AcDbEntity
  8
0
 62
     0
370
    -2
100
AcDbLine
 10
25.14448916678668
 20
4.784300853362636
 30
0.0
 11
25.48691055815882
 21
4.784300853362636
 31
0.0
  0
LINE
  5
A34
330
A32
100
AcDbEntity
  8
0
 62
     0
370
    -2
100
AcDbLine
 10
25.14448916678668
 20
4.473300853362636
 30
0.0
 11
25.48691055815882
 21
4.473300853362636
 31
0.0
  0
MTEXT
  5
A35
330
A32
100
AcDbEntity
  8
0
 62
     0
100
AcDbMText
 10
25.30691055815883
 20
4.62880085336264
 30
0.0
 40
0.1
 41
0.0
 46
0.0
 71
     5
 72
     1
  1
\A1;0.3110
  7
small
 73
     1
 44
1.0
  0
POINT
  5
A36
330
A32
100
AcDbEntity
  8
Defpoints
 62
     0
100
AcDbPoint
 10
25.08198916678668
 20
4.784300853362636
 30
0.0
  0
POINT
  5
A37
330
A32
100
AcDbEntity
  8
Defpoints
 62
     0
100
AcDbPoint
 10
25.08198916678668
 20
4.473300853362636
 30
0.0
  0
POINT
  5
A38
330
A32
100
AcDbEntity
  8
Defpoints
 62
     0
100
AcDbPoint
 10
25.30691055815883
 20
4.473300853362636
 30
0.0
  0
ENDBLK
  5
A3A
330
A32
100
AcDbEntity
  8
0
100
AcDbBlockEnd
  0
BLOCK
  5
A45
330
A3B
100
AcDbEntity
  8
0
100
AcDbBlockBegin
  2
*D13
 70
     1
 10
0.0
 20
0.0
 30
0.0
  3
*D13
  1

  0
LINE
  5
A3C
330
A3B
100
AcDbEntity
  8
0
 62
     0
370
    -2
100
AcDbLine
 10
21.10035591469701
 20
6.126165382729726
 30
0.0
 11
21.10035591469701
 21
6.535825291628722
 31
0.0
  0
LINE
  5
A3D
330
A3B
100
AcDbEntity
  8
0
 62
     0
370
    -2
100
AcDbLine
 10
21.0563558915612
 20
6.120165382729719
 30
0.0
 11
21.0563558915612
 21
6.535825291628722
 31
0.0
  0
LINE
  5
A3E
330
A3B
100
AcDbEntity
  8
0
 62
     0
370
    -2
100
AcDbLine
 10
21.07835590312911
 20
6.355825291628723
 30
0.0
 11
21.07835590312911
 21
6.682939889173061
 31
0.0
  0
LINE
  5
A3F
330
A3B
100
AcDbEntity
  8
0
 62
     0
370
    -2
100
AcDbLine
 10
21.07835590312911
 20
6.682939889173061
 30
0.0
 11
21.25835590312911
 21
6.682939889173061
 31
0.0
  0
MTEXT
  5
A40
330
A3B
100
AcDbEntity
  8
0
 62
     0
100
AcDbMText
 10
21.55575699453429
 20
6.682939889173061
 30
0.0
 40
0.1
 41
0.0
 46
0.0
 71
     5
 72
     1
  1
\A1;0.0440
  7
small
 73
     1
 44
1.0
  0
LINE
  5
A41
330
A3B
100
AcDbEntity
  8
0
 62
     0
370
    -2
100
AcDbLine
 10
21.10035591469701
 20
6.355825291628723
 30
0.0
 11
21.0563558915612
 21
6.355825291628723
 31
0.0
  0
POINT
  5
A42
330
A3B
100
AcDbEntity
  8
Defpoints
 62
     0
100
AcDbPoint
 10
21.10035591469701
 20
6.063665382729726
 30
0.0
  0
POINT
  5
A43
330
A3B
100
AcDbEntity
  8
Defpoints
 62
     0
100
AcDbPoint
 10
21.0563558915612
 20
6.057665382729719
 30
0.0
  0
POINT
  5
A44
330
A3B
100
AcDbEntity
  8
Defpoints
 62
     0
100
AcDbPoint
 10
21.0563558915612
 20
6.355825291628723
 30
0.0
  0
ENDBLK
  5
A46
330
A3B
100
AcDbEntity
  8
0
100
AcDbBlockEnd
  0
BLOCK
  5
A52
330
A47
100
AcDbEntity
  8
0
100
AcDbBlockBegin
  2
*D14
 70
     1
 10
0.0
 20
0.0
 30
0.0
  3
*D14
  1

  0
LINE
  5
A48
330
A47
100
AcDbEntity
  8
0
 62
     0
370
    -2
100
AcDbLine
 10
21.0563558915612
 20
6.120165382729719
 30
0.0
 11
21.0563558915612
 21
6.535825291628722
 31
0.0
  0
LINE
  5
A49
330
A47
100
AcDbEntity
  8
0
 62
     0
370
    -2
100
AcDbLine
 10
19.9263558915612
 20
6.06816538272972
 30
0.0
 11
19.9263558915612
 21
6.535825291628722
 31
0.0
  0
LINE
  5
A4A
330
A47
100
AcDbEntity
  8
0
 62
     0
370
    -2
100
AcDbLine
 10
20.9813558915612
 20
6.355825291628723
 30
0.0
 11
20.78405029810963
 21
6.355825291628723
 31
0.0
  0
LINE
  5
A4B
330
A47
100
AcDbEntity
  8
0
 62
     0
370
    -2
100
AcDbLine
 10
20.0013558915612
 20
6.355825291628723
 30
0.0
 11
20.19866148501277
 21
6.355825291628723
 31
0.0
  0
SOLID
  5
A4C
330
A47
100
AcDbEntity
  8
0
 62
     0
100
AcDbTrace
 10
20.9813558915612
 20
6.368325291628723
 30
0.0
 11
20.9813558915612
 21
6.343325291628723
 31
0.0
 12
21.0563558915612
 22
6.355825291628723
 32
0.0
 13
21.0563558915612
 23
6.355825291628723
 33
0.0
  0
SOLID
  5
A4D
330
A47
100
AcDbEntity
  8
0
 62
     0
100
AcDbTrace
 10
20.0013558915612
 20
6.368325291628723
 30
0.0
 11
20.0013558915612
 21
6.343325291628723
 31
0.0
 12
19.9263558915612
 22
6.355825291628723
 32
0.0
 13
19.9263558915612
 23
6.355825291628723
 33
0.0
  0
MTEXT
  5
A4E
330
A47
100
AcDbEntity
  8
0
 62
     0
100
AcDbMText
 10
20.4913558915612
 20
6.355825291628723
 30
0.0
 40
0.1
 41
0.0
 46
0.0
 71
     5
 72
     1
  1
\A1;1.1300
  7
small
 73
     1
 44
1.0
  0
POINT
  5
A4F
330
A47
100
AcDbEntity
  8
Defpoints
 62
     0
100
AcDbPoint
 10
21.0563558915612
 20
6.057665382729719
 30
0.0
  0
POINT
  5
A50
330
A47
100
AcDbEntity
  8
Defpoints
 62
     0
100
AcDbPoint
 10
19.9263558915612
 20
6.00566538272972
 30
0.0
  0
POINT
  5
A51
330
A47
100
AcDbEntity
  8
Defpoints
 62
     0
100
AcDbPoint
 10
19.9263558915612
 20
6.355825291628723
 30
0.0
  0
ENDBLK
  5
A53
330
A47
100
AcDbEntity
  8
0
100
AcDbBlockEnd
  0
BLOCK
  5
A5E
330
A54
100
AcDbEntity
  8
0
100
AcDbBlockBegin
  2
*D15
 70
     1
 10
0.0
 20
0.0
 30
0.0
  3
*D15
  1

  0
LINE
  5
A55
330
A54
100
AcDbEntity
  8
0
 62
     0
370
    -2
100
AcDbLine
 10
19.9263558915612
 20
6.06816538272972
 30
0.0
 11
19.9263558915612
 21
6.535825291628722
 31
0.0
  0
LINE
  5
A56
330
A54
100
AcDbEntity
  8
0
 62
     0
370
    -2
100
AcDbLine
 10
19.8833558915612
 20
6.108165382729719
 30
0.0
 11
19.8833558915612
 21
6.535825291628722
 31
0.0
  0
LINE
  5
A57
330
A54
100
AcDbEntity
  8
0
 62
     0
370
    -2
100
AcDbLine
 10
19.9048558915612
 20
6.355825291628723
 30
0.0
 11
19.9048558915612
 21
6.683008101997072
 31
0.0
  0
LINE
  5
A58
330
A54
100
AcDbEntity
  8
0
 62
     0
370
    -2
100
AcDbLine
 10
19.9048558915612
 20
6.683008101997072
 30
0.0
 11
20.0848558915612
 21
6.683008101997072
 31
0.0
  0
MTEXT
  5
A59
330
A54
100
AcDbEntity
  8
0
 62
     0
100
AcDbMText
 10
20.38225698296638
 20
6.683008101997072
 30
0.0
 40
0.1
 41
0.0
 46
0.0
 71
     5
 72
     1
  1
\A1;0.0430
  7
small
 73
     1
 44
1.0
  0
LINE
  5
A5A
330
A54
100
AcDbEntity
  8
0
 62
     0
370
    -2
100
AcDbLine
 10
19.9263558915612
 20
6.355825291628723
 30
0.0
 11
19.8833558915612
 21
6.355825291628723
 31
0.0
  0
POINT
  5
A5B
330
A54
100
AcDbEntity
  8
Defpoints
 62
     0
100
AcDbPoint
 10
19.9263558915612
 20
6.00566538272972
 30
0.0
  0
POINT
  5
A5C
330
A54
100
AcDbEntity
  8
Defpoints
 62
     0
100
AcDbPoint
 10
19.8833558915612
 20
6.045665382729719
 30
0.0
  0
POINT
  5
A5D
330
A54
100
AcDbEntity
  8
Defpoints
 62
     0
100
AcDbPoint
 10
19.8833558915612
 20
6.355825291628723
 30
0.0
  0
ENDBLK
  5
A5F
330
A54
100
AcDbEntity
  8
0
100
AcDbBlockEnd
  0
BLOCK
  5
A6A
330
A60
100
AcDbEntity
  8
0
100
AcDbBlockBegin
  2
*D16
 70
     1
 10
0.0
 20
0.0
 30
0.0
  3
*D16
  1

  0
LINE
  5
A61
330
A60
100
AcDbEntity
  8
0
 62
     0
370
    -2
100
AcDbLine
 10
19.8833558915612
 20
6.108165382729719
 30
0.0
 11
19.8833558915612
 21
6.535825291628722
 31
0.0
  0
LINE
  5
A62
330
A60
100
AcDbEntity
  8
0
 62
     0
370
    -2
100
AcDbLine
 10
19.8113558915612
 20
6.02716538272972
 30
0.0
 11
19.8113558915612
 21
6.535825291628722
 31
0.0
  0
LINE
  5
A63
330
A60
100
AcDbEntity
  8
0
 62
     0
370
    -2
100
AcDbLine
 10
19.8473558915612
 20
6.355825291628723
 30
0.0
 11
19.8473558915612
 21
6.829906241439856
 31
0.0
  0
LINE
  5
A64
330
A60
100
AcDbEntity
  8
0
 62
     0
370
    -2
100
AcDbLine
 10
19.8473558915612
 20
6.829906241439856
 30
0.0
 11
20.0273558915612
 21
6.829906241439856
 31
0.0
  0
MTEXT
  5
A65
330
A60
100
AcDbEntity
  8
0
 62
     0
100
AcDbMText
 10
20.32475698296638
 20
6.829906241439856
 30
0.0
 40
0.1
 41
0.0
 46
0.0
 71
     5
 72
     1
  1
\A1;0.0720
  7
small
 73
     1
 44
1.0
  0
LINE
  5
A66
330
A60
100
AcDbEntity
  8
0
 62
     0
370
    -2
100
AcDbLine
 10
19.8833558915612
 20
6.355825291628723
 30
0.0
 11
19.8113558915612
 21
6.355825291628723
 31
0.0
  0
POINT
  5
A67
330
A60
100
AcDbEntity
  8
Defpoints
 62
     0
100
AcDbPoint
 10
19.8833558915612
 20
6.045665382729719
 30
0.0
  0
POINT
  5
A68
330
A60
100
AcDbEntity
  8
Defpoints
 62
     0
100
AcDbPoint
 10
19.8113558915612
 20
5.96466538272972
 30
0.0
  0
POINT
  5
A69
330
A60
100
AcDbEntity
  8
Defpoints
 62
     0
100
AcDbPoint
 10
19.8113558915612
 20
6.355825291628723
 30
0.0
  0
ENDBLK
  5
A6B
330
A60
100
AcDbEntity
  8
0
100
AcDbBlockEnd
  0
BLOCK
  5
A77
330
A6C
100
AcDbEntity
  8
0
100
AcDbBlockBegin
  2
*D17
 70
     1
 10
0.0
 20
0.0
 30
0.0
  3
*D17
  1

  0
LINE
  5
A6D
330
A6C
100
AcDbEntity
  8
0
 62
     0
370
    -2
100
AcDbLine
 10
19.8113558915612
 20
5.90216538272972
 30
0.0
 11
19.8113558915612
 21
5.676820102778353
 31
0.0
  0
LINE
  5
A6E
330
A6C
100
AcDbEntity
  8
0
 62
     0
370
    -2
100
AcDbLine
 10
21.30351002174753
 20
5.90216538272972
 30
0.0
 11
21.30351002174753
 21
5.676820102778353
 31
0.0
  0
LINE
  5
A6F
330
A6C
100
AcDbEntity
  8
0
 62
     0
370
    -2
100
AcDbLine
 10
19.8863558915612
 20
5.856820102778352
 30
0.0
 11
20.26507961422599
 21
5.856820102778352
 31
0.0
  0
LINE
  5
A70
330
A6C
100
AcDbEntity
  8
0
 62
     0
370
    -2
100
AcDbLine
 10
21.22851002174753
 20
5.856820102778352
 30
0.0
 11
20.84978629908274
 21
5.856820102778352
 31
0.0
  0
SOLID
  5
A71
330
A6C
100
AcDbEntity
  8
0
 62
     0
100
AcDbTrace
 10
19.8863558915612
 20
5.869320102778353
 30
0.0
 11
19.8863558915612
 21
5.844320102778352
 31
0.0
 12
19.8113558915612
 22
5.856820102778352
 32
0.0
 13
19.8113558915612
 23
5.856820102778352
 33
0.0
  0
SOLID
  5
A72
330
A6C
100
AcDbEntity
  8
0
 62
     0
100
AcDbTrace
 10
21.22851002174753
 20
5.869320102778353
 30
0.0
 11
21.22851002174753
 21
5.844320102778352
 31
0.0
 12
21.30351002174753
 22
5.856820102778352
 32
0.0
 13
21.30351002174753
 23
5.856820102778352
 33
0.0
  0
MTEXT
  5
A73
330
A6C
100
AcDbEntity
  8
0
 62
     0
100
AcDbMText
 10
20.55743295665437
 20
5.856820102778352
 30
0.0
 40
0.1
 41
0.0
 46
0.0
 71
     5
 72
     1
  1
\A1;1.4922
  7
small
 73
     1
 44
1.0
  0
POINT
  5
A74
330
A6C
100
AcDbEntity
  8
Defpoints
 62
     0
100
AcDbPoint
 10
19.8113558915612
 20
5.96466538272972
 30
0.0
  0
POINT
  5
A75
330
A6C
100
AcDbEntity
  8
Defpoints
 62
     0
100
AcDbPoint
 10
21.30351002174753
 20
5.96466538272972
 30
0.0
  0
POINT
  5
A76
330
A6C
100
AcDbEntity
  8
Defpoints
 62
     0
100
AcDbPoint
 10
21.30351002174753
 20
5.856820102778352
 30
0.0
  0
ENDBLK
  5
A78
330
A6C
100
AcDbEntity
  8
0
100
AcDbBlockEnd
  0
BLOCK
  5
A83
330
A79
100
AcDbEntity
  8
0
100
AcDbBlockBegin
  2
*D18
 70
     1
 10
0.0
 20
0.0
 30
0.0
  3
*D18
  1

  0
LINE
  5
A7A
330
A79
100
AcDbEntity
  8
0
 62
     0
370
    -2
100
AcDbLine
 10
19.8208558915612
 20
6.045665382729719
 30
0.0
 11
19.53950007245248
 21
6.045665382729719
 31
0.0
  0
LINE
  5
A7B
330
A79
100
AcDbEntity
  8
0
 62
     0
370
    -2
100
AcDbLine
 10
19.7488558915612
 20
5.96466538272972
 30
0.0
 11
19.53950007245248
 21
5.96466538272972
 31
0.0
  0
LINE
  5
A7C
330
A79
100
AcDbEntity
  8
0
 62
     0
370
    -2
100
AcDbLine
 10
19.71950007245248
 20
6.005165382729719
 30
0.0
 11
19.39238547490814
 21
6.005165382729719
 31
0.0
  0
LINE
  5
A7D
330
A79
100
AcDbEntity
  8
0
 62
     0
370
    -2
100
AcDbLine
 10
19.39238547490814
 20
6.005165382729719
 30
0.0
 11
19.21238547490814
 21
6.005165382729719
 31
0.0
  0
MTEXT
  5
A7E
330
A79
100
AcDbEntity
  8
0
 62
     0
100
AcDbMText
 10
18.91498438350296
 20
6.005165382729723
 30
0.0
 40
0.1
 41
0.0
 46
0.0
 71
     5
 72
     1
  1
\A1;0.0810
  7
small
 73
     1
 44
1.0
  0
LINE
  5
A7F
330
A79
100
AcDbEntity
  8
0
 62
     0
370
    -2
100
AcDbLine
 10
19.71950007245248
 20
6.045665382729719
 30
0.0
 11
19.71950007245248
 21
5.96466538272972
 31
0.0
  0
POINT
  5
A80
330
A79
100
AcDbEntity
  8
Defpoints
 62
     0
100
AcDbPoint
 10
19.8833558915612
 20
6.045665382729719
 30
0.0
  0
POINT
  5
A81
330
A79
100
AcDbEntity
  8
Defpoints
 62
     0
100
AcDbPoint
 10
19.8113558915612
 20
5.96466538272972
 30
0.0
  0
POINT
  5
A82
330
A79
100
AcDbEntity
  8
Defpoints
 62
     0
100
AcDbPoint
 10
19.71950007245248
 20
5.96466538272972
 30
0.0
  0
ENDBLK
  5
A84
330
A79
100
AcDbEntity
  8
0
100
AcDbBlockEnd
  0
BLOCK
  5
AD8
330
A92
100
AcDbEntity
  8
0
100
AcDbBlockBegin
  2
smaller diamond
 70
     0
 10
0.0
 20
0.0
 30
0.0
  3
smaller diamond
  1

  0
LINE
  5
A93
330
A92
100
AcDbEntity
  8
0
100
AcDbLine
 10
24.35385591469704
 20
4.473300853362636
 30
0.0
 11
21.42335591469698
 21
4.473300853362636
 31
0.0
  0
LINE
  5
A94
330
A92
100
AcDbEntity
  8
0
100
AcDbLine
 10
24.35385591469704
 20
4.784300853362636
 30
0.0
 11
21.57235591469699
 21
4.784300853362636
 31
0.0
  0
LINE
  5
A95
330
A92
100
AcDbEntity
  8
0
100
AcDbLine
 10
24.47435591469703
 20
4.593800853362638
 30
0.0
 11
24.47435591469703
 21
4.663800853362636
 31
0.0
  0
ARC
  5
A96
330
A92
100
AcDbEntity
  8
0
100
AcDbCircle
 10
21.60816166809137
 20
3.970985510977757
 30
0.0
 40
0.8141031250000029
100
AcDbArc
 50
92.5207869562482
 51
128.5913034829189
  0
ARC
  5
A97
330
A92
100
AcDbEntity
  8
0
100
AcDbCircle
 10
21.11222999590387
 20
4.395270578161782
 30
0.0
 40
0.2123625000000159
100
AcDbArc
 50
43.07360366990042
 51
93.20531985652186
  0
ARC
  5
A98
330
A92
100
AcDbEntity
  8
0
100
AcDbCircle
 10
21.41644384367785
 20
4.672319016362751
 30
0.0
 40
0.1991381578947491
100
AcDbArc
 50
221.5250625290709
 51
271.989131899025
  0
ARC
  5
A99
330
A92
100
AcDbEntity
  8
0
100
AcDbCircle
 10
24.35385591469704
 20
4.663800853362636
 30
0.0
 40
0.1204999999999998
100
AcDbArc
 50
0.0
 51
90.0
  0
ARC
  5
A9A
330
A92
100
AcDbEntity
  8
0
100
AcDbCircle
 10
24.35385591469704
 20
4.593800853362636
 30
0.0
 40
0.1204999999999998
100
AcDbArc
 50
270.0
 51
0.0000000000010178
  0
LINE
  5
A9B
330
A92
100
AcDbEntity
  8
0
100
AcDbLine
 10
25.08198916678668
 20
4.473300853362636
 30
0.0
 11
25.05698916678668
 21
4.473300853362636
 31
0.0
  0
LINE
  5
A9C
330
A92
100
AcDbEntity
  8
0
100
AcDbLine
 10
25.08198916678668
 20
4.784300853362636
 30
0.0
 11
25.05698916678668
 21
4.784300853362636
 31
0.0
  0
LINE
  5
A9D
330
A92
100
AcDbEntity
  8
0
100
AcDbLine
 10
25.08198916678668
 20
4.473300853362636
 30
0.0
 11
25.08198916678668
 21
4.784300853362636
 31
0.0
  0
LINE
  5
A9E
330
A92
100
AcDbEntity
  8
0
100
AcDbLine
 10
25.05698916678668
 20
4.593800853362636
 30
0.0
 11
25.08198916678668
 21
4.593800853362636
 31
0.0
  0
LINE
  5
A9F
330
A92
100
AcDbEntity
  8
0
100
AcDbLine
 10
25.05698916678668
 20
4.663800853362642
 30
0.0
 11
25.08198916678668
 21
4.663800853362642
 31
0.0
  0
LINE
  5
AA0
330
A92
100
AcDbEntity
  8
0
100
AcDbLine
 10
25.05698916678668
 20
4.473300853362636
 30
0.0
 11
25.05698916678668
 21
4.784300853362636
 31
0.0
  0
LINE
  5
AA1
330
A92
100
AcDbEntity
  8
0
100
AcDbLine
 10
21.10035591469702
 20
4.239061370342107
 30
0.0
 11
21.10035591469702
 21
4.214061370342107
 31
0.0
  0
LINE
  5
AA2
330
A92
100
AcDbEntity
  8
0
100
AcDbLine
 10
24.47435591469703
 20
4.239061370342107
 30
0.0
 11
24.47435591469703
 21
4.214061370342107
 31
0.0
  0
LINE
  5
AA3
330
A92
100
AcDbEntity
  8
0
100
AcDbLine
 10
24.47435591469703
 20
4.239061370342107
 30
0.0
 11
21.10035591469702
 21
4.239061370342107
 31
0.0
  0
LINE
  5
AA4
330
A92
100
AcDbEntity
  8
0
100
AcDbLine
 10
24.47435591469703
 20
4.214061370342107
 30
0.0
 11
21.10035591469702
 21
4.214061370342107
 31
0.0
  0
LINE
  5
AA5
330
A92
100
AcDbEntity
  8
0
100
AcDbLine
 10
24.35385591469704
 20
4.214061370342107
 30
0.0
 11
24.35385591469704
 21
4.239061370342107
 31
0.0
  0
LINE
  5
AA6
330
A92
100
AcDbEntity
  8
0
100
AcDbLine
 10
21.41645197859211
 20
4.214061370342107
 30
0.0
 11
21.41645197859211
 21
4.239061370342107
 31
0.0
  0
LINE
  5
AA7
330
A92
100
AcDbEntity
  8
0
100
AcDbLine
 10
21.26735591469703
 20
4.214061370342107
 30
0.0
 11
21.26735591469703
 21
4.239061370342107
 31
0.0
  0
DIMENSION
  5
AA8
102
{ACAD_XDICTIONARY
360
AA9
102
}
330
A92
100
AcDbEntity
  8
0
100
AcDbDimension
280
     0
  2
*D1
 10
21.57235591469699
 20
4.962679484341528
 30
0.0
 11
22.97260389584402
 21
4.962679484341528
 31
0.0
 70
    32
 71
     5
 42
2.800495962294064
 73
     0
 74
     0
 75
     0
  3
small
100
AcDbAlignedDimension
 13
24.37285187699105
 23
4.784300853362636
 33
0.0
 14
21.57235591469699
 24
4.784300853362636
 34
0.0
100
AcDbRotatedDimension
  0
DIMENSION
  5
AAA
102
{ACAD_XDICTIONARY
360
AAB
102
}
330
A92
100
AcDbEntity
  8
0
100
AcDbDimension
280
     0
  2
*D2
 10
21.57235591469699
 20
4.969449103713417
 30
0.0
 11
21.60635591469699
 21
5.296563701257755
 31
0.0
 70
    32
 71
     5
 42
0.4719999999999765
 73
     0
 74
     0
 75
     0
  3
small
100
AcDbAlignedDimension
 13
21.10035591469701
 23
4.607300853362635
 33
0.0
 14
21.57235591469699
 24
4.962679484341528
 34
0.0
100
AcDbRotatedDimension
  0
DIMENSION
  5
AAC
102
{ACAD_XDICTIONARY
360
AAD
102
}
330
A92
100
AcDbEntity
  8
0
100
AcDbDimension
280
     0
  2
*D3
 10
24.47435591469703
 20
3.641678631460822
 30
0.0
 11
22.78735591469702
 21
3.641678631460822
 31
0.0
 70
    32
 71
     5
 42
3.374000000000009
 73
     0
 74
     0
 75
     0
  3
small
100
AcDbAlignedDimension
 13
21.10035591469702
 23
4.214061370342107
 33
0.0
 14
24.47435591469703
 24
4.214061370342107
 34
0.0
100
AcDbRotatedDimension
  0
DIMENSION
  5
AAE
102
{ACAD_XDICTIONARY
360
AAF
102
}
330
A92
100
AcDbEntity
  8
0
100
AcDbDimension
280
     0
  2
*D4
 10
21.26735591469703
 20
4.079836661349624
 30
0.0
 11
21.45385591469703
 21
3.701664765033116
 31
0.0
 70
   160
 71
     5
 42
0.1670000000000158
 73
     0
 74
     0
 75
     0
  3
small
100
AcDbAlignedDimension
 13
21.10035591469702
 23
4.214061370342107
 33
0.0
 14
21.26735591469703
 24
4.214061370342107
 34
0.0
100
AcDbRotatedDimension
  0
DIMENSION
  5
AB0
102
{ACAD_XDICTIONARY
360
AB1
102
}
330
A92
100
AcDbEntity
  8
0
100
AcDbDimension
280
     0
  2
*D5
 10
21.41645197859211
 20
4.079836661349624
 30
0.0
 11
21.61190394664457
 21
3.803779362577455
 31
0.0
 70
   160
 71
     5
 42
0.1490960638950725
 73
     0
 74
     0
 75
     0
  3
small
100
AcDbAlignedDimension
 13
21.26735591469703
 23
4.214061370342107
 33
0.0
 14
21.41645197859211
 24
4.214061370342107
 34
0.0
100
AcDbRotatedDimension
  0
DIMENSION
  5
AB2
102
{ACAD_XDICTIONARY
360
AB3
102
}
330
A92
100
AcDbEntity
  8
0
100
AcDbDimension
280
     0
  2
*D6
 10
24.35385591469704
 20
4.079836661349624
 30
0.0
 11
22.88515394664457
 21
4.079836661349624
 31
0.0
 70
    32
 71
     5
 42
2.937403936104928
 73
     0
 74
     0
 75
     0
  3
small
100
AcDbAlignedDimension
 13
21.41645197859211
 23
4.214061370342107
 33
0.0
 14
24.35385591469704
 24
4.214061370342107
 34
0.0
100
AcDbRotatedDimension
  0
DIMENSION
  5
AB4
102
{ACAD_XDICTIONARY
360
AB5
102
}
330
A92
100
AcDbEntity
  8
0
100
AcDbDimension
280
     0
  2
*D7
 10
24.47435591469703
 20
4.079836661349624
 30
0.0
 11
24.68410591469703
 21
3.701664765033116
 31
0.0
 70
   160
 71
     5
 42
0.1204999999999927
 73
     0
 74
     0
 75
     0
  3
small
100
AcDbAlignedDimension
 13
24.35385591469704
 23
4.214061370342107
 33
0.0
 14
24.47435591469703
 24
4.214061370342107
 34
0.0
100
AcDbRotatedDimension
  0
DIMENSION
  5
AB6
102
{ACAD_XDICTIONARY
360
AB7
102
}
330
A92
100
AcDbEntity
  8
0
100
AcDbDimension
280
     0
  2
*D8
 10
21.60816166809137
 20
3.970985510977759
 30
0.0
 11
20.79887348158862
 21
4.848868608095071
 31
0.0
 70
    36
 71
     5
 42
0.8141031250000008
 73
     0
 74
     0
 75
     0
  3
small
100
AcDbRadialDimension
 15
21.2716476196379
 25
4.712283152501202
 35
0.0
 40
0.0
1001
ACAD
1000
DSTYLE
1002
{
1070
   288
1070
     1
1002
}
1001
ACAD_DSTYLE_DIMRADIAL_EXTENSION
1070
   387
1070
     1
1070
   388
1040
1.614792358922754
1070
   390
1040
2.244341635208187
  0
DIMENSION
  5
AB8
102
{ACAD_XDICTIONARY
360
AB9
102
}
330
A92
100
AcDbEntity
  8
0
100
AcDbDimension
280
     0
  2
*D9
 10
21.11222999590387
 20
4.395270578161784
 30
0.0
 11
21.13600141366542
 21
4.452924728956477
 31
0.0
 70
   164
 71
     5
 42
0.2123625000000153
 73
     0
 74
     0
 75
     0
  3
small
100
AcDbRadialDimension
 15
21.19317860611653
 25
4.59159977596714
 35
0.0
 40
0.0
1001
ACAD
1000
DSTYLE
1002
{
1070
   288
1070
     1
1002
}
1001
ACAD_DSTYLE_DIMRADIAL_EXTENSION
1070
   387
1070
     1
1070
   388
1040
0.7517762047388752
1070
   390
1040
1.626739711870755
  0
DIMENSION
  5
ABA
102
{ACAD_XDICTIONARY
360
ABB
102
}
330
A92
100
AcDbEntity
  8
0
100
AcDbDimension
280
     0
  2
*D10
 10
21.41644384367785
 20
4.672319016362749
 30
0.0
 11
21.16659879520194
 21
4.300340056785728
 31
0.0
 70
   164
 71
     5
 42
0.1991381578947493
 73
     0
 74
     0
 75
     0
  3
small
100
AcDbRadialDimension
 15
21.30541054947565
 25
4.507008358786409
 35
0.0
 40
0.0
1001
ACAD
1000
DSTYLE
1002
{
1070
   288
1070
     1
1002
}
1001
ACAD_DSTYLE_DIMRADIAL_EXTENSION
1070
   387
1070
     1
1070
   388
1040
3.866341716818602
1070
   390
1040
4.747105881279122
  0
DIMENSION
  5
ABC
102
{ACAD_XDICTIONARY
360
ABD
102
}
330
A92
100
AcDbEntity
  8
0
100
AcDbDimension
280
     0
  2
*D11
 10
25.08198916678668
 20
4.307107797993598
 30
0.0
 11
25.33948916678668
 21
3.877878602904921
 31
0.0
 70
    32
 71
     5
 42
0.0249999999999986
 73
     0
 74
     0
 75
     0
  3
small
100
AcDbAlignedDimension
 13
25.05698916678668
 23
4.473300853362636
 33
0.0
 14
25.08198916678668
 24
4.473300853362636
 34
0.0
100
AcDbRotatedDimension
  0
DIMENSION
  5
ABE
102
{ACAD_XDICTIONARY
360
ABF
102
}
330
A92
100
AcDbEntity
  8
0
100
AcDbDimension
280
     0
  2
*D12
 10
25.30691055815883
 20
4.473300853362636
 30
0.0
 11
25.30691055815883
 21
4.62880085336264
 31
0.0
 70
    32
 71
     5
 42
0.3109999999999999
 73
     0
 74
     0
 75
     0
  3
small
100
AcDbAlignedDimension
 13
25.08198916678668
 23
4.784300853362636
 33
0.0
 14
25.08198916678668
 24
4.473300853362636
 34
0.0
 50
90.0
100
AcDbRotatedDimension
  0
XLINE
  5
AC0
330
A92
100
AcDbEntity
  8
0
100
AcDbXline
 10
21.10035591469701
 20
4.607300853362635
 30
0.0
 11
0.0
 21
1.0
 31
0.0
  0
LINE
  5
AC1
330
A92
100
AcDbEntity
  8
0
100
AcDbLine
 10
24.353855914697
 20
5.929665382729721
 30
0.0
 11
21.42335591469695
 21
5.929665382729721
 31
0.0
  0
LINE
  5
AC2
330
A92
100
AcDbEntity
  8
0
100
AcDbLine
 10
24.353855914697
 20
6.240665382729721
 30
0.0
 11
21.57235591469695
 21
6.240665382729721
 31
0.0
  0
LINE
  5
AC3
330
A92
100
AcDbEntity
  8
0
100
AcDbLine
 10
24.474355914697
 20
6.050165382729723
 30
0.0
 11
24.474355914697
 21
6.120165382729721
 31
0.0
  0
ARC
  5
AC4
330
A92
100
AcDbEntity
  8
0
100
AcDbCircle
 10
21.60816166809134
 20
5.427350040344842
 30
0.0
 40
0.8141031250000029
100
AcDbArc
 50
92.52078695624824
 51
128.5913034829189
  0
ARC
  5
AC5
330
A92
100
AcDbEntity
  8
0
100
AcDbCircle
 10
21.41644384367781
 20
6.128683545729836
 30
0.0
 40
0.1991381578947491
100
AcDbArc
 50
235.4508548306223
 51
271.989131899025
  0
ARC
  5
AC6
330
A92
100
AcDbEntity
  8
0
100
AcDbCircle
 10
24.353855914697
 20
6.120165382729721
 30
0.0
 40
0.1204999999999998
100
AcDbArc
 50
0.0
 51
90.0
  0
ARC
  5
AC7
330
A92
100
AcDbEntity
  8
0
100
AcDbCircle
 10
24.353855914697
 20
6.050165382729721
 30
0.0
 40
0.1204999999999998
100
AcDbArc
 50
270.0
 51
0.0000000000010178
  0
LINE
  5
AC8
330
A92
100
AcDbEntity
  8
0
100
AcDbLine
 10
19.8113558915612
 20
5.96466538272972
 30
0.0
 11
21.30351002174753
 21
5.96466538272972
 31
0.0
  0
LINE
  5
AC9
330
A92
100
AcDbEntity
  8
0
100
AcDbLine
 10
21.0563558915612
 20
6.057665382729719
 30
0.0
 11
21.10035591469701
 21
6.063665382729721
 31
0.0
  0
LINE
  5
ACA
330
A92
100
AcDbEntity
  8
0
100
AcDbLine
 10
19.9263558915612
 20
6.00566538272972
 30
0.0
 11
21.0563558915612
 21
6.057665382729719
 31
0.0
  0
LINE
  5
ACB
330
A92
100
AcDbEntity
  8
0
100
AcDbLine
 10
19.9263558915612
 20
6.00566538272972
 30
0.0
 11
19.8833558915612
 21
6.045665382729719
 31
0.0
  0
LINE
  5
ACC
330
A92
100
AcDbEntity
  8
0
100
AcDbLine
 10
19.8833558915612
 20
6.045665382729719
 30
0.0
 11
19.8113558915612
 21
5.96466538272972
 31
0.0
  0
DIMENSION
  5
ACD
102
{ACAD_XDICTIONARY
360
ACE
102
}
330
A92
100
AcDbEntity
  8
0
100
AcDbDimension
280
     0
  2
*D13
 10
21.0563558915612
 20
6.355825291628723
 30
0.0
 11
21.34835590312911
 21
6.682939889173061
 31
0.0
 70
    32
 71
     5
 42
0.0440000231358049
 73
     0
 74
     0
 75
     0
  3
small
100
AcDbAlignedDimension
 13
21.10035591469701
 23
6.063665382729726
 33
0.0
 14
21.0563558915612
 24
6.057665382729719
 34
0.0
100
AcDbRotatedDimension
  0
DIMENSION
  5
ACF
102
{ACAD_XDICTIONARY
360
AD0
102
}
330
A92
100
AcDbEntity
  8
0
100
AcDbDimension
280
     0
  2
*D14
 10
19.9263558915612
 20
6.355825291628723
 30
0.0
 11
20.4913558915612
 21
6.355825291628723
 31
0.0
 70
    32
 71
     5
 42
1.130000000000002
 73
     0
 74
     0
 75
     0
  3
small
100
AcDbAlignedDimension
 13
21.0563558915612
 23
6.057665382729719
 33
0.0
 14
19.9263558915612
 24
6.00566538272972
 34
0.0
100
AcDbRotatedDimension
  0
DIMENSION
  5
AD1
102
{ACAD_XDICTIONARY
360
AD2
102
}
330
A92
100
AcDbEntity
  8
0
100
AcDbDimension
280
     0
  2
*D15
 10
19.8833558915612
 20
6.355825291628723
 30
0.0
 11
20.1748558915612
 21
6.683008101997072
 31
0.0
 70
    32
 71
     5
 42
0.0429999999999993
 73
     0
 74
     0
 75
     0
  3
small
100
AcDbAlignedDimension
 13
19.9263558915612
 23
6.00566538272972
 33
0.0
 14
19.8833558915612
 24
6.045665382729719
 34
0.0
100
AcDbRotatedDimension
  0
DIMENSION
  5
AD3
102
{ACAD_XDICTIONARY
360
AD4
102
}
330
A92
100
AcDbEntity
  8
0
100
AcDbDimension
280
     0
  2
*D16
 10
19.8113558915612
 20
6.355825291628723
 30
0.0
 11
20.1173558915612
 21
6.829906241439856
 31
0.0
 70
   160
 71
     5
 42
0.0719999999999992
 73
     0
 74
     0
 75
     0
  3
small
100
AcDbAlignedDimension
 13
19.8833558915612
 23
6.045665382729719
 33
0.0
 14
19.8113558915612
 24
5.96466538272972
 34
0.0
100
AcDbRotatedDimension
  0
DIMENSION
  5
AD5
102
{ACAD_XDICTIONARY
360
AD6
102
}
330
A92
100
AcDbEntity
  8
0
100
AcDbDimension
280
     0
  2
*D17
 10
21.30351002174753
 20
5.856820102778352
 30
0.0
 11
20.55743295665437
 21
5.856820102778352
 31
0.0
 70
    32
 71
     5
 42
1.492154130186328
 73
     0
 74
     0
 75
     0
  3
small
100
AcDbAlignedDimension
 13
19.8113558915612
 23
5.96466538272972
 33
0.0
 14
21.30351002174753
 24
5.96466538272972
 34
0.0
100
AcDbRotatedDimension
  0
DIMENSION
  5
AD7
330
A92
100
AcDbEntity
  8
0
100
AcDbDimension
280
     0
  2
*D18
 10
19.71950007245248
 20
5.96466538272972
 30
0.0
 11
19.12238547490814
 21
6.005165382729723
 31
0.0
 70
    32
 71
     5
 42
0.0809999999999995
 73
     0
 74
     0
 75
     0
  3
small
100
AcDbAlignedDimension
 13
19.8833558915612
 23
6.045665382729719
 33
0.0
 14
19.8113558915612
 24
5.96466538272972
 34
0.0
 50
90.0
100
AcDbRotatedDimension
  0
ENDBLK
  5
AD9
330
A92
100
AcDbEntity
  8
0
100
AcDbBlockEnd
  0
BLOCK
  5
11AE
330
11A3
100
AcDbEntity
  8
0
100
AcDbBlockBegin
  2
*D20
 70
     1
 10
0.0
 20
0.0
 30
0.0
  3
*D20
  1

  0
LINE
  5
31F7
330
11A3
100
AcDbEntity
  8
D
 62
     0
370
    -2
100
AcDbLine
 10
215.9664550908254
 20
-1.229665411011402
 30
0.0
 11
215.9664550908254
 21
-1.025153340859391
 31
0.0
  0
LINE
  5
31F8
330
11A3
100
AcDbEntity
  8
D
 62
     0
370
    -2
100
AcDbLine
 10
215.9464550908254
 20
-1.229665411011402
 30
0.0
 11
215.9464550908254
 21
-1.025153340859391
 31
0.0
  0
LINE
  5
31F9
330
11A3
100
AcDbEntity
  8
D
 62
     0
370
    -2
100
AcDbLine
 10
216.0144550908254
 20
-1.073153340859391
 30
0.0
 11
216.0624550908254
 21
-1.073153340859391
 31
0.0
  0
LINE
  5
31FA
330
11A3
100
AcDbEntity
  8
D
 62
     0
370
    -2
100
AcDbLine
 10
215.8984550908254
 20
-1.073153340859391
 30
0.0
 11
215.8504550908254
 21
-1.073153340859391
 31
0.0
  0
SOLID
  5
31FB
330
11A3
100
AcDbEntity
  8
D
 62
     0
100
AcDbTrace
 10
216.0144550908254
 20
-1.065153340859391
 30
0.0
 11
216.0144550908254
 21
-1.081153340859391
 31
0.0
 12
215.9664550908254
 22
-1.073153340859391
 32
0.0
 13
215.9664550908254
 23
-1.073153340859391
 33
0.0
  0
SOLID
  5
31FC
330
11A3
100
AcDbEntity
  8
D
 62
     0
100
AcDbTrace
 10
215.8984550908254
 20
-1.065153340859391
 30
0.0
 11
215.8984550908254
 21
-1.081153340859391
 31
0.0
 12
215.9464550908254
 22
-1.073153340859391
 32
0.0
 13
215.9464550908254
 23
-1.073153340859391
 33
0.0
  0
MTEXT
  5
31FD
330
11A3
100
AcDbEntity
  8
D
 62
     0
100
AcDbMText
 10
215.6644550908254
 20
-1.073153340859391
 30
0.0
 40
0.04
 41
0.0
 46
0.0
 71
     5
 72
     1
  1
\A1;0.020 REF
 73
     1
 44
1.0
  0
POINT
  5
31FE
330
11A3
100
AcDbEntity
  8
Defpoints
 62
     0
100
AcDbPoint
 10
215.9664550908254
 20
-1.269665411011402
 30
0.0
  0
POINT
  5
31FF
330
11A3
100
AcDbEntity
  8
Defpoints
 62
     0
100
AcDbPoint
 10
215.9464550908254
 20
-1.269665411011402
 30
0.0
  0
POINT
  5
3200
330
11A3
100
AcDbEntity
  8
Defpoints
 62
     0
100
AcDbPoint
 10
215.9464550908254
 20
-1.073153340859391
 30
0.0
  0
ENDBLK
  5
11AF
330
11A3
100
AcDbEntity
  8
0
100
AcDbBlockEnd
  0
BLOCK
  5
17C8
330
17BC
100
AcDbEntity
  8
0
100
AcDbBlockBegin
  2
A$C34542D0D
 70
     0
 10
0.0
 20
0.0
 30
0.0
  3
A$C34542D0D
  1

  0
LINE
  5
17BD
330
17BC
100
AcDbEntity
  8
PICK
100
AcDbLine
 10
-216.94329554644
 20
1.701165359667051
 30
0.0
 11
-214.1617955464399
 21
1.701165359667051
 31
0.0
  0
LINE
  5
17BE
330
17BC
100
AcDbEntity
  8
PICK
100
AcDbLine
 10
-216.94329554644
 20
1.390165359667051
 30
0.0
 11
-214.0127955464399
 21
1.390165359667051
 31
0.0
  0
ARC
  5
17BF
330
17BC
100
AcDbEntity
  8
PICK
100
AcDbCircle
 10
-216.94329554644
 20
1.510665359667051
 30
0.0
 40
0.1204999999999998
100
AcDbArc
 50
179.999999999999
 51
270.0
  0
ARC
  5
17C0
330
17BC
100
AcDbEntity
  8
PICK
100
AcDbCircle
 10
-216.94329554644
 20
1.580665359667051
 30
0.0
 40
0.1204999999999998
100
AcDbArc
 50
90.0
 51
180.0
  0
LINE
  5
17C1
330
17BC
100
AcDbEntity
  8
PICK
100
AcDbLine
 10
-217.0637955464399
 20
1.510665359667052
 30
0.0
 11
-217.0637955464399
 21
1.580665359667051
 31
0.0
  0
ARC
  5
17C2
330
17BC
100
AcDbEntity
  8
PICK
100
AcDbCircle
 10
-212.487795611509
 20
1.446165359667041
 30
0.0
 40
0.08
100
AcDbArc
 50
333.2563160495975
 51
166.4768393495838
  0
LINE
  5
17C3
330
17BC
100
AcDbEntity
  8
PICK
100
AcDbLine
 10
-212.416353327111
 20
1.410165359667042
 30
0.0
 11
-213.9186567407245
 21
1.410165359667042
 31
0.0
  0
LINE
  5
17C4
330
17BC
100
AcDbEntity
  8
PICK
100
AcDbLine
 10
-212.5655776495433
 20
1.46487243210568
 30
0.0
 11
-213.645795611509
 21
1.519165359667042
 31
0.0
  0
LINE
  5
17C5
330
17BC
100
AcDbEntity
  8
PICK
100
AcDbLine
 10
-213.645795611509
 20
1.519165359667042
 30
0.0
 11
-213.689795611509
 21
1.524165359667042
 31
0.0
  0
ARC
  5
17C6
330
17BC
100
AcDbEntity
  8
PICK
100
AcDbCircle
 10
-214.0058834754207
 20
1.589183522667166
 30
0.0
 40
0.1991381578947491
100
AcDbArc
 50
268.0108681009747
 51
295.9776938598455
  0
ARC
  5
17C7
330
17BC
100
AcDbEntity
  8
PICK
100
AcDbCircle
 10
-214.1976012998343
 20
0.8878500172821723
 30
0.0
 40
0.8141031250000029
100
AcDbArc
 50
51.40869651708102
 51
87.47921304375257
  0
ENDBLK
  5
17C9
330
17BC
100
AcDbEntity
  8
0
100
AcDbBlockEnd
  0
BLOCK
  5
1A9D
330
1A8F
100
AcDbEntity
  8
0
100
AcDbBlockBegin
  2
A$C38DA0378
 70
     0
 10
0.0
 20
0.0
 30
0.0
  3
A$C38DA0378
  1

  0
LINE
  5
1A90
330
1A8F
100
AcDbEntity
  8
0
100
AcDbLine
 10
4.542500057335765
 20
-0.0000000056211746
 30
0.0
 11
1.612000057335709
 21
-0.0000000056211746
 31
0.0
  0
LINE
  5
1A91
330
1A8F
100
AcDbEntity
  8
0
100
AcDbLine
 10
4.542500057335765
 20
0.3109999943788253
 30
0.0
 11
1.761000057335717
 21
0.3109999943788253
 31
0.0
  0
LINE
  5
1A92
330
1A8F
100
AcDbEntity
  8
0
100
AcDbLine
 10
4.663000057335764
 20
0.120499994378827
 30
0.0
 11
4.663000057335761
 21
0.1904999943788255
 31
0.0
  0
ARC
  5
1A93
330
1A8F
100
AcDbEntity
  8
0
100
AcDbCircle
 10
1.796805810730099
 20
-0.5023153480060536
 30
0.0
 40
0.8141031250000029
100
AcDbArc
 50
92.52078695624824
 51
128.5913034829189
  0
ARC
  5
1A94
330
1A8F
100
AcDbEntity
  8
0
100
AcDbCircle
 10
1.300874138542607
 20
-0.0780302808220288
 30
0.0
 40
0.2123625000000159
100
AcDbArc
 50
43.07360366990046
 51
93.20531985652186
  0
ARC
  5
1A95
330
1A8F
100
AcDbEntity
  8
0
100
AcDbCircle
 10
1.605087986316579
 20
0.1990181573789407
 30
0.0
 40
0.1991381578947491
100
AcDbArc
 50
221.5250625290709
 51
271.989131899025
  0
ARC
  5
1A96
330
1A8F
100
AcDbEntity
  8
0
100
AcDbCircle
 10
4.542500057335765
 20
0.1904999943788255
 30
0.0
 40
0.1204999999999998
100
AcDbArc
 50
0.0
 51
90.0
  0
ARC
  5
1A97
330
1A8F
100
AcDbEntity
  8
0
100
AcDbCircle
 10
4.542500057335765
 20
0.1204999943788252
 30
0.0
 40
0.1204999999999998
100
AcDbArc
 50
270.0
 51
0.0000000000010178
  0
LINE
  5
1A98
330
1A8F
100
AcDbEntity
  8
0
100
AcDbLine
 10
0.0000000341999673
 20
0.0349999943788237
 30
0.0
 11
1.492154164386295
 21
0.0349999943788237
 31
0.0
  0
LINE
  5
1A99
330
1A8F
100
AcDbEntity
  8
0
100
AcDbLine
 10
1.245000034199968
 20
0.1279999943788237
 30
0.0
 11
1.289000057335769
 21
0.1339999943788257
 31
0.0
  0
LINE
  5
1A9A
330
1A8F
100
AcDbEntity
  8
0
100
AcDbLine
 10
0.1150000341999657
 20
0.0759999943788241
 30
0.0
 11
1.245000034199968
 21
0.1279999943788237
 31
0.0
  0
LINE
  5
1A9B
330
1A8F
100
AcDbEntity
  8
0
100
AcDbLine
 10
0.1150000341999657
 20
0.0759999943788241
 30
0.0
 11
0.0720000341999665
 21
0.1159999943788232
 31
0.0
  0
LINE
  5
1A9C
330
1A8F
100
AcDbEntity
  8
0
100
AcDbLine
 10
0.0720000341999665
 20
0.1159999943788232
 30
0.0
 11
0.0000000341999673
 21
0.0349999943788237
 31
0.0
  0
ENDBLK
  5
1A9E
330
1A8F
100
AcDbEntity
  8
0
100
AcDbBlockEnd
  0
BLOCK
  5
307E
330
3078
100
AcDbEntity
  8
0
100
AcDbBlockBegin
  2
*D23
 70
     1
 10
0.0
 20
0.0
 30
0.0
  3
*D23
  1

  0
LINE
  5
3079
330
3078
100
AcDbEntity
  8
D
 62
     0
370
    -2
100
AcDbLine
 10
217.0637956006614
 20
-1.350165411011395
 30
0.0
 11
217.0637956006614
 21
-1.131298575359554
 31
0.0
  0
MTEXT
  5
307A
330
3078
100
AcDbEntity
  8
D
 62
     0
100
AcDbMText
 10
217.0637956006614
 20
-1.028631908692853
 30
0.0
 40
0.04
 41
0.0
 46
0.0
 71
     5
 72
     1
  1
\A1;0.000
 11
0.0000000000000001
 21
1.0
 31
0.0
 73
     1
 44
1.0
  0
POINT
  5
307B
330
3078
100
AcDbEntity
  8
Defpoints
 62
     0
100
AcDbPoint
 10
217.0637956006614
 20
-1.390165411011395
 30
0.0
  0
POINT
  5
307C
330
3078
100
AcDbEntity
  8
Defpoints
 62
     0
100
AcDbPoint
 10
217.0637956006614
 20
-1.131298575359554
 30
0.0
  0
POINT
  5
307D
330
3078
100
AcDbEntity
  8
Defpoints
 62
     0
100
AcDbPoint
 10
217.0637956006614
 20
-1.390165411011395
 30
0.0
  0
ENDBLK
  5
307F
330
3078
100
AcDbEntity
  8
0
100
AcDbBlockEnd
  0
BLOCK
  5
3087
330
3081
100
AcDbEntity
  8
0
100
AcDbBlockBegin
  2
*D24
 70
     1
 10
0.0
 20
0.0
 30
0.0
  3
*D24
  1

  0
LINE
  5
3082
330
3081
100
AcDbEntity
  8
D
 62
     0
370
    -2
100
AcDbLine
 10
217.0237956006614
 20
-1.390165411011395
 30
0.0
 11
216.8871123758313
 21
-1.390165411011395
 31
0.0
  0
MTEXT
  5
3083
330
3081
100
AcDbEntity
  8
D
 62
     0
100
AcDbMText
 10
216.7844457091646
 20
-1.390165411011395
 30
0.0
 40
0.04
 41
0.0
 46
0.0
 71
     5
 72
     1
  1
\A1;0.000
 73
     1
 44
1.0
  0
POINT
  5
3084
330
3081
100
AcDbEntity
  8
Defpoints
 62
     0
100
AcDbPoint
 10
217.0637956006614
 20
-1.390165411011395
 30
0.0
  0
POINT
  5
3085
330
3081
100
AcDbEntity
  8
Defpoints
 62
     0
100
AcDbPoint
 10
216.8871123758313
 20
-1.390165411011395
 30
0.0
  0
POINT
  5
3086
330
3081
100
AcDbEntity
  8
Defpoints
 62
     0
100
AcDbPoint
 10
217.0637956006614
 20
-1.390165411011395
 30
0.0
  0
ENDBLK
  5
3088
330
3081
100
AcDbEntity
  8
0
100
AcDbBlockEnd
  0
BLOCK
  5
3090
330
308A
100
AcDbEntity
  8
0
100
AcDbBlockBegin
  2
*D25
 70
     1
 10
0.0
 20
0.0
 30
0.0
  3
*D25
  1

  0
LINE
  5
308B
330
308A
100
AcDbEntity
  8
D
 62
     0
370
    -2
100
AcDbLine
 10
217.1842956006615
 20
-1.229665411011395
 30
0.0
 11
217.1842956006615
 21
-1.023333277138391
 31
0.0
  0
MTEXT
  5
308C
330
308A
100
AcDbEntity
  8
D
 62
     0
100
AcDbMText
 10
217.1842956006615
 20
-0.9239999438050231
 30
0.0
 40
0.04
 41
0.0
 46
0.0
 71
     5
 72
     1
  1
\A1;0.121
 11
0.0000000000000001
 21
1.0
 31
0.0
 73
     1
 44
1.0
  0
POINT
  5
308D
330
308A
100
AcDbEntity
  8
Defpoints
 62
     0
100
AcDbPoint
 10
217.1842956006615
 20
-1.269665411011395
 30
0.0
  0
POINT
  5
308E
330
308A
100
AcDbEntity
  8
Defpoints
 62
     0
100
AcDbPoint
 10
217.1842956006615
 20
-1.023333277138391
 30
0.0
  0
POINT
  5
308F
330
308A
100
AcDbEntity
  8
Defpoints
 62
     0
100
AcDbPoint
 10
217.0637956006614
 20
-1.390165411011395
 30
0.0
  0
ENDBLK
  5
3091
330
308A
100
AcDbEntity
  8
0
100
AcDbBlockEnd
  0
BLOCK
  5
3099
330
3093
100
AcDbEntity
  8
0
100
AcDbBlockBegin
  2
*D26
 70
     1
 10
0.0
 20
0.0
 30
0.0
  3
*D26
  1

  0
LINE
  5
3094
330
3093
100
AcDbEntity
  8
D
 62
     0
370
    -2
100
AcDbLine
 10
217.1442956006615
 20
-1.269665411011395
 30
0.0
 11
216.9624238328667
 21
-1.269665411011395
 31
0.0
  0
MTEXT
  5
3095
330
3093
100
AcDbEntity
  8
D
 62
     0
100
AcDbMText
 10
216.8630904995334
 20
-1.269665411011395
 30
0.0
 40
0.04
 41
0.0
 46
0.0
 71
     5
 72
     1
  1
\A1;0.121
 73
     1
 44
1.0
  0
POINT
  5
3096
330
3093
100
AcDbEntity
  8
Defpoints
 62
     0
100
AcDbPoint
 10
217.1842956006615
 20
-1.269665411011395
 30
0.0
  0
POINT
  5
3097
330
3093
100
AcDbEntity
  8
Defpoints
 62
     0
100
AcDbPoint
 10
216.9624238328667
 20
-1.269665411011395
 30
0.0
  0
POINT
  5
3098
330
3093
100
AcDbEntity
  8
Defpoints
 62
     0
100
AcDbPoint
 10
217.0637956006614
 20
-1.390165411011395
 30
0.0
  0
ENDBLK
  5
309A
330
3093
100
AcDbEntity
  8
0
100
AcDbBlockEnd
  0
BLOCK
  5
30A2
330
309C
100
AcDbEntity
  8
0
100
AcDbBlockBegin
  2
*D27
 70
     1
 10
0.0
 20
0.0
 30
0.0
  3
*D27
  1

  0
LINE
  5
309D
330
309C
100
AcDbEntity
  8
D
 62
     0
370
    -2
100
AcDbLine
 10
217.1442956006615
 20
-1.580665411011395
 30
0.0
 11
216.906758861709
 21
-1.580665411011395
 31
0.0
  0
MTEXT
  5
309E
330
309C
100
AcDbEntity
  8
D
 62
     0
100
AcDbMText
 10
216.8074255283756
 20
-1.580665411011395
 30
0.0
 40
0.04
 41
0.0
 46
0.0
 71
     5
 72
     1
  1
\A1;0.191
 73
     1
 44
1.0
  0
POINT
  5
309F
330
309C
100
AcDbEntity
  8
Defpoints
 62
     0
100
AcDbPoint
 10
217.1842956006615
 20
-1.580665411011395
 30
0.0
  0
POINT
  5
30A0
330
309C
100
AcDbEntity
  8
Defpoints
 62
     0
100
AcDbPoint
 10
216.906758861709
 20
-1.580665411011395
 30
0.0
  0
POINT
  5
30A1
330
309C
100
AcDbEntity
  8
Defpoints
 62
     0
100
AcDbPoint
 10
217.0637956006614
 20
-1.390165411011395
 30
0.0
  0
ENDBLK
  5
30A3
330
309C
100
AcDbEntity
  8
0
100
AcDbBlockEnd
  0
BLOCK
  5
30AB
330
30A5
100
AcDbEntity
  8
0
100
AcDbBlockBegin
  2
*D28
 70
     1
 10
0.0
 20
0.0
 30
0.0
  3
*D28
  1

  0
LINE
  5
30A6
330
30A5
100
AcDbEntity
  8
D
 62
     0
370
    -2
100
AcDbLine
 10
217.0237956006614
 20
-1.460165411011393
 30
0.0
 11
216.8871123758313
 21
-1.460165411011393
 31
0.0
  0
MTEXT
  5
30A7
330
30A5
100
AcDbEntity
  8
D
 62
     0
100
AcDbMText
 10
216.7811123758313
 20
-1.460165411011393
 30
0.0
 40
0.04
 41
0.0
 46
0.0
 71
     5
 72
     1
  1
\A1;0.070
 73
     1
 44
1.0
  0
POINT
  5
30A8
330
30A5
100
AcDbEntity
  8
Defpoints
 62
     0
100
AcDbPoint
 10
217.0637956006614
 20
-1.460165411011393
 30
0.0
  0
POINT
  5
30A9
330
30A5
100
AcDbEntity
  8
Defpoints
 62
     0
100
AcDbPoint
 10
216.8871123758313
 20
-1.460165411011393
 30
0.0
  0
POINT
  5
30AA
330
30A5
100
AcDbEntity
  8
Defpoints
 62
     0
100
AcDbPoint
 10
217.0637956006614
 20
-1.390165411011395
 30
0.0
  0
ENDBLK
  5
30AC
330
30A5
100
AcDbEntity
  8
0
100
AcDbBlockEnd
  0
BLOCK
  5
30B4
330
30AE
100
AcDbEntity
  8
0
100
AcDbBlockBegin
  2
*D29
 70
     1
 10
0.0
 20
0.0
 30
0.0
  3
*D29
  1

  0
LINE
  5
30AF
330
30AE
100
AcDbEntity
  8
D
 62
     0
370
    -2
100
AcDbLine
 10
217.1842956006615
 20
-1.620665411011395
 30
0.0
 11
217.1842956006615
 21
-1.716861826220608
 31
0.0
  0
MTEXT
  5
30B0
330
30AE
100
AcDbEntity
  8
D
 62
     0
100
AcDbMText
 10
217.1842956006615
 20
-1.816195159553906
 30
0.0
 40
0.04
 41
0.0
 46
0.0
 71
     5
 72
     1
  1
\A1;0.121
 11
0.0000000000000001
 21
1.0
 31
0.0
 73
     1
 44
1.0
  0
POINT
  5
30B1
330
30AE
100
AcDbEntity
  8
Defpoints
 62
     0
100
AcDbPoint
 10
217.1842956006615
 20
-1.580665411011395
 30
0.0
  0
POINT
  5
30B2
330
30AE
100
AcDbEntity
  8
Defpoints
 62
     0
100
AcDbPoint
 10
217.1842956006615
 20
-1.716861826220608
 30
0.0
  0
POINT
  5
30B3
330
30AE
100
AcDbEntity
  8
Defpoints
 62
     0
100
AcDbPoint
 10
217.0637956006614
 20
-1.390165411011395
 30
0.0
  0
ENDBLK
  5
30B5
330
30AE
100
AcDbEntity
  8
0
100
AcDbBlockEnd
  0
BLOCK
  5
30C8
330
30C2
100
AcDbEntity
  8
0
100
AcDbBlockBegin
  2
*D30
 70
     1
 10
0.0
 20
0.0
 30
0.0
  3
*D30
  1

  0
LINE
  5
30C3
330
30C2
100
AcDbEntity
  8
D
 62
     0
370
    -2
100
AcDbLine
 10
219.9657956006615
 20
-1.229665411011395
 30
0.0
 11
219.9657956006615
 21
-0.9757842348629779
 31
0.0
  0
MTEXT
  5
30C4
330
30C2
100
AcDbEntity
  8
D
 62
     0
100
AcDbMText
 10
219.9657956006615
 20
-0.8631175681962758
 30
0.0
 40
0.04
 41
0.0
 46
0.0
 71
     5
 72
     1
  1
\A1;2.902
 11
0.0000000000000001
 21
1.0
 31
0.0
 73
     1
 44
1.0
  0
POINT
  5
30C5
330
30C2
100
AcDbEntity
  8
Defpoints
 62
     0
100
AcDbPoint
 10
219.9657956006615
 20
-1.269665411011395
 30
0.0
  0
POINT
  5
30C6
330
30C2
100
AcDbEntity
  8
Defpoints
 62
     0
100
AcDbPoint
 10
219.9657956006615
 20
-0.9757842348629779
 30
0.0
  0
POINT
  5
30C7
330
30C2
100
AcDbEntity
  8
Defpoints
 62
     0
100
AcDbPoint
 10
217.0637956006614
 20
-1.390165411011395
 30
0.0
  0
ENDBLK
  5
30C9
330
30C2
100
AcDbEntity
  8
0
100
AcDbBlockEnd
  0
BLOCK
  5
30D1
330
30CB
100
AcDbEntity
  8
0
100
AcDbBlockBegin
  2
*D31
 70
     1
 10
0.0
 20
0.0
 30
0.0
  3
*D31
  1

  0
LINE
  5
30CC
330
30CB
100
AcDbEntity
  8
D
 62
     0
370
    -2
100
AcDbLine
 10
220.4377956006614
 20
-1.406665411011395
 30
0.0
 11
220.4377956006614
 21
-1.208707513301249
 31
0.0
  0
MTEXT
  5
30CD
330
30CB
100
AcDbEntity
  8
D
 62
     0
100
AcDbMText
 10
220.4377956006614
 20
-1.092707513301213
 30
0.0
 40
0.04
 41
0.0
 46
0.0
 71
     5
 72
     1
  1
\A1;3.374
 11
0.0000000000000001
 21
1.0
 31
0.0
 73
     1
 44
1.0
  0
POINT
  5
30CE
330
30CB
100
AcDbEntity
  8
Defpoints
 62
     0
100
AcDbPoint
 10
220.4377956006614
 20
-1.446665411011395
 30
0.0
  0
POINT
  5
30CF
330
30CB
100
AcDbEntity
  8
Defpoints
 62
     0
100
AcDbPoint
 10
220.4377956006614
 20
-1.208707513301249
 30
0.0
  0
POINT
  5
30D0
330
30CB
100
AcDbEntity
  8
Defpoints
 62
     0
100
AcDbPoint
 10
217.0637956006614
 20
-1.390165411011395
 30
0.0
  0
ENDBLK
  5
30D2
330
30CB
100
AcDbEntity
  8
0
100
AcDbBlockEnd
  0
BLOCK
  5
30DA
330
30D4
100
AcDbEntity
  8
0
100
AcDbBlockBegin
  2
*D32
 70
     1
 10
0.0
 20
0.0
 30
0.0
  3
*D32
  1

  0
LINE
  5
30D5
330
30D4
100
AcDbEntity
  8
D
 62
     0
370
    -2
100
AcDbLine
 10
221.8010096458011
 20
-1.398617112541407
 30
0.0
 11
221.8010096458011
 21
-1.152773116097662
 31
0.0
  0
MTEXT
  5
30D6
330
30D4
100
AcDbEntity
  8
D
 62
     0
100
AcDbMText
 10
221.8010096458011
 20
-1.036773116097627
 30
0.0
 40
0.04
 41
0.0
 46
0.0
 71
     5
 72
     1
  1
\A1;4.737
 11
0.0000000000000001
 21
1.0
 31
0.0
 73
     1
 44
1.0
  0
POINT
  5
30D7
330
30D4
100
AcDbEntity
  8
Defpoints
 62
     0
100
AcDbPoint
 10
221.8010096458011
 20
-1.438617112541408
 30
0.0
  0
POINT
  5
30D8
330
30D4
100
AcDbEntity
  8
Defpoints
 62
     0
100
AcDbPoint
 10
221.8010096458011
 20
-1.152773116097662
 30
0.0
  0
POINT
  5
30D9
330
30D4
100
AcDbEntity
  8
Defpoints
 62
     0
100
AcDbPoint
 10
217.0637956006614
 20
-1.390165411011395
 30
0.0
  0
ENDBLK
  5
30DB
330
30D4
100
AcDbEntity
  8
0
100
AcDbBlockEnd
  0
BLOCK
  5
30E3
330
30DD
100
AcDbEntity
  8
0
100
AcDbBlockBegin
  2
*D33
 70
     1
 10
0.0
 20
0.0
 30
0.0
  3
*D33
  1

  0
LINE
  5
31C6
330
30DD
100
AcDbEntity
  8
D
 62
     0
370
    -2
100
AcDbLine
 10
221.8605235331701
 20
-1.525348248686988
 30
0.0
 11
221.8605235331701
 21
-1.581348248686988
 31
0.0
  0
LINE
  5
31C7
330
30DD
100
AcDbEntity
  8
D
 62
     0
370
    -2
100
AcDbLine
 10
221.8605235331701
 20
-1.581348248686988
 30
0.0
 11
221.7877063835715
 21
-1.658855445247897
 31
0.0
  0
LINE
  5
31C8
330
30DD
100
AcDbEntity
  8
D
 62
     0
370
    -2
100
AcDbLine
 10
221.7877063835715
 20
-1.658855445247897
 30
0.0
 11
221.7877063835715
 21
-1.754855445247897
 31
0.0
  0
MTEXT
  5
31C9
330
30DD
100
AcDbEntity
  8
D
 62
     0
100
AcDbMText
 10
221.7877063835715
 20
-1.870855445247862
 30
0.0
 40
0.04
 41
0.0
 46
0.0
 71
     5
 72
     1
  1
\A1;4.797
 11
0.0000000000000001
 21
1.0
 31
0.0
 73
     1
 44
1.0
  0
POINT
  5
31CA
330
30DD
100
AcDbEntity
  8
Defpoints
 62
     0
100
AcDbPoint
 10
221.8605235331701
 20
-1.485348248686988
 30
0.0
  0
POINT
  5
31CB
330
30DD
100
AcDbEntity
  8
Defpoints
 62
     0
100
AcDbPoint
 10
221.7877063835715
 20
-1.754855445247897
 30
0.0
  0
POINT
  5
31CC
330
30DD
100
AcDbEntity
  8
Defpoints
 62
     0
100
AcDbPoint
 10
217.0637956006614
 20
-1.390165411011395
 30
0.0
  0
ENDBLK
  5
30E4
330
30DD
100
AcDbEntity
  8
0
100
AcDbBlockEnd
  0
BLOCK
  5
30EC
330
30E6
100
AcDbEntity
  8
0
100
AcDbBlockBegin
  2
*D34
 70
     1
 10
0.0
 20
0.0
 30
0.0
  3
*D34
  1

  0
LINE
  5
30E7
330
30E6
100
AcDbEntity
  8
D
 62
     0
370
    -2
100
AcDbLine
 10
220.5823109013437
 20
-1.589665411011405
 30
0.0
 11
220.5823109013437
 21
-1.762806761654935
 31
0.0
  0
MTEXT
  5
30E8
330
30E6
100
AcDbEntity
  8
D
 62
     0
100
AcDbMText
 10
220.5823109013437
 20
-1.872140094988233
 30
0.0
 40
0.04
 41
0.0
 46
0.0
 71
     5
 72
     1
  1
\A1;3.519
 11
0.0000000000000001
 21
1.0
 31
0.0
 73
     1
 44
1.0
  0
POINT
  5
30E9
330
30E6
100
AcDbEntity
  8
Defpoints
 62
     0
100
AcDbPoint
 10
220.5823109013437
 20
-1.549665411011404
 30
0.0
  0
POINT
  5
30EA
330
30E6
100
AcDbEntity
  8
Defpoints
 62
     0
100
AcDbPoint
 10
220.5823109013437
 20
-1.762806761654935
 30
0.0
  0
POINT
  5
30EB
330
30E6
100
AcDbEntity
  8
Defpoints
 62
     0
100
AcDbPoint
 10
217.0637956006614
 20
-1.390165411011395
 30
0.0
  0
ENDBLK
  5
30ED
330
30E6
100
AcDbEntity
  8
0
100
AcDbBlockEnd
  0
BLOCK
  5
30F5
330
30EF
100
AcDbEntity
  8
0
100
AcDbBlockBegin
  2
*D35
 70
     1
 10
0.0
 20
0.0
 30
0.0
  3
*D35
  1

  0
LINE
  5
30F0
330
30EF
100
AcDbEntity
  8
D
 62
     0
370
    -2
100
AcDbLine
 10
220.2285996864983
 20
-1.589665411011399
 30
0.0
 11
220.2285996864983
 21
-1.845419096113577
 31
0.0
  0
MTEXT
  5
30F1
330
30EF
100
AcDbEntity
  8
D
 62
     0
100
AcDbMText
 10
220.2285996864983
 20
-1.954752429446875
 30
0.0
 40
0.04
 41
0.0
 46
0.0
 71
     5
 72
     1
  1
\A1;3.165
 11
0.0000000000000001
 21
1.0
 31
0.0
 73
     1
 44
1.0
  0
POINT
  5
30F2
330
30EF
100
AcDbEntity
  8
Defpoints
 62
     0
100
AcDbPoint
 10
220.2285996864983
 20
-1.549665411011399
 30
0.0
  0
POINT
  5
30F3
330
30EF
100
AcDbEntity
  8
Defpoints
 62
     0
100
AcDbPoint
 10
220.2285996864983
 20
-1.845419096113577
 30
0.0
  0
POINT
  5
30F4
330
30EF
100
AcDbEntity
  8
Defpoints
 62
     0
100
AcDbPoint
 10
217.0637956006614
 20
-1.390165411011395
 30
0.0
  0
ENDBLK
  5
30F6
330
30EF
100
AcDbEntity
  8
0
100
AcDbBlockEnd
  0
BLOCK
  5
30FE
330
30F8
100
AcDbEntity
  8
0
100
AcDbBlockBegin
  2
*D36
 70
     1
 10
0.0
 20
0.0
 30
0.0
  3
*D36
  1

  0
LINE
  5
30F9
330
30F8
100
AcDbEntity
  8
D
 62
     0
370
    -2
100
AcDbLine
 10
220.1147956006614
 20
-1.620665411011393
 30
0.0
 11
220.1147956006614
 21
-1.95232917508628
 31
0.0
  0
MTEXT
  5
30FA
330
30F8
100
AcDbEntity
  8
D
 62
     0
100
AcDbMText
 10
220.1147956006614
 20
-2.058329175086244
 30
0.0
 40
0.04
 41
0.0
 46
0.0
 71
     5
 72
     1
  1
\A1;3.051
 11
0.0000000000000001
 21
1.0
 31
0.0
 73
     1
 44
1.0
  0
POINT
  5
30FB
330
30F8
100
AcDbEntity
  8
Defpoints
 62
     0
100
AcDbPoint
 10
220.1147956006614
 20
-1.580665411011393
 30
0.0
  0
POINT
  5
30FC
330
30F8
100
AcDbEntity
  8
Defpoints
 62
     0
100
AcDbPoint
 10
220.1147956006614
 20
-1.95232917508628
 30
0.0
  0
POINT
  5
30FD
330
30F8
100
AcDbEntity
  8
Defpoints
 62
     0
100
AcDbPoint
 10
217.0637956006614
 20
-1.390165411011395
 30
0.0
  0
ENDBLK
  5
30FF
330
30F8
100
AcDbEntity
  8
0
100
AcDbBlockEnd
  0
BLOCK
  5
3109
330
3101
100
AcDbEntity
  8
0
100
AcDbBlockBegin
  2
*D37
 70
     1
 10
0.0
 20
0.0
 30
0.0
  3
*D37
  1

  0
LINE
  5
3102
330
3101
100
AcDbEntity
  8
D
 62
     0
370
    -2
100
AcDbLine
 10
219.9257956006615
 20
-1.269665411011395
 30
0.0
 11
219.8697956006615
 21
-1.269665411011395
 31
0.0
  0
LINE
  5
3103
330
3101
100
AcDbEntity
  8
D
 62
     0
370
    -2
100
AcDbLine
 10
219.8697956006615
 20
-1.269665411011395
 30
0.0
 11
219.7991245162937
 21
-1.169263557158302
 31
0.0
  0
LINE
  5
3104
330
3101
100
AcDbEntity
  8
D
 62
     0
370
    -2
100
AcDbLine
 10
219.7991245162937
 20
-1.169263557158302
 30
0.0
 11
219.7031245162937
 21
-1.169263557158302
 31
0.0
  0
MTEXT
  5
3105
330
3101
100
AcDbEntity
  8
D
 62
     0
100
AcDbMText
 10
219.6037911829603
 20
-1.169263557158302
 30
0.0
 40
0.04
 41
0.0
 46
0.0
 71
     5
 72
     1
  1
\A1;0.121
 73
     1
 44
1.0
  0
POINT
  5
3106
330
3101
100
AcDbEntity
  8
Defpoints
 62
     0
100
AcDbPoint
 10
219.9657956006615
 20
-1.269665411011395
 30
0.0
  0
POINT
  5
3107
330
3101
100
AcDbEntity
  8
Defpoints
 62
     0
100
AcDbPoint
 10
219.7031245162937
 20
-1.169263557158302
 30
0.0
  0
POINT
  5
3108
330
3101
100
AcDbEntity
  8
Defpoints
 62
     0
100
AcDbPoint
 10
217.0637956006614
 20
-1.390165411011395
 30
0.0
  0
ENDBLK
  5
310A
330
3101
100
AcDbEntity
  8
0
100
AcDbBlockEnd
  0
BLOCK
  5
3114
330
310C
100
AcDbEntity
  8
0
100
AcDbBlockBegin
  2
*D38
 70
     1
 10
0.0
 20
0.0
 30
0.0
  3
*D38
  1

  0
LINE
  5
310D
330
310C
100
AcDbEntity
  8
D
 62
     0
370
    -2
100
AcDbLine
 10
220.4777956006614
 20
-1.446665411011395
 30
0.0
 11
220.5337956006614
 21
-1.446665411011395
 31
0.0
  0
LINE
  5
310E
330
310C
100
AcDbEntity
  8
D
 62
     0
370
    -2
100
AcDbLine
 10
220.5337956006614
 20
-1.446665411011395
 30
0.0
 11
220.5675598825834
 21
-1.306915836444389
 31
0.0
  0
LINE
  5
310F
330
310C
100
AcDbEntity
  8
D
 62
     0
370
    -2
100
AcDbLine
 10
220.5675598825834
 20
-1.306915836444389
 30
0.0
 11
220.6635598825835
 21
-1.306915836444389
 31
0.0
  0
MTEXT
  5
3110
330
310C
100
AcDbEntity
  8
D
 62
     0
100
AcDbMText
 10
220.7728932159168
 20
-1.306915836444389
 30
0.0
 40
0.04
 41
0.0
 46
0.0
 71
     5
 72
     1
  1
\A1;0.057
 73
     1
 44
1.0
  0
POINT
  5
3111
330
310C
100
AcDbEntity
  8
Defpoints
 62
     0
100
AcDbPoint
 10
220.4377956006614
 20
-1.446665411011395
 30
0.0
  0
POINT
  5
3112
330
310C
100
AcDbEntity
  8
Defpoints
 62
     0
100
AcDbPoint
 10
220.6635598825835
 20
-1.306915836444389
 30
0.0
  0
POINT
  5
3113
330
310C
100
AcDbEntity
  8
Defpoints
 62
     0
100
AcDbPoint
 10
217.0637956006614
 20
-1.390165411011395
 30
0.0
  0
ENDBLK
  5
3115
330
310C
100
AcDbEntity
  8
0
100
AcDbBlockEnd
  0
BLOCK
  5
311F
330
3117
100
AcDbEntity
  8
0
100
AcDbBlockBegin
  2
*D39
 70
     1
 10
0.0
 20
0.0
 30
0.0
  3
*D39
  1

  0
LINE
  5
3118
330
3117
100
AcDbEntity
  8
D
 62
     0
370
    -2
100
AcDbLine
 10
221.7610096458011
 20
-1.438617112541408
 30
0.0
 11
221.7050096458011
 21
-1.438617112541408
 31
0.0
  0
LINE
  5
3119
330
3117
100
AcDbEntity
  8
D
 62
     0
370
    -2
100
AcDbLine
 10
221.7050096458011
 20
-1.438617112541408
 30
0.0
 11
221.6754418363771
 21
-1.287404063858211
 31
0.0
  0
LINE
  5
311A
330
3117
100
AcDbEntity
  8
D
 62
     0
370
    -2
100
AcDbLine
 10
221.6754418363771
 20
-1.287404063858211
 30
0.0
 11
221.5794418363771
 21
-1.287404063858211
 31
0.0
  0
MTEXT
  5
311B
330
3117
100
AcDbEntity
  8
D
 62
     0
100
AcDbMText
 10
221.4701085030438
 20
-1.287404063858211
 30
0.0
 40
0.04
 41
0.0
 46
0.0
 71
     5
 72
     1
  1
\A1;0.048
 73
     1
 44
1.0
  0
POINT
  5
311C
330
3117
100
AcDbEntity
  8
Defpoints
 62
     0
100
AcDbPoint
 10
221.8010096458011
 20
-1.438617112541408
 30
0.0
  0
POINT
  5
311D
330
3117
100
AcDbEntity
  8
Defpoints
 62
     0
100
AcDbPoint
 10
221.5794418363771
 20
-1.287404063858211
 30
0.0
  0
POINT
  5
311E
330
3117
100
AcDbEntity
  8
Defpoints
 62
     0
100
AcDbPoint
 10
217.0637956006614
 20
-1.390165411011395
 30
0.0
  0
ENDBLK
  5
3120
330
3117
100
AcDbEntity
  8
0
100
AcDbBlockEnd
  0
BLOCK
  5
312A
330
3122
100
AcDbEntity
  8
0
100
AcDbBlockBegin
  2
*D40
 70
     1
 10
0.0
 20
0.0
 30
0.0
  3
*D40
  1

  0
LINE
  5
3123
330
3122
100
AcDbEntity
  8
D
 62
     0
370
    -2
100
AcDbLine
 10
221.9005235331701
 20
-1.485348248686988
 30
0.0
 11
221.9565235331701
 21
-1.485348248686988
 31
0.0
  0
LINE
  5
3124
330
3122
100
AcDbEntity
  8
D
 62
     0
370
    -2
100
AcDbLine
 10
221.9565235331701
 20
-1.485348248686988
 30
0.0
 11
221.9874225274245
 21
-1.59544891418972
 31
0.0
  0
LINE
  5
3125
330
3122
100
AcDbEntity
  8
D
 62
     0
370
    -2
100
AcDbLine
 10
221.9874225274245
 20
-1.59544891418972
 30
0.0
 11
222.0834225274245
 21
-1.59544891418972
 31
0.0
  0
MTEXT
  5
3126
330
3122
100
AcDbEntity
  8
D
 62
     0
100
AcDbMText
 10
222.1927558607578
 20
-1.59544891418972
 30
0.0
 40
0.04
 41
0.0
 46
0.0
 71
     5
 72
     1
  1
\A1;0.095
 73
     1
 44
1.0
  0
POINT
  5
3127
330
3122
100
AcDbEntity
  8
Defpoints
 62
     0
100
AcDbPoint
 10
221.8605235331701
 20
-1.485348248686988
 30
0.0
  0
POINT
  5
3128
330
3122
100
AcDbEntity
  8
Defpoints
 62
     0
100
AcDbPoint
 10
222.0834225274245
 20
-1.59544891418972
 30
0.0
  0
POINT
  5
3129
330
3122
100
AcDbEntity
  8
Defpoints
 62
     0
100
AcDbPoint
 10
217.0637956006614
 20
-1.390165411011395
 30
0.0
  0
ENDBLK
  5
312B
330
3122
100
AcDbEntity
  8
0
100
AcDbBlockEnd
  0
BLOCK
  5
3135
330
312D
100
AcDbEntity
  8
0
100
AcDbBlockBegin
  2
*D41
 70
     1
 10
0.0
 20
0.0
 30
0.0
  3
*D41
  1

  0
LINE
  5
312E
330
312D
100
AcDbEntity
  8
D
 62
     0
370
    -2
100
AcDbLine
 10
220.6223109013436
 20
-1.549665411011404
 30
0.0
 11
220.6783109013437
 21
-1.549665411011404
 31
0.0
  0
LINE
  5
312F
330
312D
100
AcDbEntity
  8
D
 62
     0
370
    -2
100
AcDbLine
 10
220.6783109013437
 20
-1.549665411011404
 30
0.0
 11
220.7411057673514
 21
-1.709823127159189
 31
0.0
  0
LINE
  5
3130
330
312D
100
AcDbEntity
  8
D
 62
     0
370
    -2
100
AcDbLine
 10
220.7411057673514
 20
-1.709823127159189
 30
0.0
 11
220.8371057673514
 21
-1.709823127159189
 31
0.0
  0
MTEXT
  5
3131
330
312D
100
AcDbEntity
  8
D
 62
     0
100
AcDbMText
 10
220.9397724340181
 20
-1.709823127159189
 30
0.0
 40
0.04
 41
0.0
 46
0.0
 71
     5
 72
     1
  1
\A1;0.160
 73
     1
 44
1.0
  0
POINT
  5
3132
330
312D
100
AcDbEntity
  8
Defpoints
 62
     0
100
AcDbPoint
 10
220.5823109013437
 20
-1.549665411011404
 30
0.0
  0
POINT
  5
3133
330
312D
100
AcDbEntity
  8
Defpoints
 62
     0
100
AcDbPoint
 10
220.8371057673514
 20
-1.709823127159189
 30
0.0
  0
POINT
  5
3134
330
312D
100
AcDbEntity
  8
Defpoints
 62
     0
100
AcDbPoint
 10
217.0637956006614
 20
-1.390165411011395
 30
0.0
  0
ENDBLK
  5
3136
330
312D
100
AcDbEntity
  8
0
100
AcDbBlockEnd
  0
BLOCK
  5
3140
330
3138
100
AcDbEntity
  8
0
100
AcDbBlockBegin
  2
*D42
 70
     1
 10
0.0
 20
0.0
 30
0.0
  3
*D42
  1

  0
LINE
  5
3139
330
3138
100
AcDbEntity
  8
D
 62
     0
370
    -2
100
AcDbLine
 10
220.0747956006614
 20
-1.580665411011393
 30
0.0
 11
220.0187956006614
 21
-1.580665411011393
 31
0.0
  0
LINE
  5
313A
330
3138
100
AcDbEntity
  8
D
 62
     0
370
    -2
100
AcDbLine
 10
220.0187956006614
 20
-1.580665411011393
 30
0.0
 11
219.9502504801603
 21
-1.728636039805323
 31
0.0
  0
LINE
  5
313B
330
3138
100
AcDbEntity
  8
D
 62
     0
370
    -2
100
AcDbLine
 10
219.9502504801603
 20
-1.728636039805323
 30
0.0
 11
219.8542504801603
 21
-1.728636039805323
 31
0.0
  0
MTEXT
  5
313C
330
3138
100
AcDbEntity
  8
D
 62
     0
100
AcDbMText
 10
219.754917146827
 20
-1.728636039805323
 30
0.0
 40
0.04
 41
0.0
 46
0.0
 71
     5
 72
     1
  1
\A1;0.191
 73
     1
 44
1.0
  0
POINT
  5
313D
330
3138
100
AcDbEntity
  8
Defpoints
 62
     0
100
AcDbPoint
 10
220.1147956006614
 20
-1.580665411011393
 30
0.0
  0
POINT
  5
313E
330
3138
100
AcDbEntity
  8
Defpoints
 62
     0
100
AcDbPoint
 10
219.8542504801603
 20
-1.728636039805323
 30
0.0
  0
POINT
  5
313F
330
3138
100
AcDbEntity
  8
Defpoints
 62
     0
100
AcDbPoint
 10
217.0637956006614
 20
-1.390165411011395
 30
0.0
  0
ENDBLK
  5
3141
330
3138
100
AcDbEntity
  8
0
100
AcDbBlockEnd
  0
BLOCK
  5
314B
330
3143
100
AcDbEntity
  8
0
100
AcDbBlockBegin
  2
*D43
 70
     1
 10
0.0
 20
0.0
 30
0.0
  3
*D43
  1

  0
LINE
  5
3144
330
3143
100
AcDbEntity
  8
D
 62
     0
370
    -2
100
AcDbLine
 10
220.1885996864983
 20
-1.549665411011399
 30
0.0
 11
220.1325996864983
 21
-1.549665411011399
 31
0.0
  0
LINE
  5
3145
330
3143
100
AcDbEntity
  8
D
 62
     0
370
    -2
100
AcDbLine
 10
220.1325996864983
 20
-1.549665411011399
 30
0.0
 11
220.078285246071
 21
-1.431391982666646
 31
0.0
  0
LINE
  5
3146
330
3143
100
AcDbEntity
  8
D
 62
     0
370
    -2
100
AcDbLine
 10
220.078285246071
 20
-1.431391982666646
 30
0.0
 11
219.982285246071
 21
-1.431391982666646
 31
0.0
  0
MTEXT
  5
3147
330
3143
100
AcDbEntity
  8
D
 62
     0
100
AcDbMText
 10
219.8796185794043
 20
-1.431391982666646
 30
0.0
 40
0.04
 41
0.0
 46
0.0
 71
     5
 72
     1
  1
\A1;0.160
 73
     1
 44
1.0
  0
POINT
  5
3148
330
3143
100
AcDbEntity
  8
Defpoints
 62
     0
100
AcDbPoint
 10
220.2285996864983
 20
-1.549665411011399
 30
0.0
  0
POINT
  5
3149
330
3143
100
AcDbEntity
  8
Defpoints
 62
     0
100
AcDbPoint
 10
219.982285246071
 20
-1.431391982666646
 30
0.0
  0
POINT
  5
314A
330
3143
100
AcDbEntity
  8
Defpoints
 62
     0
100
AcDbPoint
 10
217.0637956006614
 20
-1.390165411011395
 30
0.0
  0
ENDBLK
  5
314C
330
3143
100
AcDbEntity
  8
0
100
AcDbBlockEnd
  0
BLOCK
  5
3154
330
314E
100
AcDbEntity
  8
0
100
AcDbBlockBegin
  2
*D44
 70
     1
 10
0.0
 20
0.0
 30
0.0
  3
*D44
  1

  0
LINE
  5
314F
330
314E
100
AcDbEntity
  8
D
 62
     0
370
    -2
100
AcDbLine
 10
216.9477605496551
 20
-1.161843390221463
 30
0.0
 11
217.0630619469382
 21
-1.273141263055066
 31
0.0
  0
MTEXT
  5
3150
330
314E
100
AcDbEntity
  8
D
 62
     0
100
AcDbMText
 10
216.8619017009253
 20
-1.078965754280005
 30
0.0
 40
0.04
 41
0.0
 46
0.0
 71
     5
 72
     1
  1
\A1;R0.121
 11
0.7194875591881044
 21
-0.6945053291181748
 31
0.0
 73
     1
 44
1.0
  0
SOLID
  5
3151
330
314E
100
AcDbEntity
  8
D
 62
     0
100
AcDbTrace
 10
217.0686179895711
 20
-1.267385362581549
 30
0.0
 11
217.0575059043052
 21
-1.278897163528569
 31
0.0
 12
217.0975973497792
 22
-1.306477518852744
 32
0.0
 13
217.0975973497792
 23
-1.306477518852744
 33
0.0
  0
POINT
  5
3152
330
314E
100
AcDbEntity
  8
Defpoints
 62
     0
100
AcDbPoint
 10
217.0975973497792
 20
-1.306477518852744
 30
0.0
  0
POINT
  5
3153
330
314E
100
AcDbEntity
  8
Defpoints
 62
     0
100
AcDbPoint
 10
217.1842956006614
 20
-1.390165411011466
 30
0.0
  0
ENDBLK
  5
3155
330
314E
100
AcDbEntity
  8
0
100
AcDbBlockEnd
  0
BLOCK
  5
315D
330
3157
100
AcDbEntity
  8
0
100
AcDbBlockBegin
  2
*D45
 70
     1
 10
0.0
 20
0.0
 30
0.0
  3
*D45
  1

  0
LINE
  5
3158
330
3157
100
AcDbEntity
  8
D
 62
     0
370
    -2
100
AcDbLine
 10
216.9808304084984
 20
-1.644428493592243
 30
0.0
 11
217.0594004402519
 21
-1.573273540278322
 31
0.0
  0
MTEXT
  5
3159
330
3157
100
AcDbEntity
  8
D
 62
     0
100
AcDbMText
 10
216.892378445241
 20
-1.724532767138384
 30
0.0
 40
0.04
 41
0.0
 46
0.0
 71
     5
 72
     1
  1
\A1;R0.121
 11
0.7412175691961247
 21
0.6712648621185144
 31
0.0
 73
     1
 44
1.0
  0
SOLID
  5
315A
330
3157
100
AcDbEntity
  8
D
 62
     0
100
AcDbTrace
 10
217.0540303213549
 20
-1.567343799724739
 30
0.0
 11
217.0647705591488
 21
-1.579203280831904
 31
0.0
 12
217.0949788835733
 22
-1.541052826896631
 32
0.0
 13
217.0949788835733
 23
-1.541052826896631
 33
0.0
  0
POINT
  5
315B
330
3157
100
AcDbEntity
  8
Defpoints
 62
     0
100
AcDbPoint
 10
217.0949788835733
 20
-1.541052826896631
 30
0.0
  0
POINT
  5
315C
330
3157
100
AcDbEntity
  8
Defpoints
 62
     0
100
AcDbPoint
 10
217.1842956006615
 20
-1.460165411011288
 30
0.0
  0
ENDBLK
  5
315E
330
3157
100
AcDbEntity
  8
0
100
AcDbBlockEnd
  0
BLOCK
  5
3166
330
3160
100
AcDbEntity
  8
0
100
AcDbBlockBegin
  2
*D46
 70
     1
 10
0.0
 20
0.0
 30
0.0
  3
*D46
  1

  0
LINE
  5
3161
330
3160
100
AcDbEntity
  8
D
 62
     0
370
    -2
100
AcDbLine
 10
220.2353750599458
 20
-0.9871815790981699
 30
0.0
 11
220.1614275186104
 21
-1.252524010141101
 31
0.0
  0
MTEXT
  5
3162
330
3160
100
AcDbEntity
  8
D
 62
     0
100
AcDbMText
 10
220.2692006496503
 20
-0.8658068309783573
 30
0.0
 40
0.04
 41
0.0
 46
0.0
 71
     5
 72
     1
  1
\A1;R0.814
 11
0.2684570611470736
 21
0.9632916517443074
 31
0.0
 73
     1
 44
1.0
  0
SOLID
  5
3163
330
3160
100
AcDbEntity
  8
D
 62
     0
100
AcDbTrace
 10
220.1537211853964
 20
-1.250376353651923
 30
0.0
 11
220.1691338518244
 21
-1.254671666630279
 31
0.0
 12
220.1485415796753
 22
-1.298762009424834
 32
0.0
 13
220.1485415796753
 23
-1.298762009424834
 33
0.0
  0
POINT
  5
3164
330
3160
100
AcDbEntity
  8
Defpoints
 62
     0
100
AcDbPoint
 10
220.1485415796753
 20
-1.298762009424834
 30
0.0
  0
POINT
  5
3165
330
3160
100
AcDbEntity
  8
Defpoints
 62
     0
100
AcDbPoint
 10
219.9299898472672
 20
-2.082980753396277
 30
0.0
  0
ENDBLK
  5
3167
330
3160
100
AcDbEntity
  8
0
100
AcDbBlockEnd
  0
BLOCK
  5
316F
330
3169
100
AcDbEntity
  8
0
100
AcDbBlockBegin
  2
*D47
 70
     1
 10
0.0
 20
0.0
 30
0.0
  3
*D47
  1

  0
LINE
  5
316A
330
3169
100
AcDbEntity
  8
D
 62
     0
370
    -2
100
AcDbLine
 10
221.1369924374508
 20
-1.141864043807335
 30
0.0
 11
221.1429479656529
 21
-1.501391279537544
 31
0.0
  0
MTEXT
  5
316B
330
3169
100
AcDbEntity
  8
D
 62
     0
100
AcDbMText
 10
221.1347399217738
 20
-1.005882698862041
 30
0.0
 40
0.04
 41
0.0
 46
0.0
 71
     5
 72
     1
  1
\A1;R2.224
 11
0.0165626152718394
 21
-0.9998628304799398
 31
0.0
 73
     1
 44
1.0
  0
SOLID
  5
316C
330
3169
100
AcDbEntity
  8
D
 62
     0
100
AcDbTrace
 10
221.1509468682967
 20
-1.501258778615369
 30
0.0
 11
221.1349490630091
 21
-1.501523780459719
 31
0.0
 12
221.1437429711859
 22
-1.549384695400581
 32
0.0
 13
221.1437429711859
 23
-1.549384695400581
 33
0.0
  0
POINT
  5
316D
330
3169
100
AcDbEntity
  8
Defpoints
 62
     0
100
AcDbPoint
 10
221.1437429711859
 20
-1.549384695400581
 30
0.0
  0
POINT
  5
316E
330
3169
100
AcDbEntity
  8
Defpoints
 62
     0
100
AcDbPoint
 10
221.1069024503168
 20
0.6746280506590181
 30
0.0
  0
ENDBLK
  5
3170
330
3169
100
AcDbEntity
  8
0
100
AcDbBlockEnd
  0
BLOCK
  5
3178
330
3172
100
AcDbEntity
  8
0
100
AcDbBlockBegin
  2
*D48
 70
     1
 10
0.0
 20
0.0
 30
0.0
  3
*D48
  1

  0
LINE
  5
3173
330
3172
100
AcDbEntity
  8
D
 62
     0
370
    -2
100
AcDbLine
 10
221.9523962680763
 20
-1.334428825480401
 30
0.0
 11
221.9185602360532
 21
-1.368474720048453
 31
0.0
  0
MTEXT
  5
3174
330
3172
100
AcDbEntity
  8
D
 62
     0
100
AcDbMText
 10
222.0435655765826
 20
-1.242694054005369
 30
0.0
 40
0.04
 41
0.0
 46
0.0
 71
     5
 72
     1
  1
\A1;R0.049
 11
0.7049173338123824
 21
0.7092894701677463
 31
0.0
 73
     1
 44
1.0
  0
SOLID
  5
3175
330
3172
100
AcDbEntity
  8
D
 62
     0
100
AcDbTrace
 10
221.9128859202919
 20
-1.362835381377948
 30
0.0
 11
221.9242345518146
 21
-1.374114058718959
 31
0.0
 12
221.8847242040303
 22
-1.402520614616506
 32
0.0
 13
221.8847242040303
 23
-1.402520614616506
 33
0.0
  0
POINT
  5
3176
330
3172
100
AcDbEntity
  8
Defpoints
 62
     0
100
AcDbPoint
 10
221.8847242040303
 20
-1.402520614616506
 30
0.0
  0
POINT
  5
3177
330
3172
100
AcDbEntity
  8
Defpoints
 62
     0
100
AcDbPoint
 10
221.8501047653075
 20
-1.437354774838311
 30
0.0
  0
ENDBLK
  5
3179
330
3172
100
AcDbEntity
  8
0
100
AcDbBlockEnd
  0
BLOCK
  5
3181
330
317B
100
AcDbEntity
  8
0
100
AcDbBlockBegin
  2
*D49
 70
     1
 10
0.0
 20
0.0
 30
0.0
  3
*D49
  1

  0
LINE
  5
317C
330
317B
100
AcDbEntity
  8
D
 62
     0
370
    -2
100
AcDbLine
 10
221.5392199383544
 20
-1.761554876240005
 30
0.0
 11
221.5151623792456
 21
-1.623443172192075
 31
0.0
  0
MTEXT
  5
317D
330
317B
100
AcDbEntity
  8
D
 62
     0
100
AcDbMText
 10
221.5614142089723
 20
-1.888969653494655
 30
0.0
 40
0.04
 41
0.0
 46
0.0
 71
     5
 72
     1
  1
\A1;R2.315
 11
0.1716051851902185
 21
-0.9851658035152411
 31
0.0
 73
     1
 44
1.0
  0
SOLID
  5
317E
330
317B
100
AcDbEntity
  8
D
 62
     0
100
AcDbTrace
 10
221.5230437056737
 20
-1.622070330710549
 30
0.0
 11
221.5072810528174
 21
-1.624816013673601
 31
0.0
 12
221.5069253303564
 22
-1.576155213623344
 32
0.0
 13
221.5069253303564
 23
-1.576155213623344
 33
0.0
  0
POINT
  5
317F
330
317B
100
AcDbEntity
  8
Defpoints
 62
     0
100
AcDbPoint
 10
221.5069253303564
 20
-1.576155213623344
 30
0.0
  0
POINT
  5
3180
330
317B
100
AcDbEntity
  8
Defpoints
 62
     0
100
AcDbPoint
 10
221.1095899524709
 20
0.7049018907160516
 30
0.0
  0
ENDBLK
  5
3182
330
317B
100
AcDbEntity
  8
0
100
AcDbBlockEnd
  0
BLOCK
  5
318A
330
3184
100
AcDbEntity
  8
0
100
AcDbBlockBegin
  2
*D50
 70
     1
 10
0.0
 20
0.0
 30
0.0
  3
*D50
  1

  0
LINE
  5
3185
330
3184
100
AcDbEntity
  8
D
 62
     0
370
    -2
100
AcDbLine
 10
220.2801299081845
 20
-1.63066316562822
 30
0.0
 11
220.2543647973413
 21
-1.590164288319797
 31
0.0
  0
MTEXT
  5
3186
330
3184
100
AcDbEntity
  8
D
 62
     0
100
AcDbMText
 10
220.3477633241476
 20
-1.736972718562839
 30
0.0
 40
0.04
 41
0.0
 46
0.0
 71
     5
 72
     1
  1
\A1;R0.199
 11
0.5367731425645815
 21
-0.8437266105921654
 31
0.0
 73
     1
 44
1.0
  0
SOLID
  5
3187
330
3184
100
AcDbEntity
  8
D
 62
     0
100
AcDbTrace
 10
220.2611146102261
 20
-1.585870103179274
 30
0.0
 11
220.2476149844566
 21
-1.594458473460321
 31
0.0
 12
220.2285996864983
 22
-1.549665411011375
 32
0.0
 13
220.2285996864983
 23
-1.549665411011375
 33
0.0
  0
POINT
  5
3188
330
3184
100
AcDbEntity
  8
Defpoints
 62
     0
100
AcDbPoint
 10
220.2285996864983
 20
-1.549665411011375
 30
0.0
  0
POINT
  5
3189
330
3184
100
AcDbEntity
  8
Defpoints
 62
     0
100
AcDbPoint
 10
220.1217076716805
 20
-1.381647248011205
 30
0.0
  0
ENDBLK
  5
318B
330
3184
100
AcDbEntity
  8
0
100
AcDbBlockEnd
  0
BLOCK
  5
3198
330
318D
100
AcDbEntity
  8
0
100
AcDbBlockBegin
  2
*D51
 70
     1
 10
0.0
 20
0.0
 30
0.0
  3
*D51
  1

  0
LINE
  5
31BC
330
318D
100
AcDbEntity
  8
D
 62
     0
370
    -2
100
AcDbLine
 10
217.0637956006614
 20
-1.500165411011393
 30
0.0
 11
217.0637956006614
 21
-2.312367968523551
 31
0.0
  0
LINE
  5
31BD
330
318D
100
AcDbEntity
  8
D
 62
     0
370
    -2
100
AcDbLine
 10
221.8992161107975
 20
-1.47735477483834
 30
0.0
 11
221.8992161107975
 21
-2.312367968523551
 31
0.0
  0
LINE
  5
31BE
330
318D
100
AcDbEntity
  8
D
 62
     0
370
    -2
100
AcDbLine
 10
217.1117956006614
 20
-2.264367968523551
 30
0.0
 11
219.2855058557295
 21
-2.264367968523551
 31
0.0
  0
LINE
  5
31BF
330
318D
100
AcDbEntity
  8
D
 62
     0
370
    -2
100
AcDbLine
 10
221.8512161107975
 20
-2.264367968523551
 30
0.0
 11
219.6775058557295
 21
-2.264367968523551
 31
0.0
  0
SOLID
  5
31C0
330
318D
100
AcDbEntity
  8
D
 62
     0
100
AcDbTrace
 10
217.1117956006614
 20
-2.256367968523551
 30
0.0
 11
217.1117956006614
 21
-2.272367968523551
 31
0.0
 12
217.0637956006614
 22
-2.264367968523551
 32
0.0
 13
217.0637956006614
 23
-2.264367968523551
 33
0.0
  0
SOLID
  5
31C1
330
318D
100
AcDbEntity
  8
D
 62
     0
100
AcDbTrace
 10
221.8512161107975
 20
-2.256367968523551
 30
0.0
 11
221.8512161107975
 21
-2.272367968523551
 31
0.0
 12
221.8992161107975
 22
-2.264367968523551
 32
0.0
 13
221.8992161107975
 23
-2.264367968523551
 33
0.0
  0
MTEXT
  5
31C2
330
318D
100
AcDbEntity
  8
D
 62
     0
100
AcDbMText
 10
219.4815058557295
 20
-2.264367968523551
 30
0.0
 40
0.04
 41
0.0
 46
0.0
 71
     5
 72
     1
  1
\A1;4.835 REF
 73
     1
 44
1.0
  0
POINT
  5
31C3
330
318D
100
AcDbEntity
  8
Defpoints
 62
     0
100
AcDbPoint
 10
217.0637956006614
 20
-1.460165411011393
 30
0.0
  0
POINT
  5
31C4
330
318D
100
AcDbEntity
  8
Defpoints
 62
     0
100
AcDbPoint
 10
221.8992161107975
 20
-1.43735477483834
 30
0.0
  0
POINT
  5
31C5
330
318D
100
AcDbEntity
  8
Defpoints
 62
     0
100
AcDbPoint
 10
221.8992161107975
 20
-2.264367968523551
 30
0.0
  0
ENDBLK
  5
3199
330
318D
100
AcDbEntity
  8
0
100
AcDbBlockEnd
  0
BLOCK
  5
31A6
330
319B
100
AcDbEntity
  8
0
100
AcDbBlockBegin
  2
*D52
 70
     1
 10
0.0
 20
0.0
 30
0.0
  3
*D52
  1

  0
LINE
  5
31A8
330
319B
100
AcDbEntity
  8
D
 62
     0
370
    -2
100
AcDbLine
 10
218.8731281710225
 20
-1.580665411011395
 30
0.0
 11
218.898192496703
 21
-1.580665411011395
 31
0.0
  0
LINE
  5
31A9
330
319B
100
AcDbEntity
  8
D
 62
     0
370
    -2
100
AcDbLine
 10
218.8731281710225
 20
-1.269665411011395
 30
0.0
 11
218.898192496703
 21
-1.269665411011395
 31
0.0
  0
LINE
  5
31AA
330
319B
100
AcDbEntity
  8
D
 62
     0
370
    -2
100
AcDbLine
 10
218.850192496703
 20
-1.532665411011395
 30
0.0
 11
218.850192496703
 21
-1.317665411011395
 31
0.0
  0
LINE
  5
31AB
330
319B
100
AcDbEntity
  8
D
 62
     0
370
    -2
100
AcDbLine
 10
218.850192496703
 20
-1.269665411011395
 30
0.0
 11
218.850192496703
 21
-1.221665411011395
 31
0.0
  0
SOLID
  5
31AC
330
319B
100
AcDbEntity
  8
D
 62
     0
100
AcDbTrace
 10
218.842192496703
 20
-1.532665411011395
 30
0.0
 11
218.858192496703
 21
-1.532665411011395
 31
0.0
 12
218.850192496703
 22
-1.580665411011395
 32
0.0
 13
218.850192496703
 23
-1.580665411011395
 33
0.0
  0
SOLID
  5
31AD
330
319B
100
AcDbEntity
  8
D
 62
     0
100
AcDbTrace
 10
218.842192496703
 20
-1.317665411011395
 30
0.0
 11
218.858192496703
 21
-1.317665411011395
 31
0.0
 12
218.850192496703
 22
-1.269665411011395
 32
0.0
 13
218.850192496703
 23
-1.269665411011395
 33
0.0
  0
MTEXT
  5
31AE
330
319B
100
AcDbEntity
  8
D
 62
     0
100
AcDbMText
 10
218.850192496703
 20
-1.042332077678026
 30
0.0
 40
0.04
 41
0.0
 46
0.0
 71
     5
 72
     1
  1
\A1;0.311 REF
 11
0.0000000000000001
 21
1.0
 31
0.0
 73
     1
 44
1.0
  0
POINT
  5
31AF
330
319B
100
AcDbEntity
  8
Defpoints
 62
     0
100
AcDbPoint
 10
218.8331281710225
 20
-1.580665411011395
 30
0.0
  0
POINT
  5
31B0
330
319B
100
AcDbEntity
  8
Defpoints
 62
     0
100
AcDbPoint
 10
218.8331281710225
 20
-1.269665411011395
 30
0.0
  0
POINT
  5
31B1
330
319B
100
AcDbEntity
  8
Defpoints
 62
     0
100
AcDbPoint
 10
218.850192496703
 20
-1.269665411011395
 30
0.0
  0
ENDBLK
  5
31A7
330
319B
100
AcDbEntity
  8
0
100
AcDbBlockEnd
  0
ENDSEC
  0
SECTION
  2
ENTITIES
  0
TEXT
  5
45
330
18
100
AcDbEntity
  8
T
100
AcDbText
 10
15.48616755326692
 20
1.693507973140668
 30
0.0
 40
0.12
  1
 
100
AcDbText
  0
TEXT
  5
69
330
18
100
AcDbEntity
  8
D
100
AcDbText
 10
5.604806811939204
 20
5.027631219471905
 30
0.0
 40
0.1
  1

100
AcDbText
  0
LINE
  5
F5C
330
18
100
AcDbEntity
  8
Title Block
100
AcDbLine
 10
222.8671132055122
 20
0.6807462179658899
 30
0.0
 11
222.8671132055122
 21
-4.19425378203411
 31
0.0
  0
LINE
  5
F5D
330
18
100
AcDbEntity
  8
Title Block
100
AcDbLine
 10
215.1171132055122
 20
-4.19425378203411
 30
0.0
 11
215.1171132055122
 21
0.6807462179658899
 31
0.0
  0
LINE
  5
F5E
330
18
100
AcDbEntity
  8
Title Block
100
AcDbLine
 10
222.8671132055122
 20
-4.19425378203411
 30
0.0
 11
215.1171132055122
 21
-4.19425378203411
 31
0.0
  0
MTEXT
  5
F60
330
18
100
AcDbEntity
  8
TITLE BLOCK TEXT
100
AcDbMText
 10
220.3446099066594
 20
-4.035675370464758
 30
0.0
 40
0.036
 41
0.0
 46
0.0
 71
     4
 72
     1
  1
TOLERANCES:\PX.XXX +/- 0.005"\PFRACTIONS +/- 1/64"\PANGLES +/- 1/2
  7
Roman
 73
     1
 44
1.0
  0
LINE
  5
F61
330
18
100
AcDbEntity
  8
Title Block
100
AcDbLine
 10
220.2832050155143
 20
-3.859688787552666
 30
0.0
 11
221.9689509740086
 21
-3.859688787552283
 31
0.0
  0
LINE
  5
F62
330
18
100
AcDbEntity
  8
Title Block
100
AcDbLine
 10
220.2808159956285
 20
-3.594253782034109
 30
0.0
 11
222.867113205512
 21
-3.594253782034109
 31
0.0
  0
LINE
  5
F63
330
18
100
AcDbEntity
  8
Title Block
100
AcDbLine
 10
220.2808159956286
 20
-4.19425378203411
 30
0.0
 11
220.2808159956286
 21
-3.379762381082252
 31
0.0
  0
TEXT
  5
F65
330
18
100
AcDbEntity
  8
TITLE BLOCK TEXT
100
AcDbText
 10
221.8279701110593
 20
-4.145839862090286
 30
0.0
 40
0.067392
  1
ISON-1016-01-14
  7
Roman
100
AcDbText
  0
LINE
  5
F67
330
18
100
AcDbEntity
  8
Title Block
100
AcDbLine
 10
221.1129344065043
 20
-3.966253782034112
 30
0.0
 11
222.867113205512
 21
-3.966253782034112
 31
0.0
  0
LINE
  5
F68
330
18
100
AcDbEntity
  8
Title Block
100
AcDbLine
 10
221.9689509740085
 20
-3.966253782034112
 30
0.0
 11
221.9689509740086
 21
-3.594253782034178
 31
0.0
  0
LINE
  5
F69
330
18
100
AcDbEntity
  8
Title Block
100
AcDbLine
 10
221.1129344065044
 20
-4.19425378203411
 30
0.0
 11
221.1129344065042
 21
-3.379762381082252
 31
0.0
  0
LINE
  5
F6A
330
18
100
AcDbEntity
  8
Title Block
100
AcDbLine
 10
221.7583542112901
 20
-4.19425378203411
 30
0.0
 11
221.7583542112901
 21
-3.966253782034112
 31
0.0
  0
LINE
  5
F6B
330
18
100
AcDbEntity
  8
Title Block
100
AcDbLine
 10
221.5589703949634
 20
-4.19425378203411
 30
0.0
 11
221.5589703949634
 21
-3.966253782034112
 31
0.0
  0
TEXT
  5
F6C
330
18
100
AcDbEntity
  8
TITLE BLOCK TEXT
100
AcDbText
 10
221.3761493243485
 20
-4.145839862090286
 30
0.0
 40
0.048
  1
2:1
  7
Roman
100
AcDbText
  0
MTEXT
  5
F6D
330
18
100
AcDbEntity
  8
TITLE BLOCK TEXT
100
AcDbMText
 10
221.6084994779424
 20
-4.014697940828336
 30
0.0
 40
0.036
 41
0.0
 46
0.0
 71
     4
 72
     1
  1
REV.
  7
Roman
 73
     1
 44
1.0
  0
LINE
  5
F6E
330
18
100
AcDbEntity
  8
Title Block
100
AcDbLine
 10
221.3188540139814
 20
-4.19425378203411
 30
0.0
 11
221.3188540139814
 21
-3.966253782034112
 31
0.0
  0
TEXT
  5
F6F
330
18
100
AcDbEntity
  8
TITLE BLOCK TEXT
100
AcDbText
 10
221.1908273965526
 20
-4.145839862090286
 30
0.0
 40
0.048
  1
B
  7
Roman
100
AcDbText
  0
MTEXT
  5
F70
330
18
100
AcDbEntity
  8
TITLE BLOCK TEXT
100
AcDbMText
 10
221.1579325797837
 20
-4.014697940828336
 30
0.0
 40
0.036
 41
0.0
 46
0.0
 71
     4
 72
     1
  1
SIZE
  7
Roman
 73
     1
 44
1.0
  0
MTEXT
  5
F71
330
18
100
AcDbEntity
  8
TITLE BLOCK TEXT
100
AcDbMText
 10
221.1463230824977
 20
-3.725798926643472
 30
0.0
 40
0.048
 41
0.0
 46
0.0
 71
     4
 72
     1
  1
OPEN\PLOCK PICK SET\PPICK BLADE
  7
Roman
 73
     1
 44
1.0
  0
MTEXT
  5
F72
330
18
100
AcDbEntity
  8
TITLE BLOCK TEXT
100
AcDbMText
 10
221.3491514798801
 20
-4.014697940828336
 30
0.0
 40
0.036
 41
0.0
 46
0.0
 71
     4
 72
     1
  1
SCALE
  7
Roman
 73
     1
 44
1.0
  0
TEXT
  5
F73
330
18
100
AcDbEntity
  8
TITLE BLOCK TEXT
100
AcDbText
 10
221.8354072920479
 20
-4.034713782034117
 30
0.0
 40
0.039
  1
DWG NO.
  7
Roman
100
AcDbText
  0
LINE
  5
F74
330
18
100
AcDbEntity
  8
Title Block
100
AcDbLine
 10
215.1171132055122
 20
0.6807462179658899
 30
0.0
 11
222.8671132055122
 21
0.6807462179658899
 31
0.0
  0
TEXT
  5
F75
330
18
100
AcDbEntity
  8
TITLE BLOCK TEXT
100
AcDbText
 10
220.6963132055122
 20
0.5849262179658635
 30
0.0
 40
0.039
  1
DESCRIPTION
  7
Roman
100
AcDbText
  0
LINE
  5
F76
330
18
100
AcDbEntity
  8
Title Block
100
AcDbLine
 10
219.8671132055122
 20
0.5307462179658895
 30
0.0
 11
222.8671132055122
 21
0.5307462179658895
 31
0.0
  0
LINE
  5
F77
330
18
100
AcDbEntity
  8
Title Block
100
AcDbLine
 10
219.8671132055122
 20
0.6807462179658899
 30
0.0
 11
222.8671132055122
 21
0.6807462179658899
 31
0.0
  0
TEXT
  5
F78
330
18
100
AcDbEntity
  8
TITLE BLOCK TEXT
100
AcDbText
 10
219.9151732055121
 20
0.5849262179658635
 30
0.0
 40
0.039
  1
REV
  7
Roman
100
AcDbText
  0
TEXT
  5
F7B
330
18
100
AcDbEntity
  8
TITLE BLOCK TEXT
100
AcDbText
 10
222.4119532055121
 20
0.5849262179658635
 30
0.0
 40
0.039
  1
APPROVED
  7
Roman
100
AcDbText
  0
TEXT
  5
F7E
330
18
100
AcDbEntity
  8
TITLE BLOCK TEXT
100
AcDbText
 10
221.9357332055122
 20
0.5849262179658635
 30
0.0
 40
0.039
  1
DATE
  7
Roman
100
AcDbText
  0
LINE
  5
119C
330
18
100
AcDbEntity
  8
PICK
100
AcDbLine
 10
215.9464550908254
 20
-1.580665411011395
 30
0.0
 11
215.9464550908254
 21
-1.269665411011402
 31
0.0
  0
LINE
  5
119D
330
18
100
AcDbEntity
  8
PICK
100
AcDbLine
 10
215.9664550908254
 20
-1.580665411011395
 30
0.0
 11
215.9664550908254
 21
-1.269665411011402
 31
0.0
  0
LINE
  5
119E
330
18
100
AcDbEntity
  8
PICK
100
AcDbLine
 10
214.836885864041
 20
-5.999676172326758
 30
0.0
 11
214.856885864041
 21
-5.999676172326758
 31
0.0
  0
LINE
  5
119F
330
18
100
AcDbEntity
  8
PICK
100
AcDbLine
 10
215.9664550908254
 20
-1.269665411011402
 30
0.0
 11
215.9464550908254
 21
-1.269665411011402
 31
0.0
  0
LINE
  5
11A0
330
18
100
AcDbEntity
  8
PICK
100
AcDbLine
 10
215.9464550908254
 20
-1.269665411011402
 30
0.0
 11
215.9664550908254
 21
-1.269665411011402
 31
0.0
  0
LINE
  5
11A1
330
18
100
AcDbEntity
  8
PICK
100
AcDbLine
 10
215.9464550908254
 20
-1.580665411011395
 30
0.0
 11
215.9664550908254
 21
-1.580665411011395
 31
0.0
  0
DIMENSION
  5
11A2
330
18
100
AcDbEntity
  8
D
100
AcDbDimension
280
     0
  2
*D20
 10
215.9464550908254
 20
-1.073153340859391
 30
0.0
 11
215.6644550908254
 21
-1.073153340859391
 31
0.0
 70
    32
  1
<> REF
 71
     5
 42
0.0199999999999818
 73
     0
 74
     0
 75
     0
  3
TPS3
100
AcDbAlignedDimension
 13
215.9664550908254
 23
-1.269665411011402
 33
0.0
 14
215.9464550908254
 24
-1.269665411011402
 34
0.0
100
AcDbRotatedDimension
  0
LINE
  5
123E
330
18
100
AcDbEntity
  8
Title Block
100
AcDbLine
 10
218.3670431001213
 20
-3.194056640204962
 30
0.0
 11
215.1171132055122
 21
-3.194056640204962
 31
0.0
  0
MTEXT
  5
1240
330
18
100
AcDbEntity
  8
D
100
AcDbMText
 10
216.6536727265738
 20
-3.963035119641034
 30
0.0
 40
0.04
 41
0.0
 46
0.0
 71
     5
 72
     1
  1
*****THIS VIEW IS 1:1 ONLY WHEN PRINTED \PON 11X17 PAPER.*****
 73
     1
 44
1.0
  0
LINE
  5
1241
330
18
100
AcDbEntity
  8
Title Block
100
AcDbLine
 10
218.3670431001213
 20
-4.19425378203411
 30
0.0
 11
218.3670431001213
 21
-3.194056640204962
 31
0.0
  0
LINE
  5
12AA
330
18
100
AcDbEntity
  8
Title Block
100
AcDbLine
 10
220.2808159956285
 20
-3.379762381082252
 30
0.0
 11
221.1129344065042
 21
-3.379762381082251
 31
0.0
  0
MTEXT
  5
137A
330
18
100
AcDbEntity
  8
D
100
AcDbMText
 10
216.6536727265738
 20
-3.39668549162647
 30
0.0
 40
0.04
 41
0.0
 46
0.0
 71
     5
 72
     1
  1
*****THIS VIEW IS 1:1 ONLY WHEN PRINTED \PON 11X17 PAPER.*****
 73
     1
 44
1.0
  0
MTEXT
  5
17D9
330
18
100
AcDbEntity
  8
TITLE BLOCK TEXT
100
AcDbMText
 10
221.1561052303493
 20
-3.91012371801049
 30
0.0
 40
0.048
 41
0.0
 46
0.0
 71
     4
 72
     1
  1
DATE: 5-18-2011
  7
Roman
 73
     1
 44
1.0
  0
LINE
  5
306B
330
18
100
AcDbEntity
  8
PICK
100
AcDbLine
 10
217.1842956006615
 20
-1.580665411011395
 30
0.0
 11
220.1147956006615
 21
-1.580665411011395
 31
0.0
  0
LINE
  5
306C
330
18
100
AcDbEntity
  8
PICK
100
AcDbLine
 10
217.1842956006615
 20
-1.269665411011395
 30
0.0
 11
219.9657956006615
 21
-1.269665411011395
 31
0.0
  0
LINE
  5
306D
330
18
100
AcDbEntity
  8
PICK
100
AcDbLine
 10
217.0637956006614
 20
-1.460165411011393
 30
0.0
 11
217.0637956006614
 21
-1.390165411011395
 31
0.0
  0
ARC
  5
306E
330
18
100
AcDbEntity
  8
PICK
100
AcDbCircle
 10
219.9299898472671
 20
-2.082980753396274
 30
0.0
 40
0.8141031250000029
100
AcDbArc
 50
51.40869651708104
 51
87.47921304375259
  0
ARC
  5
3070
330
18
100
AcDbEntity
  8
PICK
100
AcDbCircle
 10
220.1217076716806
 20
-1.38164724801128
 30
0.0
 40
0.1991381578947491
100
AcDbArc
 50
268.0108681009747
 51
302.4642416649014
  0
ARC
  5
3071
330
18
100
AcDbEntity
  8
PICK
100
AcDbCircle
 10
217.1842956006615
 20
-1.390165411011395
 30
0.0
 40
0.1204999999999998
100
AcDbArc
 50
90.0
 51
180.0
  0
ARC
  5
3072
330
18
100
AcDbEntity
  8
PICK
100
AcDbCircle
 10
217.1842956006615
 20
-1.460165411011395
 30
0.0
 40
0.1204999999999998
100
AcDbArc
 50
179.999999999999
 51
270.0
  0
LINE
  5
3073
330
18
100
AcDbEntity
  8
PICK
100
AcDbLine
 10
220.5823109013437
 20
-1.549665411011399
 30
0.0
 11
220.2285996864983
 21
-1.549665411011399
 31
0.0
  0
ARC
  5
3074
330
18
100
AcDbEntity
  8
PICK
100
AcDbCircle
 10
221.1069024503165
 20
0.674628050659015
 30
0.0
 40
2.224317854672187
100
AcDbArc
 50
252.4934754949595
 51
288.1830553559734
  0
ARC
  5
3075
330
18
100
AcDbEntity
  8
PICK
100
AcDbCircle
 10
221.1095899524711
 20
0.7049018907160943
 30
0.0
 40
2.315404266165344
100
AcDbArc
 50
256.8367382481776
 51
288.9244261553595
  0
ARC
  5
3076
330
18
100
AcDbEntity
  8
PICK
100
AcDbCircle
 10
221.8501047653076
 20
-1.43735477483834
 30
0.0
 40
0.0491113454899672
100
AcDbArc
 50
282.2481339265448
 51
181.4728692201546
  0
DIMENSION
  5
3077
330
18
100
AcDbEntity
  8
D
100
AcDbDimension
280
     0
  2
*D23
 10
217.0637956006614
 20
-1.390165411011395
 30
0.0
 11
217.0637956006614
 21
-1.028631908692853
 31
0.0
 70
   102
 71
     5
 42
0.0
 73
     0
 74
     0
 75
     0
  3
TPS3
100
AcDbOrdinateDimension
 13
217.0637956006614
 23
-1.390165411011395
 33
0.0
 14
217.0637956006614
 24
-1.131298575359554
 34
0.0
  0
DIMENSION
  5
3080
330
18
100
AcDbEntity
  8
D
100
AcDbDimension
280
     0
  2
*D24
 10
217.0637956006614
 20
-1.390165411011395
 30
0.0
 11
216.7844457091646
 21
-1.390165411011395
 31
0.0
 70
    38
 71
     5
 42
0.0
 73
     0
 74
     0
 75
     0
  3
TPS3
100
AcDbOrdinateDimension
 13
217.0637956006614
 23
-1.390165411011395
 33
0.0
 14
216.8871123758313
 24
-1.390165411011395
 34
0.0
  0
DIMENSION
  5
3089
330
18
100
AcDbEntity
  8
D
100
AcDbDimension
280
     0
  2
*D25
 10
217.0637956006614
 20
-1.390165411011395
 30
0.0
 11
217.1842956006615
 21
-0.9239999438050231
 31
0.0
 70
   102
 71
     5
 42
0.1204999999999927
 73
     0
 74
     0
 75
     0
  3
TPS3
100
AcDbOrdinateDimension
 13
217.1842956006615
 23
-1.269665411011395
 33
0.0
 14
217.1842956006615
 24
-1.023333277138391
 34
0.0
  0
DIMENSION
  5
3092
330
18
100
AcDbEntity
  8
D
100
AcDbDimension
280
     0
  2
*D26
 10
217.0637956006614
 20
-1.390165411011395
 30
0.0
 11
216.8630904995334
 21
-1.269665411011395
 31
0.0
 70
    38
 71
     5
 42
0.1204999999999998
 73
     0
 74
     0
 75
     0
  3
TPS3
100
AcDbOrdinateDimension
 13
217.1842956006615
 23
-1.269665411011395
 33
0.0
 14
216.9624238328667
 24
-1.269665411011395
 34
0.0
  0
DIMENSION
  5
309B
330
18
100
AcDbEntity
  8
D
100
AcDbDimension
280
     0
  2
*D27
 10
217.0637956006614
 20
-1.390165411011395
 30
0.0
 11
216.8074255283756
 21
-1.580665411011395
 31
0.0
 70
    38
 71
     5
 42
0.1905000000000001
 73
     0
 74
     0
 75
     0
  3
TPS3
100
AcDbOrdinateDimension
 13
217.1842956006615
 23
-1.580665411011395
 33
0.0
 14
216.906758861709
 24
-1.580665411011395
 34
0.0
  0
DIMENSION
  5
30A4
330
18
100
AcDbEntity
  8
D
100
AcDbDimension
280
     0
  2
*D28
 10
217.0637956006614
 20
-1.390165411011395
 30
0.0
 11
216.7811123758313
 21
-1.460165411011393
 31
0.0
 70
    38
 71
     5
 42
0.0699999999999985
 73
     0
 74
     0
 75
     0
  3
TPS3
100
AcDbOrdinateDimension
 13
217.0637956006614
 23
-1.460165411011393
 33
0.0
 14
216.8871123758313
 24
-1.460165411011393
 34
0.0
  0
DIMENSION
  5
30AD
330
18
100
AcDbEntity
  8
D
100
AcDbDimension
280
     0
  2
*D29
 10
217.0637956006614
 20
-1.390165411011395
 30
0.0
 11
217.1842956006615
 21
-1.816195159553906
 31
0.0
 70
   102
 71
     5
 42
0.1204999999999927
 73
     0
 74
     0
 75
     0
  3
TPS3
100
AcDbOrdinateDimension
 13
217.1842956006615
 23
-1.580665411011395
 33
0.0
 14
217.1842956006615
 24
-1.716861826220608
 34
0.0
  0
POINT
  5
30B6
330
18
100
AcDbEntity
  8
D
100
AcDbPoint
 10
217.1842956006615
 20
-1.269665411011395
 30
0.0
  0
POINT
  5
30B7
330
18
100
AcDbEntity
  8
D
100
AcDbPoint
 10
217.0637956006614
 20
-1.390165411011395
 30
0.0
  0
POINT
  5
30B8
330
18
100
AcDbEntity
  8
D
100
AcDbPoint
 10
217.0637956006614
 20
-1.460165411011393
 30
0.0
  0
POINT
  5
30B9
330
18
100
AcDbEntity
  8
D
100
AcDbPoint
 10
217.1842956006615
 20
-1.580665411011395
 30
0.0
  0
POINT
  5
30BA
330
18
100
AcDbEntity
  8
D
100
AcDbPoint
 10
219.9657956006615
 20
-1.269665411011395
 30
0.0
  0
POINT
  5
30BB
330
18
100
AcDbEntity
  8
D
100
AcDbPoint
 10
220.4377956006614
 20
-1.446665411011395
 30
0.0
  0
POINT
  5
30BC
330
18
100
AcDbEntity
  8
D
100
AcDbPoint
 10
221.8010096458011
 20
-1.438617112541408
 30
0.0
  0
POINT
  5
30BD
330
18
100
AcDbEntity
  8
D
100
AcDbPoint
 10
221.8605235331701
 20
-1.485348248686988
 30
0.0
  0
POINT
  5
30BE
330
18
100
AcDbEntity
  8
D
100
AcDbPoint
 10
220.5823109013437
 20
-1.549665411011404
 30
0.0
  0
POINT
  5
30BF
330
18
100
AcDbEntity
  8
D
100
AcDbPoint
 10
220.2285996864983
 20
-1.549665411011399
 30
0.0
  0
POINT
  5
30C0
330
18
100
AcDbEntity
  8
D
100
AcDbPoint
 10
220.1147956006614
 20
-1.580665411011393
 30
0.0
  0
DIMENSION
  5
30C1
330
18
100
AcDbEntity
  8
D
100
AcDbDimension
280
     0
  2
*D30
 10
217.0637956006614
 20
-1.390165411011395
 30
0.0
 11
219.9657956006615
 21
-0.8631175681962758
 31
0.0
 70
   102
 71
     5
 42
2.902000000000043
 73
     0
 74
     0
 75
     0
  3
TPS3
100
AcDbOrdinateDimension
 13
219.9657956006615
 23
-1.269665411011395
 33
0.0
 14
219.9657956006615
 24
-0.9757842348629779
 34
0.0
  0
DIMENSION
  5
30CA
330
18
100
AcDbEntity
  8
D
100
AcDbDimension
280
     0
  2
*D31
 10
217.0637956006614
 20
-1.390165411011395
 30
0.0
 11
220.4377956006614
 21
-1.092707513301213
 31
0.0
 70
   102
 71
     5
 42
3.373999999999995
 73
     0
 74
     0
 75
     0
  3
TPS3
100
AcDbOrdinateDimension
 13
220.4377956006614
 23
-1.446665411011395
 33
0.0
 14
220.4377956006614
 24
-1.208707513301249
 34
0.0
  0
DIMENSION
  5
30D3
330
18
100
AcDbEntity
  8
D
100
AcDbDimension
280
     0
  2
*D32
 10
217.0637956006614
 20
-1.390165411011395
 30
0.0
 11
221.8010096458011
 21
-1.036773116097627
 31
0.0
 70
   102
 71
     5
 42
4.737214045139637
 73
     0
 74
     0
 75
     0
  3
TPS3
100
AcDbOrdinateDimension
 13
221.8010096458011
 23
-1.438617112541408
 33
0.0
 14
221.8010096458011
 24
-1.152773116097662
 34
0.0
  0
DIMENSION
  5
30DC
330
18
100
AcDbEntity
  8
D
100
AcDbDimension
280
     0
  2
*D33
 10
217.0637956006614
 20
-1.390165411011395
 30
0.0
 11
221.7877063835715
 21
-1.870855445247862
 31
0.0
 70
   230
 71
     5
 42
4.796727932508701
 73
     0
 74
     0
 75
     0
  3
TPS3
100
AcDbOrdinateDimension
 13
221.8605235331701
 23
-1.485348248686988
 33
0.0
 14
221.7877063835715
 24
-1.754855445247897
 34
0.0
  0
DIMENSION
  5
30E5
330
18
100
AcDbEntity
  8
D
100
AcDbDimension
280
     0
  2
*D34
 10
217.0637956006614
 20
-1.390165411011395
 30
0.0
 11
220.5823109013437
 21
-1.872140094988233
 31
0.0
 70
   102
 71
     5
 42
3.518515300682224
 73
     0
 74
     0
 75
     0
  3
TPS3
100
AcDbOrdinateDimension
 13
220.5823109013437
 23
-1.549665411011404
 33
0.0
 14
220.5823109013437
 24
-1.762806761654935
 34
0.0
  0
DIMENSION
  5
30EE
330
18
100
AcDbEntity
  8
D
100
AcDbDimension
280
     0
  2
*D35
 10
217.0637956006614
 20
-1.390165411011395
 30
0.0
 11
220.2285996864983
 21
-1.954752429446875
 31
0.0
 70
   102
 71
     5
 42
3.164804085836834
 73
     0
 74
     0
 75
     0
  3
TPS3
100
AcDbOrdinateDimension
 13
220.2285996864983
 23
-1.549665411011399
 33
0.0
 14
220.2285996864983
 24
-1.845419096113577
 34
0.0
  0
DIMENSION
  5
30F7
330
18
100
AcDbEntity
  8
D
100
AcDbDimension
280
     0
  2
*D36
 10
217.0637956006614
 20
-1.390165411011395
 30
0.0
 11
220.1147956006614
 21
-2.058329175086244
 31
0.0
 70
   102
 71
     5
 42
3.050999999999959
 73
     0
 74
     0
 75
     0
  3
TPS3
100
AcDbOrdinateDimension
 13
220.1147956006614
 23
-1.580665411011393
 33
0.0
 14
220.1147956006614
 24
-1.95232917508628
 34
0.0
  0
DIMENSION
  5
3100
330
18
100
AcDbEntity
  8
D
100
AcDbDimension
280
     0
  2
*D37
 10
217.0637956006614
 20
-1.390165411011395
 30
0.0
 11
219.6037911829603
 21
-1.169263557158302
 31
0.0
 70
    38
 71
     5
 42
0.1204999999999998
 73
     0
 74
     0
 75
     0
  3
TPS3
100
AcDbOrdinateDimension
 13
219.9657956006615
 23
-1.269665411011395
 33
0.0
 14
219.7031245162937
 24
-1.169263557158302
 34
0.0
  0
DIMENSION
  5
310B
330
18
100
AcDbEntity
  8
D
100
AcDbDimension
280
     0
  2
*D38
 10
217.0637956006614
 20
-1.390165411011395
 30
0.0
 11
220.7728932159168
 21
-1.306915836444389
 31
0.0
 70
    38
 71
     5
 42
0.0565000000000007
 73
     0
 74
     0
 75
     0
  3
TPS3
100
AcDbOrdinateDimension
 13
220.4377956006614
 23
-1.446665411011395
 33
0.0
 14
220.6635598825835
 24
-1.306915836444389
 34
0.0
  0
DIMENSION
  5
3116
330
18
100
AcDbEntity
  8
D
100
AcDbDimension
280
     0
  2
*D39
 10
217.0637956006614
 20
-1.390165411011395
 30
0.0
 11
221.4701085030438
 21
-1.287404063858211
 31
0.0
 70
    38
 71
     5
 42
0.0484517015300128
 73
     0
 74
     0
 75
     0
  3
TPS3
100
AcDbOrdinateDimension
 13
221.8010096458011
 23
-1.438617112541408
 33
0.0
 14
221.5794418363771
 24
-1.287404063858211
 34
0.0
  0
DIMENSION
  5
3121
330
18
100
AcDbEntity
  8
D
100
AcDbDimension
280
     0
  2
*D40
 10
217.0637956006614
 20
-1.390165411011395
 30
0.0
 11
222.1927558607578
 21
-1.59544891418972
 31
0.0
 70
    38
 71
     5
 42
0.095182837675593
 73
     0
 74
     0
 75
     0
  3
TPS3
100
AcDbOrdinateDimension
 13
221.8605235331701
 23
-1.485348248686988
 33
0.0
 14
222.0834225274245
 24
-1.59544891418972
 34
0.0
  0
DIMENSION
  5
312C
330
18
100
AcDbEntity
  8
D
100
AcDbDimension
280
     0
  2
*D41
 10
217.0637956006614
 20
-1.390165411011395
 30
0.0
 11
220.9397724340181
 21
-1.709823127159189
 31
0.0
 70
    38
 71
     5
 42
0.1595000000000097
 73
     0
 74
     0
 75
     0
  3
TPS3
100
AcDbOrdinateDimension
 13
220.5823109013437
 23
-1.549665411011404
 33
0.0
 14
220.8371057673514
 24
-1.709823127159189
 34
0.0
  0
DIMENSION
  5
3137
330
18
100
AcDbEntity
  8
D
100
AcDbDimension
280
     0
  2
*D42
 10
217.0637956006614
 20
-1.390165411011395
 30
0.0
 11
219.754917146827
 21
-1.728636039805323
 31
0.0
 70
    38
 71
     5
 42
0.1904999999999983
 73
     0
 74
     0
 75
     0
  3
TPS3
100
AcDbOrdinateDimension
 13
220.1147956006614
 23
-1.580665411011393
 33
0.0
 14
219.8542504801603
 24
-1.728636039805323
 34
0.0
  0
DIMENSION
  5
3142
330
18
100
AcDbEntity
  8
D
100
AcDbDimension
280
     0
  2
*D43
 10
217.0637956006614
 20
-1.390165411011395
 30
0.0
 11
219.8796185794043
 21
-1.431391982666646
 31
0.0
 70
    38
 71
     5
 42
0.1595000000000044
 73
     0
 74
     0
 75
     0
  3
TPS3
100
AcDbOrdinateDimension
 13
220.2285996864983
 23
-1.549665411011399
 33
0.0
 14
219.982285246071
 24
-1.431391982666646
 34
0.0
  0
DIMENSION
  5
314D
330
18
100
AcDbEntity
  8
D
100
AcDbDimension
280
     0
  2
*D44
 10
217.1842956006614
 20
-1.390165411011466
 30
0.0
 11
216.8619017009253
 21
-1.078965754280005
 31
0.0
 70
   164
 71
     5
 42
0.1204999999999643
 73
     0
 74
     0
 75
     0
  3
TPS3
100
AcDbRadialDimension
 15
217.0975973497792
 25
-1.306477518852744
 35
0.0
 40
0.0
1001
ACAD
1000
DSTYLE
1002
{
1070
   288
1070
     1
1002
}
  0
DIMENSION
  5
3156
330
18
100
AcDbEntity
  8
D
100
AcDbDimension
280
     0
  2
*D45
 10
217.1842956006615
 20
-1.460165411011288
 30
0.0
 11
216.892378445241
 21
-1.724532767138384
 31
0.0
 70
   164
 71
     5
 42
0.1205000000001064
 73
     0
 74
     0
 75
     0
  3
TPS3
100
AcDbRadialDimension
 15
217.0949788835733
 25
-1.541052826896631
 35
0.0
 40
0.0
1001
ACAD
1000
DSTYLE
1002
{
1070
   288
1070
     1
1002
}
  0
DIMENSION
  5
315F
330
18
100
AcDbEntity
  8
D
100
AcDbDimension
280
     0
  2
*D46
 10
219.9299898472672
 20
-2.082980753396277
 30
0.0
 11
220.2692006496503
 21
-0.8658068309783573
 31
0.0
 70
   164
 71
     5
 42
0.8141031249999954
 73
     0
 74
     0
 75
     0
  3
TPS3
100
AcDbRadialDimension
 15
220.1485415796753
 25
-1.298762009424834
 35
0.0
 40
0.0
1001
ACAD
1000
DSTYLE
1002
{
1070
   288
1070
     1
1002
}
  0
DIMENSION
  5
3168
330
18
100
AcDbEntity
  8
D
100
AcDbDimension
280
     0
  2
*D47
 10
221.1069024503168
 20
0.6746280506590181
 30
0.0
 11
221.1347399217738
 21
-1.005882698862041
 31
0.0
 70
   164
 71
     5
 42
2.224317854672185
 73
     0
 74
     0
 75
     0
  3
TPS3
100
AcDbRadialDimension
 15
221.1437429711859
 25
-1.549384695400581
 35
0.0
 40
0.0
1001
ACAD
1000
DSTYLE
1002
{
1070
   288
1070
     1
1002
}
  0
DIMENSION
  5
3171
330
18
100
AcDbEntity
  8
D
100
AcDbDimension
280
     0
  2
*D48
 10
221.8501047653075
 20
-1.437354774838311
 30
0.0
 11
222.0435655765826
 21
-1.242694054005369
 31
0.0
 70
    36
 71
     5
 42
0.0491113454899619
 73
     0
 74
     0
 75
     0
  3
TPS3
100
AcDbRadialDimension
 15
221.8847242040303
 25
-1.402520614616506
 35
0.0
 40
0.0
1001
ACAD
1000
DSTYLE
1002
{
1070
   288
1070
     1
1002
}
  0
DIMENSION
  5
317A
330
18
100
AcDbEntity
  8
D
100
AcDbDimension
280
     0
  2
*D49
 10
221.1095899524709
 20
0.7049018907160516
 30
0.0
 11
221.5614142089723
 21
-1.888969653494655
 31
0.0
 70
   164
 71
     5
 42
2.315404266165344
 73
     0
 74
     0
 75
     0
  3
TPS3
100
AcDbRadialDimension
 15
221.5069253303564
 25
-1.576155213623344
 35
0.0
 40
0.0
1001
ACAD
1000
DSTYLE
1002
{
1070
   288
1070
     1
1002
}
  0
DIMENSION
  5
3183
330
18
100
AcDbEntity
  8
D
100
AcDbDimension
280
     0
  2
*D50
 10
220.1217076716805
 20
-1.381647248011205
 30
0.0
 11
220.3477633241476
 21
-1.736972718562839
 31
0.0
 70
    36
 71
     5
 42
0.1991381578948221
 73
     0
 74
     0
 75
     0
  3
TPS3
100
AcDbRadialDimension
 15
220.2285996864983
 25
-1.549665411011375
 35
0.0
 40
0.0
1001
ACAD
1000
DSTYLE
1002
{
1070
   279
1070
     1
1070
   288
1070
     1
1002
}
  0
DIMENSION
  5
318C
330
18
100
AcDbEntity
  8
D
100
AcDbDimension
280
     0
  2
*D51
 10
221.8992161107975
 20
-2.264367968523551
 30
0.0
 11
219.4815058557295
 21
-2.264367968523551
 31
0.0
 70
    32
  1
<> REF
 71
     5
 42
4.835420510136088
 73
     0
 74
     0
 75
     0
  3
TPS3
100
AcDbAlignedDimension
 13
217.0637956006614
 23
-1.460165411011393
 33
0.0
 14
221.8992161107975
 24
-1.43735477483834
 34
0.0
100
AcDbRotatedDimension
  0
DIMENSION
  5
319A
330
18
100
AcDbEntity
  8
D
100
AcDbDimension
280
     0
  2
*D52
 10
218.850192496703
 20
-1.269665411011395
 30
0.0
 11
218.850192496703
 21
-1.042332077678026
 31
0.0
 70
    32
  1
<> REF
 71
     5
 42
0.3109999999999999
 73
     0
 74
     0
 75
     0
  3
TPS3
100
AcDbAlignedDimension
 13
218.8331281710225
 23
-1.580665411011395
 33
0.0
 14
218.8331281710225
 24
-1.269665411011395
 34
0.0
 50
90.0
100
AcDbRotatedDimension
  0
ARC
  5
31DD
330
18
100
AcDbEntity
  8
Title Block
100
AcDbCircle
 10
218.0315783840924
 20
-3.675764698452374
 30
0.0
 40
0.0245556727449836
100
AcDbArc
 50
282.2481339265448
 51
181.4728692201546
  0
ARC
  5
31DE
330
18
100
AcDbEntity
  8
Title Block
100
AcDbCircle
 10
217.6599772265968
 20
-2.619773285703696
 30
0.0
 40
1.112158927336093
100
AcDbArc
 50
252.4934754949595
 51
288.1830553559734
  0
ARC
  5
31DF
330
18
100
AcDbEntity
  8
Title Block
100
AcDbCircle
 10
215.6986738017693
 20
-3.687170016538901
 30
0.0
 40
0.0602499999999999
100
AcDbArc
 50
179.999999999999
 51
270.0
  0
LINE
  5
31E0
330
18
100
AcDbEntity
  8
Title Block
100
AcDbLine
 10
217.3976814521104
 20
-3.731920016538904
 30
0.0
 11
217.2208258446878
 21
-3.731920016538904
 31
0.0
  0
LINE
  5
31E1
330
18
100
AcDbEntity
  8
Title Block
100
AcDbLine
 10
215.6986738017693
 20
-3.747420016538901
 30
0.0
 11
217.1639238017693
 21
-3.747420016538901
 31
0.0
  0
ARC
  5
31E2
330
18
100
AcDbEntity
  8
Title Block
100
AcDbCircle
 10
217.1673798372789
 20
-3.647910935038844
 30
0.0
 40
0.0995690789473746
100
AcDbArc
 50
268.0108681009747
 51
302.4642416649014
  0
ARC
  5
31E3
330
18
100
AcDbEntity
  8
Title Block
100
AcDbCircle
 10
217.6613209776742
 20
-2.604636365675156
 30
0.0
 40
1.157702133082672
100
AcDbArc
 50
256.8367382481776
 51
288.9244261553595
  0
ARC
  5
31E4
330
18
100
AcDbEntity
  8
Title Block
100
AcDbCircle
 10
217.0715209250722
 20
-3.998577687731341
 30
0.0
 40
0.4070515625000015
100
AcDbArc
 50
51.40869651708104
 51
87.47921304375259
  0
LINE
  5
31E5
330
18
100
AcDbEntity
  8
Title Block
100
AcDbLine
 10
215.6986738017693
 20
-3.591920016538901
 30
0.0
 11
217.0894238017694
 21
-3.591920016538901
 31
0.0
  0
ARC
  5
31E6
330
18
100
AcDbEntity
  8
Title Block
100
AcDbCircle
 10
215.6986738017693
 20
-3.652170016538901
 30
0.0
 40
0.0602499999999999
100
AcDbArc
 50
90.0
 51
180.0
  0
LINE
  5
31E7
330
18
100
AcDbEntity
  8
Title Block
100
AcDbLine
 10
215.6384238017693
 20
-3.6871700165389
 30
0.0
 11
215.6384238017693
 21
-3.652170016538901
 31
0.0
  0
TEXT
  5
31F6
330
18
100
AcDbEntity
  8
SECTION
100
AcDbText
 10
221.6255554126651
 20
-4.145839862090286
 30
0.0
 40
0.048
  1
A
  7
Roman
100
AcDbText
  0
MTEXT
  5
321F
330
18
100
AcDbEntity
  8
TITLE BLOCK TEXT
100
AcDbMText
 10
220.3431312761054
 20
-3.489393816339566
 30
0.0
 40
0.048
 41
0.0
 46
0.0
 71
     4
 72
     1
  1
MOCK UP QTY: 30\PPROD QTY: 2500
  7
Roman
 73
     1
 44
1.0
  0
MTEXT
  5
3220
330
18
100
AcDbEntity
  8
TITLE BLOCK TEXT
100
AcDbMText
 10
220.3496846080446
 20
-3.746666059204761
 30
0.0
 40
0.036
 41
0.0
 46
0.0
 71
     4
 72
     1
  1
MATL: 1095 STEEL\PMATL CERTS REQUIRED\PFINISH: DEBUR, TUMBLE
  7
Roman
 73
     1
 44
1.0
  0
MTEXT
  5
3221
330
18
100
AcDbEntity
  8
TITLE BLOCK TEXT
100
AcDbMText
 10
221.3459265286971
 20
-3.342274995093253
 30
0.0
 40
0.036
 41
0.0
 46
0.0
 71
     4
 72
     1
  1
NOTES:\P-CAD FILES AVAILABLE WITH ORDER.\P-ACAD 2000 DWG OR ACAD DXF PROVIDED.\P-CAD FILE IN MAIN VIEW IS DRAWN 1:1.\P-BORDER IS SCALED TO PRINT.\P-LAYED TO CUT IS CALLED "PICK"
  7
Roman
 73
     1
 44
1.0
  0
ENDSEC
  0
SECTION
  2
OBJECTS
  0
DICTIONARY
  5
C
330
0
100
AcDbDictionary
281
     1
  3
ACAD_COLOR
350
3259
  3
ACAD_GROUP
350
D
  3
ACAD_LAYOUT
350
107
  3
ACAD_MATERIAL
350
322C
  3
ACAD_MLEADERSTYLE
350
327E
  3
ACAD_MLINESTYLE
350
E
  3
ACAD_PLOTSETTINGS
350
108
  3
ACAD_PLOTSTYLENAME
350
105
  3
ACAD_SCALELIST
350
325C
  3
ACAD_TABLESTYLE
350
325A
  3
ACAD_VISUALSTYLE
350
3245
  3
AcadDim
350
2A8
  3
ACDB_RECOMPOSE_DATA
350
32B6
  3
AcDbVariableDictionary
350
32AC
  3
ASE_INDEX_DICTIONARY
350
29C
  0
DICTIONARY
  5
328D
330
F
100
AcDbDictionary
280
     1
281
     1
  3
ADSK_XREC_LAYER_RECONCILED
360
328E
  0
DICTIONARY
  5
328F
330
24
100
AcDbDictionary
280
     1
281
     1
  3
ADSK_XREC_LAYER_RECONCILED
360
3290
  0
DICTIONARY
  5
3291
330
25
100
AcDbDictionary
280
     1
281
     1
  3
ADSK_XREC_LAYER_RECONCILED
360
3292
  0
DICTIONARY
  5
3293
330
26
100
AcDbDictionary
280
     1
281
     1
  3
ADSK_XREC_LAYER_RECONCILED
360
3294
  0
DICTIONARY
  5
3295
330
27
100
AcDbDictionary
280
     1
281
     1
  3
ADSK_XREC_LAYER_RECONCILED
360
3296
  0
DICTIONARY
  5
3297
330
28
100
AcDbDictionary
280
     1
281
     1
  3
ADSK_XREC_LAYER_RECONCILED
360
3298
  0
DICTIONARY
  5
3299
330
2A
100
AcDbDictionary
280
     1
281
     1
  3
ADSK_XREC_LAYER_RECONCILED
360
329A
  0
DICTIONARY
  5
329B
330
371
100
AcDbDictionary
280
     1
281
     1
  3
ADSK_XREC_LAYER_RECONCILED
360
329C
  0
DICTIONARY
  5
329D
330
372
100
AcDbDictionary
280
     1
281
     1
  3
ADSK_XREC_LAYER_RECONCILED
360
329E
  0
DICTIONARY
  5
329F
330
373
100
AcDbDictionary
280
     1
281
     1
  3
ADSK_XREC_LAYER_RECONCILED
360
32A0
  0
DICTIONARY
  5
32A1
330
374
100
AcDbDictionary
280
     1
281
     1
  3
ADSK_XREC_LAYER_RECONCILED
360
32A2
  0
DICTIONARY
  5
32A3
330
496
100
AcDbDictionary
280
     1
281
     1
  3
ADSK_XREC_LAYER_RECONCILED
360
32A4
  0
DICTIONARY
  5
32A5
330
4F0
100
AcDbDictionary
280
     1
281
     1
  3
ADSK_XREC_LAYER_RECONCILED
360
32A6
  0
DICTIONARY
  5
32A7
330
504
100
AcDbDictionary
280
     1
281
     1
  3
ADSK_XREC_LAYER_RECONCILED
360
32A8
  0
DICTIONARY
  5
AF8
330
AF7
100
AcDbDictionary
280
     1
281
     1
  3
ADSK_XREC_LAYER_RECONCILED
360
32A9
  0
DICTIONARY
  5
32AA
330
1197
100
AcDbDictionary
280
     1
281
     1
  3
ADSK_XREC_LAYER_RECONCILED
360
32AB
  0
DICTIONARY
  5
9AD
330
9A4
100
AcDbDictionary
280
     1
281
     1
  3
ACAD_SORTENTS
360
9AE
  0
DICTIONARY
  5
AA9
330
AA8
100
AcDbDictionary
280
     1
281
     1
  0
DICTIONARY
  5
AAB
330
AAA
100
AcDbDictionary
280
     1
281
     1
  0
DICTIONARY
  5
AAD
330
AAC
100
AcDbDictionary
280
     1
281
     1
  0
DICTIONARY
  5
AAF
330
AAE
100
AcDbDictionary
280
     1
281
     1
  0
DICTIONARY
  5
AB1
330
AB0
100
AcDbDictionary
280
     1
281
     1
  0
DICTIONARY
  5
AB3
330
AB2
100
AcDbDictionary
280
     1
281
     1
  0
DICTIONARY
  5
AB5
330
AB4
100
AcDbDictionary
280
     1
281
     1
  0
DICTIONARY
  5
AB7
330
AB6
100
AcDbDictionary
280
     1
281
     1
  0
DICTIONARY
  5
AB9
330
AB8
100
AcDbDictionary
280
     1
281
     1
  0
DICTIONARY
  5
ABB
330
ABA
100
AcDbDictionary
280
     1
281
     1
  0
DICTIONARY
  5
ABD
330
ABC
100
AcDbDictionary
280
     1
281
     1
  0
DICTIONARY
  5
ABF
330
ABE
100
AcDbDictionary
280
     1
281
     1
  0
DICTIONARY
  5
ACE
330
ACD
100
AcDbDictionary
280
     1
281
     1
  0
DICTIONARY
  5
AD0
330
ACF
100
AcDbDictionary
280
     1
281
     1
  0
DICTIONARY
  5
AD2
330
AD1
100
AcDbDictionary
280
     1
281
     1
  0
DICTIONARY
  5
AD4
330
AD3
100
AcDbDictionary
280
     1
281
     1
  0
DICTIONARY
  5
AD6
330
AD5
100
AcDbDictionary
280
     1
281
     1
  0
DICTIONARY
  5
3259
102
{ACAD_REACTORS
330
C
102
}
330
C
100
AcDbDictionary
281
     1
  0
DICTIONARY
  5
D
102
{ACAD_REACTORS
330
C
102
}
330
C
100
AcDbDictionary
281
     1
  0
DICTIONARY
  5
107
102
{ACAD_REACTORS
330
C
102
}
330
C
100
AcDbDictionary
281
     1
  3
Layout1
350
10A
  3
Model
350
109
  0
DICTIONARY
  5
322C
102
{ACAD_REACTORS
330
C
102
}
330
C
100
AcDbDictionary
281
     1
  3
ByBlock
350
3235
  3
ByLayer
350
322D
  3
Global
350
323D
  0
DICTIONARY
  5
327E
102
{ACAD_REACTORS
330
C
102
}
330
C
100
AcDbDictionary
281
     1
  3
Standard
350
327F
  0
DICTIONARY
  5
E
102
{ACAD_REACTORS
330
C
102
}
330
C
100
AcDbDictionary
281
     1
  3
STANDARD
350
1B
  0
DICTIONARY
  5
108
102
{ACAD_REACTORS
330
C
102
}
330
C
100
AcDbDictionary
281
     1
  3
hp-a-fit
350
11C
  3
hp-B-1-1
350
11B
  0
ACDBDICTIONARYWDFLT
  5
105
102
{ACAD_REACTORS
330
C
102
}
330
C
100
AcDbDictionary
281
     1
  3
Normal
350
106
100
AcDbDictionaryWithDefault
340
106
  0
DICTIONARY
  5
325C
102
{ACAD_REACTORS
330
C
102
}
330
C
100
AcDbDictionary
281
     1
  3
A0
350
325D
  3
A1
350
325E
  3
A2
350
325F
  3
A3
350
3260
  3
A4
350
3261
  3
A5
350
3262
  3
A6
350
3263
  3
A7
350
3264
  3
A8
350
3265
  3
A9
350
3266
  3
B0
350
3267
  3
B1
350
3268
  3
B2
350
3269
  3
B3
350
326A
  3
B4
350
326B
  3
B5
350
326C
  3
B6
350
326D
  3
B7
350
326E
  3
B8
350
326F
  3
B9
350
3270
  3
C0
350
3271
  3
C1
350
3272
  3
C2
350
3273
  3
C3
350
3274
  3
C4
350
3275
  3
C5
350
3276
  3
C6
350
3277
  3
C7
350
3278
  3
C8
350
3279
  3
C9
350
327A
  3
D0
350
327B
  3
D1
350
327C
  3
D2
350
327D
  0
DICTIONARY
  5
325A
102
{ACAD_REACTORS
330
C
102
}
330
C
100
AcDbDictionary
281
     1
  3
Standard
350
325B
  0
DICTIONARY
  5
3245
102
{ACAD_REACTORS
330
C
102
}
330
C
100
AcDbDictionary
281
     1
  3
2dWireframe
350
324B
  3
3D Hidden
350
324D
  3
3dWireframe
350
324C
  3
Basic
350
324A
  3
Brighten
350
3251
  3
ColorChange
350
3255
  3
Conceptual
350
324E
  3
Dim
350
3250
  3
EdgeColorOff
350
3258
  3
Facepattern
350
3254
  3
Flat
350
3246
  3
FlatWithEdges
350
3247
  3
Gouraud
350
3248
  3
GouraudWithEdges
350
3249
  3
JitterOff
350
3256
  3
Linepattern
350
3253
  3
OverhangOff
350
3257
  3
Realistic
350
324F
  3
Thicken
350
3252
  0
XRECORD
  5
2A8
102
{ACAD_REACTORS
330
C
102
}
330
C
100
AcDbXrecord
280
     1
 90
   990106
  3

 60
     0
 61
     0
 62
     2
 63
     2
 64
     0
 65
     0
 66
     0
 67
     3
 68
     0
 69
     0
 70
     0
 71
     0
 72
     0
 40
0.0
170
     2
340
1240
  0
XRECORD
  5
32B6
102
{ACAD_REACTORS
330
C
102
}
330
C
100
AcDbXrecord
280
     1
 90
        1
330
325B
  0
DICTIONARY
  5
32AC
102
{ACAD_REACTORS
330
C
102
}
330
C
100
AcDbDictionary
281
     1
  3
CANNOSCALE
350
32B0
  3
CMLEADERSTYLE
350
32AE
  3
CTABLESTYLE
350
32AD
  3
LAYEREVAL
350
32B2
  3
LAYERNOTIFY
350
32B3
  3
LIGHTINGUNITS
350
32B1
  3
MSLTSCALE
350
32AF
  0
DICTIONARY
  5
29C
102
{ACAD_REACTORS
330
C
102
}
330
C
100
AcDbDictionary
281
     1
  3
ASEBlockHierarchyIndexRecord
350
29E
1001
DCO15
1040
1663581020.26
  0
XRECORD
  5
328E
102
{ACAD_REACTORS
330
328D
102
}
330
328D
100
AcDbXrecord
280
     1
290
     1
  0
XRECORD
  5
3290
102
{ACAD_REACTORS
330
328F
102
}
330
328F
100
AcDbXrecord
280
     1
290
     1
  0
XRECORD
  5
3292
102
{ACAD_REACTORS
330
3291
102
}
330
3291
100
AcDbXrecord
280
     1
290
     1
  0
XRECORD
  5
3294
102
{ACAD_REACTORS
330
3293
102
}
330
3293
100
AcDbXrecord
280
     1
290
     1
  0
XRECORD
  5
3296
102
{ACAD_REACTORS
330
3295
102
}
330
3295
100
AcDbXrecord
280
     1
290
     1
  0
XRECORD
  5
3298
102
{ACAD_REACTORS
330
3297
102
}
330
3297
100
AcDbXrecord
280
     1
290
     1
  0
XRECORD
  5
329A
102
{ACAD_REACTORS
330
3299
102
}
330
3299
100
AcDbXrecord
280
     1
290
     1
  0
XRECORD
  5
329C
102
{ACAD_REACTORS
330
329B
102
}
330
329B
100
AcDbXrecord
280
     1
290
     1
  0
XRECORD
  5
329E
102
{ACAD_REACTORS
330
329D
102
}
330
329D
100
AcDbXrecord
280
     1
290
     1
  0
XRECORD
  5
32A0
102
{ACAD_REACTORS
330
329F
102
}
330
329F
100
AcDbXrecord
280
     1
290
     1
  0
XRECORD
  5
32A2
102
{ACAD_REACTORS
330
32A1
102
}
330
32A1
100
AcDbXrecord
280
     1
290
     1
  0
XRECORD
  5
32A4
102
{ACAD_REACTORS
330
32A3
102
}
330
32A3
100
AcDbXrecord
280
     1
290
     1
  0
XRECORD
  5
32A6
102
{ACAD_REACTORS
330
32A5
102
}
330
32A5
100
AcDbXrecord
280
     1
290
     1
  0
XRECORD
  5
32A8
102
{ACAD_REACTORS
330
32A7
102
}
330
32A7
100
AcDbXrecord
280
     1
290
     1
  0
XRECORD
  5
32A9
102
{ACAD_REACTORS
330
AF8
102
}
330
AF8
100
AcDbXrecord
280
     1
290
     1
  0
XRECORD
  5
32AB
102
{ACAD_REACTORS
330
32AA
102
}
330
32AA
100
AcDbXrecord
280
     1
290
     1
  0
SORTENTSTABLE
  5
9AE
102
{ACAD_REACTORS
330
9AD
102
}
330
9AD
100
AcDbSortentsTable
330
9A4
  0
LAYOUT
  5
10A
102
{ACAD_REACTORS
330
107
102
}
330
107
100
AcDbPlotSettings
  1

  2
C:\PROGRAM FILES\ACAD2000\plotters\HP-5000PLT.pc3
  4

  6

 40
0.0
 41
0.0
 42
0.0
 43
0.0
 44
0.0
 45
0.0
 46
0.0
 47
0.0
 48
0.0
 49
0.0
140
0.0
141
0.0
142
1.0
143
1.0
 70
   688
 72
     0
 73
     0
 74
     5
  7
tps-s1_BLACK.ctb
 75
    16
147
1.0
 76
     0
 77
     2
 78
   300
148
0.0
149
0.0
100
AcDbLayout
  1
Layout1
 70
     0
 71
     1
 10
0.0
 20
0.0
 11
12.0
 21
9.0
 12
0.0
 22
0.0
 32
0.0
 14
1.000000000000000E+20
 24
1.000000000000000E+20
 34
1.000000000000000E+20
 15
-1.000000000000000E+20
 25
-1.000000000000000E+20
 35
-1.000000000000000E+20
146
0.0
 13
0.0
 23
0.0
 33
0.0
 16
1.0
 26
0.0
 36
0.0
 17
0.0
 27
1.0
 37
0.0
 76
     0
330
15
  0
LAYOUT
  5
109
102
{ACAD_REACTORS
330
107
102
}
330
107
100
AcDbPlotSettings
  1

  2
EPSON Stylus Photo 1400 Series
  4
User262
  6
BORDER
 40
3.757083177566528
 41
3.757076978683471
 42
3.757080078125
 43
3.757080078125
 44
279.3999938964844
 45
431.7999877929687
 46
12.192
 47
15.24
 48
0.0
 49
0.0
140
0.0
141
0.0
142
1.0
143
0.5
 70
 11940
 72
     0
 73
     1
 74
     3
  7
tps-s1_BLACK.ctb
 75
     0
147
2.0
 76
     0
 77
     2
 78
   300
148
-5463.97467542001
149
106.5340460636664
100
AcDbLayout
  1
Model
 70
     1
 71
     0
 10
0.0
 20
0.0
 11
12.0
 21
9.0
 12
0.0
 22
0.0
 32
0.0
 14
0.0
 24
0.0
 34
0.0
 15
0.0
 25
0.0
 35
0.0
146
0.0
 13
0.0
 23
0.0
 33
0.0
 16
1.0
 26
0.0
 36
0.0
 17
0.0
 27
1.0
 37
0.0
 76
     0
330
18
331
322A
  0
MATERIAL
  5
3235
102
{ACAD_XDICTIONARY
360
3236
102
}
102
{ACAD_REACTORS
330
322C
102
}
330
322C
100
AcDbMaterial
  1
ByBlock
 72
     0
 43
0.0208333333333333
 43
0.0
 43
0.0
 43
0.0
 43
0.0
 43
0.0208333333333333
 43
0.0
 43
0.0
 43
0.0
 43
0.0
 43
1.0
 43
0.0
 43
0.0
 43
0.0
 43
0.0
 43
1.0
 77
     0
 47
0.0208333333333333
 47
0.0
 47
0.0
 47
0.0
 47
0.0
 47
0.0208333333333333
 47
0.0
 47
0.0
 47
0.0
 47
0.0
 47
1.0
 47
0.0
 47
0.0
 47
0.0
 47
0.0
 47
1.0
171
     0
 49
0.0208333333333333
 49
0.0
 49
0.0
 49
0.0
 49
0.0
 49
0.0208333333333333
 49
0.0
 49
0.0
 49
0.0
 49
0.0
 49
1.0
 49
0.0
 49
0.0
 49
0.0
 49
0.0
 49
1.0
175
     0
142
0.0208333333333333
142
0.0
142
0.0
142
0.0
142
0.0
142
0.0208333333333333
142
0.0
142
0.0
142
0.0
142
0.0
142
1.0
142
0.0
142
0.0
142
0.0
142
0.0
142
1.0
179
     0
144
0.0208333333333333
144
0.0
144
0.0
144
0.0
144
0.0
144
0.0208333333333333
144
0.0
144
0.0
144
0.0
144
0.0
144
1.0
144
0.0
144
0.0
144
0.0
144
0.0
144
1.0
147
0.0208333333333333
147
0.0
147
0.0
147
0.0
147
0.0
147
0.0208333333333333
147
0.0
147
0.0
147
0.0
147
0.0
147
1.0
147
0.0
147
0.0
147
0.0
147
0.0
147
1.0
  0
MATERIAL
  5
322D
102
{ACAD_XDICTIONARY
360
322E
102
}
102
{ACAD_REACTORS
330
322C
102
}
330
322C
100
AcDbMaterial
  1
ByLayer
 72
     0
 43
0.0208333333333333
 43
0.0
 43
0.0
 43
0.0
 43
0.0
 43
0.0208333333333333
 43
0.0
 43
0.0
 43
0.0
 43
0.0
 43
1.0
 43
0.0
 43
0.0
 43
0.0
 43
0.0
 43
1.0
 77
     0
 47
0.0208333333333333
 47
0.0
 47
0.0
 47
0.0
 47
0.0
 47
0.0208333333333333
 47
0.0
 47
0.0
 47
0.0
 47
0.0
 47
1.0
 47
0.0
 47
0.0
 47
0.0
 47
0.0
 47
1.0
171
     0
 49
0.0208333333333333
 49
0.0
 49
0.0
 49
0.0
 49
0.0
 49
0.0208333333333333
 49
0.0
 49
0.0
 49
0.0
 49
0.0
 49
1.0
 49
0.0
 49
0.0
 49
0.0
 49
0.0
 49
1.0
175
     0
142
0.0208333333333333
142
0.0
142
0.0
142
0.0
142
0.0
142
0.0208333333333333
142
0.0
142
0.0
142
0.0
142
0.0
142
1.0
142
0.0
142
0.0
142
0.0
142
0.0
142
1.0
179
     0
144
0.0208333333333333
144
0.0
144
0.0
144
0.0
144
0.0
144
0.0208333333333333
144
0.0
144
0.0
144
0.0
144
0.0
144
1.0
144
0.0
144
0.0
144
0.0
144
0.0
144
1.0
147
0.0208333333333333
147
0.0
147
0.0
147
0.0
147
0.0
147
0.0208333333333333
147
0.0
147
0.0
147
0.0
147
0.0
147
1.0
147
0.0
147
0.0
147
0.0
147
0.0
147
1.0
  0
MATERIAL
  5
323D
102
{ACAD_XDICTIONARY
360
323E
102
}
102
{ACAD_REACTORS
330
322C
102
}
330
322C
100
AcDbMaterial
  1
Global
 72
     0
 43
0.0208333333333333
 43
0.0
 43
0.0
 43
0.0
 43
0.0
 43
0.0208333333333333
 43
0.0
 43
0.0
 43
0.0
 43
0.0
 43
1.0
 43
0.0
 43
0.0
 43
0.0
 43
0.0
 43
1.0
 77
     0
 47
0.0208333333333333
 47
0.0
 47
0.0
 47
0.0
 47
0.0
 47
0.0208333333333333
 47
0.0
 47
0.0
 47
0.0
 47
0.0
 47
1.0
 47
0.0
 47
0.0
 47
0.0
 47
0.0
 47
1.0
171
     0
 49
0.0208333333333333
 49
0.0
 49
0.0
 49
0.0
 49
0.0
 49
0.0208333333333333
 49
0.0
 49
0.0
 49
0.0
 49
0.0
 49
1.0
 49
0.0
 49
0.0
 49
0.0
 49
0.0
 49
1.0
175
     0
142
0.0208333333333333
142
0.0
142
0.0
142
0.0
142
0.0
142
0.0208333333333333
142
0.0
142
0.0
142
0.0
142
0.0
142
1.0
142
0.0
142
0.0
142
0.0
142
0.0
142
1.0
179
     0
144
0.0208333333333333
144
0.0
144
0.0
144
0.0
144
0.0
144
0.0208333333333333
144
0.0
144
0.0
144
0.0
144
0.0
144
1.0
144
0.0
144
0.0
144
0.0
144
0.0
144
1.0
147
0.0208333333333333
147
0.0
147
0.0
147
0.0
147
0.0
147
0.0208333333333333
147
0.0
147
0.0
147
0.0
147
0.0
147
1.0
147
0.0
147
0.0
147
0.0
147
0.0
147
1.0
  0
MLEADERSTYLE
  5
327F
102
{ACAD_REACTORS
330
327E
102
}
330
327E
100
AcDbMLeaderStyle
179
     2
170
     2
171
     1
172
     0
 90
        2
 40
0.0
 41
0.0
173
     1
 91
-1056964608
340
12
 92
       -2
290
     1
 42
0.09
291
     1
 43
0.36
  3
Standard
 44
0.18
300

342
10
174
     1
178
     6
175
     1
176
     0
 93
-1056964608
 45
0.18
292
     0
297
     0
 46
0.18
 94
-1056964608
 47
1.0
 49
1.0
140
1.0
293
     1
141
0.0
294
     1
177
     0
142
1.0
295
     1
296
     0
143
0.125
271
     0
272
     9
273
     9
  0
MLINESTYLE
  5
1B
102
{ACAD_REACTORS
330
E
102
}
330
E
100
AcDbMlineStyle
  2
STANDARD
 70
     0
  3

 62
     0
 51
90.0
 52
90.0
 71
     2
 49
0.5
 62
   256
  6
BYLAYER
 49
-0.5
 62
   256
  6
BYLAYER
  0
PLOTSETTINGS
  5
11C
102
{ACAD_REACTORS
330
108
102
}
330
108
100
AcDbPlotSettings
  1
hp-a-fit
  2
HP-5000PLT.pc3
  4
ANSI_A_(8.50_x_11.00_Inches)
  6
BORDER
 40
5.027082920074462
 41
5.027082920074462
 42
9.345077514648437
 43
5.11175537109375
 44
215.8999938964844
 45
279.3999938964844
 46
0.0
 47
0.0
 48
0.0
 49
0.0
140
0.0
141
0.0
142
1.0
143
1.509315367403764
 70
  1712
 72
     0
 73
     1
 74
     3
  7
tps-s1.ctb
 75
     0
147
0.6625520561154433
 76
     0
 77
     2
 78
   300
148
-12.7
149
-19.05
  0
PLOTSETTINGS
  5
11B
102
{ACAD_REACTORS
330
108
102
}
330
108
100
AcDbPlotSettings
  1
hp-B-1-1
  2
HP-5000PLT.pc3
  4
ANSI_B_(11.00_x_17.00_Inches)
  6
BORDER
 40
5.027082920074462
 41
5.027082920074462
 42
9.26043701171875
 43
5.027069091796875
 44
279.3999938964844
 45
431.7999877929687
 46
0.0
 47
0.0
 48
0.0
 49
0.0
140
0.0
141
0.0
142
1.0
143
1.0
 70
  1712
 72
     0
 73
     1
 74
     3
  7
tps-s1.ctb
 75
    16
147
1.0
 76
     0
 77
     2
 78
   300
148
-12.7
149
-19.05
  0
ACDBPLACEHOLDER
  5
106
102
{ACAD_REACTORS
330
105
102
}
330
105
  0
SCALE
  5
325D
102
{ACAD_REACTORS
330
325C
102
}
330
325C
100
AcDbScale
 70
     0
300
1:1
140
1.0
141
1.0
290
     1
  0
SCALE
  5
325E
102
{ACAD_REACTORS
330
325C
102
}
330
325C
100
AcDbScale
 70
     0
300
1:2
140
1.0
141
2.0
290
     0
  0
SCALE
  5
325F
102
{ACAD_REACTORS
330
325C
102
}
330
325C
100
AcDbScale
 70
     0
300
1:4
140
1.0
141
4.0
290
     0
  0
SCALE
  5
3260
102
{ACAD_REACTORS
330
325C
102
}
330
325C
100
AcDbScale
 70
     0
300
1:5
140
1.0
141
5.0
290
     0
  0
SCALE
  5
3261
102
{ACAD_REACTORS
330
325C
102
}
330
325C
100
AcDbScale
 70
     0
300
1:8
140
1.0
141
8.0
290
     0
  0
SCALE
  5
3262
102
{ACAD_REACTORS
330
325C
102
}
330
325C
100
AcDbScale
 70
     0
300
1:10
140
1.0
141
10.0
290
     0
  0
SCALE
  5
3263
102
{ACAD_REACTORS
330
325C
102
}
330
325C
100
AcDbScale
 70
     0
300
1:16
140
1.0
141
16.0
290
     0
  0
SCALE
  5
3264
102
{ACAD_REACTORS
330
325C
102
}
330
325C
100
AcDbScale
 70
     0
300
1:20
140
1.0
141
20.0
290
     0
  0
SCALE
  5
3265
102
{ACAD_REACTORS
330
325C
102
}
330
325C
100
AcDbScale
 70
     0
300
1:30
140
1.0
141
30.0
290
     0
  0
SCALE
  5
3266
102
{ACAD_REACTORS
330
325C
102
}
330
325C
100
AcDbScale
 70
     0
300
1:40
140
1.0
141
40.0
290
     0
  0
SCALE
  5
3267
102
{ACAD_REACTORS
330
325C
102
}
330
325C
100
AcDbScale
 70
     0
300
1:50
140
1.0
141
50.0
290
     0
  0
SCALE
  5
3268
102
{ACAD_REACTORS
330
325C
102
}
330
325C
100
AcDbScale
 70
     0
300
1:100
140
1.0
141
100.0
290
     0
  0
SCALE
  5
3269
102
{ACAD_REACTORS
330
325C
102
}
330
325C
100
AcDbScale
 70
     0
300
2:1
140
2.0
141
1.0
290
     0
  0
SCALE
  5
326A
102
{ACAD_REACTORS
330
325C
102
}
330
325C
100
AcDbScale
 70
     0
300
4:1
140
4.0
141
1.0
290
     0
  0
SCALE
  5
326B
102
{ACAD_REACTORS
330
325C
102
}
330
325C
100
AcDbScale
 70
     0
300
8:1
140
8.0
141
1.0
290
     0
  0
SCALE
  5
326C
102
{ACAD_REACTORS
330
325C
102
}
330
325C
100
AcDbScale
 70
     0
300
10:1
140
10.0
141
1.0
290
     0
  0
SCALE
  5
326D
102
{ACAD_REACTORS
330
325C
102
}
330
325C
100
AcDbScale
 70
     0
300
100:1
140
100.0
141
1.0
290
     0
  0
SCALE
  5
326E
102
{ACAD_REACTORS
330
325C
102
}
330
325C
100
AcDbScale
 70
     0
300
1/128" = 1'-0"
140
0.0078125
141
12.0
290
     0
  0
SCALE
  5
326F
102
{ACAD_REACTORS
330
325C
102
}
330
325C
100
AcDbScale
 70
     0
300
1/64" = 1'-0"
140
0.015625
141
12.0
290
     0
  0
SCALE
  5
3270
102
{ACAD_REACTORS
330
325C
102
}
330
325C
100
AcDbScale
 70
     0
300
1/32" = 1'-0"
140
0.03125
141
12.0
290
     0
  0
SCALE
  5
3271
102
{ACAD_REACTORS
330
325C
102
}
330
325C
100
AcDbScale
 70
     0
300
1/16" = 1'-0"
140
0.0625
141
12.0
290
     0
  0
SCALE
  5
3272
102
{ACAD_REACTORS
330
325C
102
}
330
325C
100
AcDbScale
 70
     0
300
3/32" = 1'-0"
140
0.09375
141
12.0
290
     0
  0
SCALE
  5
3273
102
{ACAD_REACTORS
330
325C
102
}
330
325C
100
AcDbScale
 70
     0
300
1/8" = 1'-0"
140
0.125
141
12.0
290
     0
  0
SCALE
  5
3274
102
{ACAD_REACTORS
330
325C
102
}
330
325C
100
AcDbScale
 70
     0
300
3/16" = 1'-0"
140
0.1875
141
12.0
290
     0
  0
SCALE
  5
3275
102
{ACAD_REACTORS
330
325C
102
}
330
325C
100
AcDbScale
 70
     0
300
1/4" = 1'-0"
140
0.25
141
12.0
290
     0
  0
SCALE
  5
3276
102
{ACAD_REACTORS
330
325C
102
}
330
325C
100
AcDbScale
 70
     0
300
3/8" = 1'-0"
140
0.375
141
12.0
290
     0
  0
SCALE
  5
3277
102
{ACAD_REACTORS
330
325C
102
}
330
325C
100
AcDbScale
 70
     0
300
1/2" = 1'-0"
140
0.5
141
12.0
290
     0
  0
SCALE
  5
3278
102
{ACAD_REACTORS
330
325C
102
}
330
325C
100
AcDbScale
 70
     0
300
3/4" = 1'-0"
140
0.75
141
12.0
290
     0
  0
SCALE
  5
3279
102
{ACAD_REACTORS
330
325C
102
}
330
325C
100
AcDbScale
 70
     0
300
1" = 1'-0"
140
1.0
141
12.0
290
     0
  0
SCALE
  5
327A
102
{ACAD_REACTORS
330
325C
102
}
330
325C
100
AcDbScale
 70
     0
300
1-1/2" = 1'-0"
140
1.5
141
12.0
290
     0
  0
SCALE
  5
327B
102
{ACAD_REACTORS
330
325C
102
}
330
325C
100
AcDbScale
 70
     0
300
3" = 1'-0"
140
3.0
141
12.0
290
     0
  0
SCALE
  5
327C
102
{ACAD_REACTORS
330
325C
102
}
330
325C
100
AcDbScale
 70
     0
300
6" = 1'-0"
140
6.0
141
12.0
290
     0
  0
SCALE
  5
327D
102
{ACAD_REACTORS
330
325C
102
}
330
325C
100
AcDbScale
 70
     0
300
1'-0" = 1'-0"
140
12.0
141
12.0
290
     0
  0
TABLESTYLE
  5
325B
102
{ACAD_XDICTIONARY
360
32B4
102
}
102
{ACAD_REACTORS
330
325A
102
}
330
325A
100
AcDbTableStyle
280
     0
  3
Standard
 70
     0
 71
     0
 40
0.06
 41
0.06
280
     0
281
     0
  7
STANDARD
140
0.18
170
     2
 62
     0
 63
     7
283
     0
 90
      512
 91
        0
  1

274
    -2
284
     1
 64
     0
275
    -2
285
     1
 65
     0
276
    -2
286
     1
 66
     0
277
    -2
287
     1
 67
     0
278
    -2
288
     1
 68
     0
279
    -2
289
     1
 69
     0
  7
STANDARD
140
0.25
170
     5
 62
     0
 63
     7
283
     0
 90
      512
 91
        0
  1

274
    -2
284
     1
 64
     0
275
    -2
285
     1
 65
     0
276
    -2
286
     1
 66
     0
277
    -2
287
     1
 67
     0
278
    -2
288
     1
 68
     0
279
    -2
289
     1
 69
     0
  7
STANDARD
140
0.18
170
     5
 62
     0
 63
     7
283
     0
 90
      512
 91
        0
  1

274
    -2
284
     1
 64
     0
275
    -2
285
     1
 65
     0
276
    -2
286
     1
 66
     0
277
    -2
287
     1
 67
     0
278
    -2
288
     1
 68
     0
279
    -2
289
     1
 69
     0
  0
VISUALSTYLE
  5
324B
102
{ACAD_REACTORS
330
3245
102
}
330
3245
100
AcDbVisualStyle
  2
2dWireframe
 70
     4
177
     2
291
     0
 71
     0
176
     1
 72
     2
176
     1
 73
     0
176
     1
 90
        0
176
     1
 40
0.6
176
     1
 41
30.0
176
     1
 63
     7
421
 16777215
176
     1
 74
     1
176
     1
 91
        4
176
     1
 64
     7
176
     1
 65
   257
176
     1
 75
     1
176
     1
175
     1
176
     1
 42
1.0
176
     1
 92
        0
176
     1
 66
   257
176
     1
 43
1.0
176
     1
 76
     1
176
     1
 77
     6
176
     1
 78
     2
176
     1
 67
     7
176
     1
 79
     5
176
     1
170
     0
176
     1
171
     0
176
     1
290
     0
176
     1
 93
        1
176
     1
 44
0.0
176
     1
173
     0
176
     1
  0
VISUALSTYLE
  5
324D
102
{ACAD_REACTORS
330
3245
102
}
330
3245
100
AcDbVisualStyle
  2
3D Hidden
 70
     6
177
     2
291
     0
 71
     1
176
     1
 72
     2
176
     1
 73
     2
176
     1
 90
        0
176
     1
 40
0.6
176
     1
 41
30.0
176
     1
 63
     7
421
 16777215
176
     1
 74
     2
176
     1
 91
        2
176
     1
 64
     7
176
     1
 65
   257
176
     1
 75
     2
176
     1
175
     1
176
     1
 42
179.0
176
     1
 92
        0
176
     1
 66
   257
176
     1
 43
1.0
176
     1
 76
     1
176
     1
 77
     6
176
     1
 78
     2
176
     1
 67
     7
176
     1
 79
     3
176
     1
170
     0
176
     1
171
     0
176
     1
290
     0
176
     1
 93
        1
176
     1
 44
0.0
176
     1
173
     0
176
     1
  0
VISUALSTYLE
  5
324C
102
{ACAD_REACTORS
330
3245
102
}
330
3245
100
AcDbVisualStyle
  2
3dWireframe
 70
     5
177
     2
291
     0
 71
     0
176
     1
 72
     2
176
     1
 73
     0
176
     1
 90
        0
176
     1
 40
0.6
176
     1
 41
30.0
176
     1
 63
     7
421
 16777215
176
     1
 74
     1
176
     1
 91
        4
176
     1
 64
     7
176
     1
 65
   257
176
     1
 75
     1
176
     1
175
     1
176
     1
 42
1.0
176
     1
 92
        0
176
     1
 66
   257
176
     1
 43
1.0
176
     1
 76
     1
176
     1
 77
     6
176
     1
 78
     2
176
     1
 67
     7
176
     1
 79
     5
176
     1
170
     0
176
     1
171
     0
176
     1
290
     0
176
     1
 93
        1
176
     1
 44
0.0
176
     1
173
     0
176
     1
  0
VISUALSTYLE
  5
324A
102
{ACAD_REACTORS
330
3245
102
}
330
3245
100
AcDbVisualStyle
  2
Basic
 70
     7
177
     2
291
     1
 71
     1
176
     1
 72
     0
176
     1
 73
     1
176
     1
 90
        0
176
     1
 40
0.6
176
     1
 41
30.0
176
     1
 63
     7
421
 16777215
176
     1
 74
     0
176
     1
 91
        4
176
     1
 64
     7
176
     1
 65
   257
176
     1
 75
     1
176
     1
175
     1
176
     1
 42
1.0
176
     1
 92
        8
176
     1
 66
     7
176
     1
 43
1.0
176
     1
 76
     1
176
     1
 77
     6
176
     1
 78
     2
176
     1
 67
     7
176
     1
 79
     5
176
     1
170
     0
176
     1
171
     0
176
     1
290
     0
176
     1
 93
        1
176
     1
 44
0.0
176
     1
173
     0
176
     1
  0
VISUALSTYLE
  5
3251
102
{ACAD_REACTORS
330
3245
102
}
330
3245
100
AcDbVisualStyle
  2
Brighten
 70
    12
177
     2
291
     1
 71
     2
176
     1
 72
     2
176
     1
 73
     0
176
     1
 90
        0
176
     1
 40
0.6
176
     1
 41
30.0
176
     1
 63
     7
421
 16777215
176
     1
 74
     1
176
     1
 91
        4
176
     1
 64
     7
176
     1
 65
   257
176
     1
 75
     1
176
     1
175
     1
176
     1
 42
1.0
176
     1
 92
        8
176
     1
 66
     7
176
     1
 43
1.0
176
     1
 76
     1
176
     1
 77
     6
176
     1
 78
     2
176
     1
 67
     7
176
     1
 79
     5
176
     1
170
     0
176
     1
171
     0
176
     1
290
     0
176
     1
 93
        1
176
     1
 44
50.0
176
     1
173
     0
176
     1
  0
VISUALSTYLE
  5
3255
102
{ACAD_REACTORS
330
3245
102
}
330
3245
100
AcDbVisualStyle
  2
ColorChange
 70
    16
177
     2
291
     1
 71
     2
176
     1
 72
     2
176
     1
 73
     3
176
     1
 90
        0
176
     1
 40
0.6
176
     1
 41
30.0
176
     1
 63
     8
421
  8421504
176
     1
 74
     1
176
     1
 91
        4
176
     1
 64
     7
176
     1
 65
   257
176
     1
 75
     1
176
     1
175
     1
176
     1
 42
1.0
176
     1
 92
        8
176
     1
 66
     8
424
  8421504
176
     1
 43
1.0
176
     1
 76
     1
176
     1
 77
     6
176
     1
 78
     2
176
     1
 67
     7
176
     1
 79
     5
176
     1
170
     0
176
     1
171
     0
176
     1
290
     0
176
     1
 93
        1
176
     1
 44
0.0
176
     1
173
     0
176
     1
  0
VISUALSTYLE
  5
324E
102
{ACAD_REACTORS
330
3245
102
}
330
3245
100
AcDbVisualStyle
  2
Conceptual
 70
     9
177
     2
291
     0
 71
     3
176
     1
 72
     2
176
     1
 73
     0
176
     1
 90
        0
176
     1
 40
0.6
176
     1
 41
30.0
176
     1
 63
     7
421
 16777215
176
     1
 74
     2
176
     1
 91
        2
176
     1
 64
     7
176
     1
 65
   257
176
     1
 75
     1
176
     1
175
     1
176
     1
 42
179.0
176
     1
 92
        8
176
     1
 66
     7
176
     1
 43
1.0
176
     1
 76
     1
176
     1
 77
     6
176
     1
 78
     2
176
     1
 67
     7
176
     1
 79
     3
176
     1
170
     0
176
     1
171
     0
176
     1
290
     0
176
     1
 93
        1
176
     1
 44
0.0
176
     1
173
     0
176
     1
  0
VISUALSTYLE
  5
3250
102
{ACAD_REACTORS
330
3245
102
}
330
3245
100
AcDbVisualStyle
  2
Dim
 70
    11
177
     2
291
     1
 71
     2
176
     1
 72
     2
176
     1
 73
     0
176
     1
 90
        0
176
     1
 40
0.6
176
     1
 41
30.0
176
     1
 63
     7
421
 16777215
176
     1
 74
     1
176
     1
 91
        4
176
     1
 64
     7
176
     1
 65
   257
176
     1
 75
     1
176
     1
175
     1
176
     1
 42
1.0
176
     1
 92
        8
176
     1
 66
     7
176
     1
 43
1.0
176
     1
 76
     1
176
     1
 77
     6
176
     1
 78
     2
176
     1
 67
     7
176
     1
 79
     5
176
     1
170
     0
176
     1
171
     0
176
     1
290
     0
176
     1
 93
        1
176
     1
 44
-50.0
176
     1
173
     0
176
     1
  0
VISUALSTYLE
  5
3258
102
{ACAD_REACTORS
330
3245
102
}
330
3245
100
AcDbVisualStyle
  2
EdgeColorOff
 70
    22
177
     2
291
     1
 71
     2
176
     0
 72
     2
176
     0
 73
     0
176
     0
 90
        0
176
     0
 40
0.6
176
     0
 41
30.0
176
     0
 63
     7
421
 16777215
176
     0
 74
     1
176
     0
 91
        4
176
     0
 64
     7
176
     0
 65
   257
176
     0
 75
     1
176
     0
175
     1
176
     0
 42
1.0
176
     0
 92
        8
176
     2
 66
     7
176
     0
 43
1.0
176
     0
 76
     1
176
     0
 77
     6
176
     0
 78
     2
176
     0
 67
     7
176
     0
 79
     5
176
     0
170
     0
176
     0
171
     0
176
     0
290
     0
176
     0
 93
        1
176
     0
 44
0.0
176
     0
173
     0
176
     0
  0
VISUALSTYLE
  5
3254
102
{ACAD_REACTORS
330
3245
102
}
330
3245
100
AcDbVisualStyle
  2
Facepattern
 70
    15
177
     2
291
     1
 71
     2
176
     1
 72
     2
176
     1
 73
     0
176
     1
 90
        0
176
     1
 40
0.6
176
     1
 41
30.0
176
     1
 63
     7
421
 16777215
176
     1
 74
     1
176
     1
 91
        4
176
     1
 64
     7
176
     1
 65
   257
176
     1
 75
     1
176
     1
175
     1
176
     1
 42
1.0
176
     1
 92
        8
176
     1
 66
     7
176
     1
 43
1.0
176
     1
 76
     1
176
     1
 77
     6
176
     1
 78
     2
176
     1
 67
     7
176
     1
 79
     5
176
     1
170
     0
176
     1
171
     0
176
     1
290
     0
176
     1
 93
        1
176
     1
 44
0.0
176
     1
173
     0
176
     1
  0
VISUALSTYLE
  5
3246
102
{ACAD_REACTORS
330
3245
102
}
330
3245
100
AcDbVisualStyle
  2
Flat
 70
     0
177
     2
291
     1
 71
     2
176
     1
 72
     1
176
     1
 73
     1
176
     1
 90
        2
176
     1
 40
0.6
176
     1
 41
30.0
176
     1
 63
     7
421
 16777215
176
     1
 74
     0
176
     1
 91
        4
176
     1
 64
     7
176
     1
 65
   257
176
     1
 75
     1
176
     1
175
     1
176
     1
 42
1.0
176
     1
 92
        8
176
     1
 66
     7
176
     1
 43
1.0
176
     1
 76
     1
176
     1
 77
     6
176
     1
 78
     2
176
     1
 67
     7
176
     1
 79
     5
176
     1
170
     0
176
     1
171
     0
176
     1
290
     0
176
     1
 93
       13
176
     1
 44
0.0
176
     1
173
     0
176
     1
  0
VISUALSTYLE
  5
3247
102
{ACAD_REACTORS
330
3245
102
}
330
3245
100
AcDbVisualStyle
  2
FlatWithEdges
 70
     1
177
     2
291
     1
 71
     2
176
     1
 72
     1
176
     1
 73
     1
176
     1
 90
        2
176
     1
 40
0.6
176
     1
 41
30.0
176
     1
 63
     7
421
 16777215
176
     1
 74
     1
176
     1
 91
        4
176
     1
 64
     7
176
     1
 65
   257
176
     1
 75
     1
176
     1
175
     1
176
     1
 42
1.0
176
     1
 92
        0
176
     1
 66
   257
176
     1
 43
1.0
176
     1
 76
     1
176
     1
 77
     6
176
     1
 78
     2
176
     1
 67
     7
176
     1
 79
     5
176
     1
170
     0
176
     1
171
     0
176
     1
290
     0
176
     1
 93
       13
176
     1
 44
0.0
176
     1
173
     0
176
     1
  0
VISUALSTYLE
  5
3248
102
{ACAD_REACTORS
330
3245
102
}
330
3245
100
AcDbVisualStyle
  2
Gouraud
 70
     2
177
     2
291
     1
 71
     2
176
     1
 72
     2
176
     1
 73
     1
176
     1
 90
        2
176
     1
 40
0.6
176
     1
 41
30.0
176
     1
 63
     7
421
 16777215
176
     1
 74
     0
176
     1
 91
        4
176
     1
 64
     7
176
     1
 65
   257
176
     1
 75
     1
176
     1
175
     1
176
     1
 42
1.0
176
     1
 92
        0
176
     1
 66
     7
176
     1
 43
1.0
176
     1
 76
     1
176
     1
 77
     6
176
     1
 78
     2
176
     1
 67
     7
176
     1
 79
     5
176
     1
170
     0
176
     1
171
     0
176
     1
290
     0
176
     1
 93
       13
176
     1
 44
0.0
176
     1
173
     0
176
     1
  0
VISUALSTYLE
  5
3249
102
{ACAD_REACTORS
330
3245
102
}
330
3245
100
AcDbVisualStyle
  2
GouraudWithEdges
 70
     3
177
     2
291
     1
 71
     2
176
     1
 72
     2
176
     1
 73
     1
176
     1
 90
        2
176
     1
 40
0.6
176
     1
 41
30.0
176
     1
 63
     7
421
 16777215
176
     1
 74
     1
176
     1
 91
        4
176
     1
 64
     7
176
     1
 65
   257
176
     1
 75
     1
176
     1
175
     1
176
     1
 42
1.0
176
     1
 92
        0
176
     1
 66
   257
176
     1
 43
1.0
176
     1
 76
     1
176
     1
 77
     6
176
     1
 78
     2
176
     1
 67
     7
176
     1
 79
     5
176
     1
170
     0
176
     1
171
     0
176
     1
290
     0
176
     1
 93
       13
176
     1
 44
0.0
176
     1
173
     0
176
     1
  0
VISUALSTYLE
  5
3256
102
{ACAD_REACTORS
330
3245
102
}
330
3245
100
AcDbVisualStyle
  2
JitterOff
 70
    20
177
     2
291
     1
 71
     2
176
     0
 72
     2
176
     0
 73
     0
176
     0
 90
        0
176
     0
 40
0.6
176
     0
 41
30.0
176
     0
 63
     7
421
 16777215
176
     0
 74
     1
176
     0
 91
        4
176
     0
 64
     7
176
     0
 65
   257
176
     0
 75
     1
176
     0
175
     1
176
     0
 42
1.0
176
     0
 92
       10
176
     2
 66
     7
176
     0
 43
1.0
176
     0
 76
     1
176
     0
 77
     6
176
     0
 78
     2
176
     0
 67
     7
176
     0
 79
     5
176
     0
170
     0
176
     0
171
     0
176
     0
290
     0
176
     0
 93
        1
176
     0
 44
0.0
176
     0
173
     0
176
     0
  0
VISUALSTYLE
  5
3253
102
{ACAD_REACTORS
330
3245
102
}
330
3245
100
AcDbVisualStyle
  2
Linepattern
 70
    14
177
     2
291
     1
 71
     2
176
     1
 72
     2
176
     1
 73
     0
176
     1
 90
        0
176
     1
 40
0.6
176
     1
 41
30.0
176
     1
 63
     7
421
 16777215
176
     1
 74
     1
176
     1
 91
        4
176
     1
 64
     7
176
     1
 65
   257
176
     1
 75
     7
176
     1
175
     7
176
     1
 42
1.0
176
     1
 92
        8
176
     1
 66
     7
176
     1
 43
1.0
176
     1
 76
     1
176
     1
 77
     6
176
     1
 78
     2
176
     1
 67
     7
176
     1
 79
     5
176
     1
170
     0
176
     1
171
     0
176
     1
290
     0
176
     1
 93
        1
176
     1
 44
0.0
176
     1
173
     0
176
     1
  0
VISUALSTYLE
  5
3257
102
{ACAD_REACTORS
330
3245
102
}
330
3245
100
AcDbVisualStyle
  2
OverhangOff
 70
    21
177
     2
291
     1
 71
     2
176
     0
 72
     2
176
     0
 73
     0
176
     0
 90
        0
176
     0
 40
0.6
176
     0
 41
30.0
176
     0
 63
     7
421
 16777215
176
     0
 74
     1
176
     0
 91
        4
176
     0
 64
     7
176
     0
 65
   257
176
     0
 75
     1
176
     0
175
     1
176
     0
 42
1.0
176
     0
 92
        9
176
     2
 66
     7
176
     0
 43
1.0
176
     0
 76
     1
176
     0
 77
     6
176
     0
 78
     2
176
     0
 67
     7
176
     0
 79
     5
176
     0
170
     0
176
     0
171
     0
176
     0
290
     0
176
     0
 93
        1
176
     0
 44
0.0
176
     0
173
     0
176
     0
  0
VISUALSTYLE
  5
324F
102
{ACAD_REACTORS
330
3245
102
}
330
3245
100
AcDbVisualStyle
  2
Realistic
 70
     8
177
     2
291
     0
 71
     2
176
     1
 72
     2
176
     1
 73
     0
176
     1
 90
        0
176
     1
 40
0.6
176
     1
 41
30.0
176
     1
 63
     7
421
 16777215
176
     1
 74
     1
176
     1
 91
        0
176
     1
 64
     7
176
     1
 65
   257
176
     1
 75
     1
176
     1
175
     1
176
     1
 42
1.0
176
     1
 92
        8
176
     1
 66
     8
424
  7895160
176
     1
 43
1.0
176
     1
 76
     1
176
     1
 77
     6
176
     1
 78
     2
176
     1
 67
     7
176
     1
 79
     5
176
     1
170
     0
176
     1
171
     0
176
     1
290
     0
176
     1
 93
       13
176
     1
 44
0.0
176
     1
173
     0
176
     1
  0
VISUALSTYLE
  5
3252
102
{ACAD_REACTORS
330
3245
102
}
330
3245
100
AcDbVisualStyle
  2
Thicken
 70
    13
177
     2
291
     1
 71
     2
176
     1
 72
     2
176
     1
 73
     0
176
     1
 90
        0
176
     1
 40
0.6
176
     1
 41
30.0
176
     1
 63
     7
421
 16777215
176
     1
 74
     1
176
     1
 91
        4
176
     1
 64
     7
176
     1
 65
   257
176
     1
 75
     1
176
     1
175
     1
176
     1
 42
1.0
176
     1
 92
       12
176
     1
 66
     7
176
     1
 43
1.0
176
     1
 76
     1
176
     1
 77
     6
176
     1
 78
     2
176
     1
 67
     7
176
     1
 79
     5
176
     1
170
     0
176
     1
171
     0
176
     1
290
     0
176
     1
 93
        1
176
     1
 44
0.0
176
     1
173
     0
176
     1
  0
DICTIONARYVAR
  5
32B0
102
{ACAD_REACTORS
330
32AC
102
}
330
32AC
100
DictionaryVariables
280
     0
  1
1:1
  0
DICTIONARYVAR
  5
32AE
102
{ACAD_REACTORS
330
32AC
102
}
330
32AC
100
DictionaryVariables
280
     0
  1
STANDARD
  0
DICTIONARYVAR
  5
32AD
102
{ACAD_REACTORS
330
32AC
102
}
330
32AC
100
DictionaryVariables
280
     0
  1
STANDARD
  0
DICTIONARYVAR
  5
32B2
102
{ACAD_REACTORS
330
32AC
102
}
330
32AC
100
DictionaryVariables
280
     0
  1
1
  0
DICTIONARYVAR
  5
32B3
102
{ACAD_REACTORS
330
32AC
102
}
330
32AC
100
DictionaryVariables
280
     0
  1
15
  0
DICTIONARYVAR
  5
32B1
102
{ACAD_REACTORS
330
32AC
102
}
330
32AC
100
DictionaryVariables
280
     0
  1
0
  0
DICTIONARYVAR
  5
32AF
102
{ACAD_REACTORS
330
32AC
102
}
330
32AC
100
DictionaryVariables
280
     0
  1
0
  0
XRECORD
  5
29E
102
{ACAD_REACTORS
330
29C
102
}
330
29C
100
AcDbXrecord
280
     1
330
0
  0
DICTIONARY
  5
3236
330
3235
100
AcDbDictionary
280
     1
281
     1
  3
BUMPTILE
360
3238
  3
DIFFUSETILE
360
3237
  3
OPACITYTILE
360
323B
  3
REFLECTIONTILE
360
323A
  3
REFRACTIONTILE
360
323C
  3
SPECULARTILE
360
3239
  0
DICTIONARY
  5
322E
330
322D
100
AcDbDictionary
280
     1
281
     1
  3
BUMPTILE
360
3230
  3
DIFFUSETILE
360
322F
  3
OPACITYTILE
360
3233
  3
REFLECTIONTILE
360
3232
  3
REFRACTIONTILE
360
3234
  3
SPECULARTILE
360
3231
  0
DICTIONARY
  5
323E
330
323D
100
AcDbDictionary
280
     1
281
     1
  3
BUMPTILE
360
3240
  3
DIFFUSETILE
360
323F
  3
OPACITYTILE
360
3243
  3
REFLECTIONTILE
360
3242
  3
REFRACTIONTILE
360
3244
  3
SPECULARTILE
360
3241
  0
DICTIONARY
  5
32B4
330
325B
100
AcDbDictionary
280
     1
281
     1
  3
ACAD_ROUNDTRIP_2008_TABLESTYLE_CELLSTYLEMAP
360
32B5
  0
XRECORD
  5
3238
102
{ACAD_REACTORS
330
3236
102
}
330
3236
100
AcDbXrecord
280
     1
270
     1
271
     1
  0
XRECORD
  5
3237
102
{ACAD_REACTORS
330
3236
102
}
330
3236
100
AcDbXrecord
280
     1
270
     1
271
     1
  0
XRECORD
  5
323B
102
{ACAD_REACTORS
330
3236
102
}
330
3236
100
AcDbXrecord
280
     1
270
     1
271
     1
  0
XRECORD
  5
323A
102
{ACAD_REACTORS
330
3236
102
}
330
3236
100
AcDbXrecord
280
     1
270
     1
271
     1
  0
XRECORD
  5
323C
102
{ACAD_REACTORS
330
3236
102
}
330
3236
100
AcDbXrecord
280
     1
270
     1
271
     1
  0
XRECORD
  5
3239
102
{ACAD_REACTORS
330
3236
102
}
330
3236
100
AcDbXrecord
280
     1
270
     1
271
     1
  0
XRECORD
  5
3230
102
{ACAD_REACTORS
330
322E
102
}
330
322E
100
AcDbXrecord
280
     1
270
     1
271
     1
  0
XRECORD
  5
322F
102
{ACAD_REACTORS
330
322E
102
}
330
322E
100
AcDbXrecord
280
     1
270
     1
271
     1
  0
XRECORD
  5
3233
102
{ACAD_REACTORS
330
322E
102
}
330
322E
100
AcDbXrecord
280
     1
270
     1
271
     1
  0
XRECORD
  5
3232
102
{ACAD_REACTORS
330
322E
102
}
330
322E
100
AcDbXrecord
280
     1
270
     1
271
     1
  0
XRECORD
  5
3234
102
{ACAD_REACTORS
330
322E
102
}
330
322E
100
AcDbXrecord
280
     1
270
     1
271
     1
  0
XRECORD
  5
3231
102
{ACAD_REACTORS
330
322E
102
}
330
322E
100
AcDbXrecord
280
     1
270
     1
271
     1
  0
XRECORD
  5
3240
102
{ACAD_REACTORS
330
323E
102
}
330
323E
100
AcDbXrecord
280
     1
270
     1
271
     1
  0
XRECORD
  5
323F
102
{ACAD_REACTORS
330
323E
102
}
330
323E
100
AcDbXrecord
280
     1
270
     1
271
     1
  0
XRECORD
  5
3243
102
{ACAD_REACTORS
330
323E
102
}
330
323E
100
AcDbXrecord
280
     1
270
     1
271
     1
  0
XRECORD
  5
3242
102
{ACAD_REACTORS
330
323E
102
}
330
323E
100
AcDbXrecord
280
     1
270
     1
271
     1
  0
XRECORD
  5
3244
102
{ACAD_REACTORS
330
323E
102
}
330
323E
100
AcDbXrecord
280
     1
270
     1
271
     1
  0
XRECORD
  5
3241
102
{ACAD_REACTORS
330
323E
102
}
330
323E
100
AcDbXrecord
280
     1
270
     1
271
     1
  0
CELLSTYLEMAP
  5
32B5
102
{ACAD_REACTORS
330
32B4
102
}
330
32B4
100
AcDbCellStyleMap
 90
        3
300
CELLSTYLE
  1
TABLEFORMAT_BEGIN
 90
        5
170
     1
 91
        0
 92
    32768
 62
   257
 93
        1
300
CONTENTFORMAT
  1
CONTENTFORMAT_BEGIN
 90
        0
 91
        0
 92
      512
 93
        0
300

 40
0.0
140
1.0
 94
        5
 62
     0
340
10
144
0.25
309
CONTENTFORMAT_END
171
     0
 94
        0
309
TABLEFORMAT_END
  1
CELLSTYLE_BEGIN
 90
        1
 91
        1
300
_TITLE
309
CELLSTYLE_END
300
CELLSTYLE
  1
TABLEFORMAT_BEGIN
 90
        5
170
     1
 91
        0
 92
        0
 62
   257
 93
        1
300
CONTENTFORMAT
  1
CONTENTFORMAT_BEGIN
 90
        0
 91
        0
 92
      512
 93
        0
300

 40
0.0
140
1.0
 94
        5
 62
     0
340
10
144
0.18
309
CONTENTFORMAT_END
171
     0
 94
        0
309
TABLEFORMAT_END
  1
CELLSTYLE_BEGIN
 90
        2
 91
        1
300
_HEADER
309
CELLSTYLE_END
300
CELLSTYLE
  1
TABLEFORMAT_BEGIN
 90
        5
170
     1
 91
        0
 92
        0
 62
   257
 93
        1
300
CONTENTFORMAT
  1
CONTENTFORMAT_BEGIN
 90
        0
 91
        0
 92
      512
 93
        0
300

 40
0.0
140
1.0
 94
        2
 62
     0
340
10
144
0.18
309
CONTENTFORMAT_END
171
     0
 94
        0
309
TABLEFORMAT_END
  1
CELLSTYLE_BEGIN
 90
        3
 91
        2
300
_DATA
309
CELLSTYLE_END
  0
ENDSEC
  0
EOF
