  0
SECTION
  2
HEADER
  9
$ACADVER
  1
AC1024
  9
$ACADMAINTVER
 70
     6
  9
$DWGCODEPAGE
  3
ANSI_932
  9
$LASTSAVEDBY
  1
Schuyler
  9
$INSBASE
 10
0.0
 20
0.0
 30
0.0
  9
$EXTMIN
 10
214.836885864041
 20
-5.999676172326758
 30
0.0
  9
$EXTMAX
 10
222.8671132055122
 20
0.6807462179658899
 30
0.0
  9
$LIMMIN
 10
0.0
 20
0.0
  9
$LIMMAX
 10
17.0
 20
11.0
  9
$ORTHOMODE
 70
     0
  9
$REGENMODE
 70
     1
  9
$FILLMODE
 70
     1
  9
$QTEXTMODE
 70
     0
  9
$MIRRTEXT
 70
     0
  9
$LTSCALE
 40
3.2
  9
$ATTMODE
 70
     1
  9
$TEXTSIZE
 40
0.1
  9
$TRACEWID
 40
0.05
  9
$TEXTSTYLE
  7
STANDARD
  9
$CLAYER
  8
PICK
  9
$CELTYPE
  6
BYLAYER
  9
$CECOLOR
 62
   256
  9
$CELTSCALE
 40
1.0
  9
$DISPSILH
 70
     0
  9
$DIMSCALE
 40
0.4
  9
$DIMASZ
 40
0.12
  9
$DIMEXO
 40
0.1
  9
$DIMDLI
 40
0.22
  9
$DIMRND
 40
0.0
  9
$DIMDLE
 40
0.0
  9
$DIMEXE
 40
0.12
  9
$DIMTP
 40
0.0
  9
$DIMTM
 40
0.0
  9
$DIMTXT
 40
0.1
  9
$DIMCEN
 40
0.0
  9
$DIMTSZ
 40
0.0
  9
$DIMTOL
 70
     0
  9
$DIMLIM
 70
     0
  9
$DIMTIH
 70
     0
  9
$DIMTOH
 70
     0
  9
$DIMSE1
 70
     0
  9
$DIMSE2
 70
     0
  9
$DIMTAD
 70
     0
  9
$DIMZIN
 70
     3
  9
$DIMBLK
  1

  9
$DIMASO
 70
     1
  9
$DIMSHO
 70
     0
  9
$DIMPOST
  1

  9
$DIMAPOST
  1

  9
$DIMALT
 70
     0
  9
$DIMALTD
 70
     2
  9
$DIMALTF
 40
25.4
  9
$DIMLFAC
 40
1.0
  9
$DIMTOFL
 70
     0
  9
$DIMTVP
 40
0.0
  9
$DIMTIX
 70
     0
  9
$DIMSOXD
 70
     0
  9
$DIMSAH
 70
     0
  9
$DIMBLK1
  1

  9
$DIMBLK2
  1

  9
$DIMSTYLE
  2
TPS3
  9
$DIMCLRD
 70
     0
  9
$DIMCLRE
 70
     0
  9
$DIMCLRT
 70
     0
  9
$DIMTFAC
 40
1.0
  9
$DIMGAP
 40
0.09
  9
$DIMJUST
 70
     0
  9
$DIMSD1
 70
     0
  9
$DIMSD2
 70
     0
  9
$DIMTOLJ
 70
     1
  9
$DIMTZIN
 70
     3
  9
$DIMALTZ
 70
     0
  9
$DIMALTTZ
 70
     0
  9
$DIMUPT
 70
     0
  9
$DIMDEC
 70
     3
  9
$DIMTDEC
 70
     3
  9
$DIMALTU
 70
     2
  9
$DIMALTTD
 70
     2
  9
$DIMTXSTY
  7
STANDARD
  9
$DIMAUNIT
 70
     0
  9
$DIMADEC
 70
     0
  9
$DIMALTRND
 40
0.0
  9
$DIMAZIN
 70
     0
  9
$DIMDSEP
 70
    46
  9
$DIMATFIT
 70
     3
  9
$DIMFRAC
 70
     0
  9
$DIMLDRBLK
  1

  9
$DIMLUNIT
 70
     2
  9
$DIMLWD
 70
    -2
  9
$DIMLWE
 70
    -2
  9
$DIMTMOVE
 70
     0
  9
$DIMFXL
 40
1.0
  9
$DIMFXLON
 70
     0
  9
$DIMJOGANG
 40
0.7853981633974483
  9
$DIMTFILL
 70
     0
  9
$DIMTFILLCLR
 70
     0
  9
$DIMARCSYM
 70
     0
  9
$DIMLTYPE
  6

  9
$DIMLTEX1
  6

  9
$DIMLTEX2
  6

  9
$DIMTXTDIRECTION
 70
     0
  9
$LUNITS
 70
     2
  9
$LUPREC
 70
     3
  9
$SKETCHINC
 40
0.1
  9
$FILLETRAD
 40
0.0
  9
$AUNITS
 70
     0
  9
$AUPREC
 70
     1
  9
$MENU
  1
ACAD
  9
$ELEVATION
 40
0.0
  9
$PELEVATION
 40
0.0
  9
$THICKNESS
 40
0.0
  9
$LIMCHECK
 70
     0
  9
$CHAMFERA
 40
0.0
  9
$CHAMFERB
 40
0.0
  9
$CHAMFERC
 40
0.0
  9
$CHAMFERD
 40
0.0
  9
$SKPOLY
 70
     0
  9
$TDCREATE
 40
2455057.585952812
  9
$TDUCREATE
 40
2455057.752619480
  9
$TDUPDATE
 40
2455849.029374861
  9
$TDUUPDATE
 40
2455849.196041528
  9
$TDINDWG
 40
12.1114226505
  9
$TDUSRTIMER
 40
12.1114226505
  9
$USRTIMER
 70
     1
  9
$ANGBASE
 50
0.0
  9
$ANGDIR
 70
     0
  9
$PDMODE
 70
     3
  9
$PDSIZE
 40
0.02
  9
$PLINEWID
 40
0.0
  9
$SPLFRAME
 70
     0
  9
$SPLINETYPE
 70
     6
  9
$SPLINESEGS
 70
     8
  9
$HANDSEED
  5
3ACB
  9
$SURFTAB1
 70
     6
  9
$SURFTAB2
 70
     6
  9
$SURFTYPE
 70
     6
  9
$SURFU
 70
     6
  9
$SURFV
 70
     6
  9
$UCSBASE
  2

  9
$UCSNAME
  2

  9
$UCSORG
 10
217.0637956006614
 20
-1.390165411011395
 30
0.0
  9
$UCSXDIR
 10
1.0
 20
0.0
 30
0.0
  9
$UCSYDIR
 10
0.0
 20
1.0
 30
0.0
  9
$UCSORTHOREF
  2

  9
$UCSORTHOVIEW
 70
     0
  9
$UCSORGTOP
 10
0.0
 20
0.0
 30
0.0
  9
$UCSORGBOTTOM
 10
0.0
 20
0.0
 30
0.0
  9
$UCSORGLEFT
 10
0.0
 20
0.0
 30
0.0
  9
$UCSORGRIGHT
 10
0.0
 20
0.0
 30
0.0
  9
$UCSORGFRONT
 10
0.0
 20
0.0
 30
0.0
  9
$UCSORGBACK
 10
0.0
 20
0.0
 30
0.0
  9
$PUCSBASE
  2

  9
$PUCSNAME
  2

  9
$PUCSORG
 10
0.0
 20
0.0
 30
0.0
  9
$PUCSXDIR
 10
1.0
 20
0.0
 30
0.0
  9
$PUCSYDIR
 10
0.0
 20
1.0
 30
0.0
  9
$PUCSORTHOREF
  2

  9
$PUCSORTHOVIEW
 70
     0
  9
$PUCSORGTOP
 10
0.0
 20
0.0
 30
0.0
  9
$PUCSORGBOTTOM
 10
0.0
 20
0.0
 30
0.0
  9
$PUCSORGLEFT
 10
0.0
 20
0.0
 30
0.0
  9
$PUCSORGRIGHT
 10
0.0
 20
0.0
 30
0.0
  9
$PUCSORGFRONT
 10
0.0
 20
0.0
 30
0.0
  9
$PUCSORGBACK
 10
0.0
 20
0.0
 30
0.0
  9
$USERI1
 70
     0
  9
$USERI2
 70
     0
  9
$USERI3
 70
     0
  9
$USERI4
 70
     0
  9
$USERI5
 70
     0
  9
$USERR1
 40
0.0
  9
$USERR2
 40
0.0
  9
$USERR3
 40
0.0
  9
$USERR4
 40
0.0
  9
$USERR5
 40
0.0
  9
$WORLDVIEW
 70
     1
  9
$SHADEDGE
 70
     3
  9
$SHADEDIF
 70
    70
  9
$TILEMODE
 70
     1
  9
$MAXACTVP
 70
    16
  9
$PINSBASE
 10
0.0
 20
0.0
 30
0.0
  9
$PLIMCHECK
 70
     0
  9
$PEXTMIN
 10
1.000000000000000E+20
 20
1.000000000000000E+20
 30
1.000000000000000E+20
  9
$PEXTMAX
 10
-1.000000000000000E+20
 20
-1.000000000000000E+20
 30
-1.000000000000000E+20
  9
$PLIMMIN
 10
0.0
 20
0.0
  9
$PLIMMAX
 10
12.0
 20
9.0
  9
$UNITMODE
 70
     0
  9
$VISRETAIN
 70
     0
  9
$PLINEGEN
 70
     0
  9
$PSLTSCALE
 70
     0
  9
$TREEDEPTH
 70
  3020
  9
$CMLSTYLE
  2
STANDARD
  9
$CMLJUST
 70
     0
  9
$CMLSCALE
 40
1.0
  9
$PROXYGRAPHICS
 70
     1
  9
$MEASUREMENT
 70
     0
  9
$CELWEIGHT
370
    -1
  9
$ENDCAPS
280
     0
  9
$JOINSTYLE
280
     0
  9
$LWDISPLAY
290
     0
  9
$INSUNITS
 70
     0
  9
$HYPERLINKBASE
  1

  9
$STYLESHEET
  1
tps-s1_BLACK.ctb
  9
$XEDIT
290
     1
  9
$CEPSNTYPE
380
     0
  9
$PSTYLEMODE
290
     1
  9
$FINGERPRINTGUID
  2
{AF1BFB27-CCE5-11D3-9728-005004AD2079}
  9
$VERSIONGUID
  2
{2EB58BBE-57C7-486F-829C-654C1C4C7253}
  9
$EXTNAMES
290
     1
  9
$PSVPSCALE
 40
0.0
  9
$OLESTARTUP
290
     0
  9
$SORTENTS
280
   127
  9
$INDEXCTL
280
     0
  9
$HIDETEXT
280
     0
  9
$XCLIPFRAME
280
     2
  9
$HALOGAP
280
     0
  9
$OBSCOLOR
 70
   257
  9
$OBSLTYPE
280
     0
  9
$INTERSECTIONDISPLAY
280
     0
  9
$INTERSECTIONCOLOR
 70
   257
  9
$DIMASSOC
280
     1
  9
$PROJECTNAME
  1

  9
$CAMERADISPLAY
290
     0
  9
$LENSLENGTH
 40
50.0
  9
$CAMERAHEIGHT
 40
0.0
  9
$STEPSPERSEC
 40
2.0
  9
$STEPSIZE
 40
6.0
  9
$3DDWFPREC
 40
2.0
  9
$PSOLWIDTH
 40
0.25
  9
$PSOLHEIGHT
 40
4.0
  9
$LOFTANG1
 40
1.570796326794896
  9
$LOFTANG2
 40
1.570796326794896
  9
$LOFTMAG1
 40
0.0
  9
$LOFTMAG2
 40
0.0
  9
$LOFTPARAM
 70
     7
  9
$LOFTNORMALS
280
     1
  9
$LATITUDE
 40
37.795
  9
$LONGITUDE
 40
-122.394
  9
$NORTHDIRECTION
 40
0.0
  9
$TIMEZONE
 70
 -8000
  9
$LIGHTGLYPHDISPLAY
280
     1
  9
$TILEMODELIGHTSYNCH
280
     1
  9
$CMATERIAL
347
3A40
  9
$SOLIDHIST
280
     1
  9
$SHOWHIST
280
     1
  9
$DWFFRAME
280
     2
  9
$DGNFRAME
280
     0
  9
$REALWORLDSCALE
290
     1
  9
$INTERFERECOLOR
 62
     1
  9
$INTERFEREOBJVS
345
3A62
  9
$INTERFEREVPVS
346
3A5F
  9
$CSHADOW
280
     0
  9
$SHADOWPLANELOCATION
 40
0.0
  0
ENDSEC
  0
SECTION
  2
CLASSES
  0
CLASS
  1
ACDBDICTIONARYWDFLT
  2
AcDbDictionaryWithDefault
  3
ObjectDBX Classes
 90
        0
 91
        1
280
     0
281
     0
  0
CLASS
  1
PLOTSETTINGS
  2
AcDbPlotSettings
  3
ObjectDBX Classes
 90
        0
 91
        2
280
     0
281
     0
  0
CLASS
  1
SORTENTSTABLE
  2
AcDbSortentsTable
  3
ObjectDBX Classes
 90
        0
 91
        0
280
     0
281
     0
  0
CLASS
  1
MATERIAL
  2
AcDbMaterial
  3
ObjectDBX Classes
 90
     1153
 91
        3
280
     0
281
     0
  0
CLASS
  1
VISUALSTYLE
  2
AcDbVisualStyle
  3
ObjectDBX Classes
 90
     4095
 91
       19
280
     0
281
     0
  0
CLASS
  1
TABLESTYLE
  2
AcDbTableStyle
  3
ObjectDBX Classes
 90
     4095
 91
        1
280
     0
281
     0
  0
CLASS
  1
SCALE
  2
AcDbScale
  3
ObjectDBX Classes
 90
     1153
 91
       33
280
     0
281
     0
  0
CLASS
  1
MLEADERSTYLE
  2
AcDbMLeaderStyle
  3
ACDB_MLEADERSTYLE_CLASS
 90
     4095
 91
        1
280
     0
281
     0
  0
CLASS
  1
DICTIONARYVAR
  2
AcDbDictionaryVar
  3
ObjectDBX Classes
 90
        0
 91
        7
280
     0
281
     0
  0
CLASS
  1
CELLSTYLEMAP
  2
AcDbCellStyleMap
  3
ObjectDBX Classes
 90
     1152
 91
        1
280
     0
281
     0
  0
ENDSEC
  0
SECTION
  2
TABLES
  0
TABLE
  2
VPORT
  5
8
330
0
100
AcDbSymbolTable
 70
     1
  0
VPORT
  5
3A3D
330
8
100
AcDbSymbolTableRecord
100
AcDbViewportTableRecord
  2
*Active
 70
     0
 10
0.0
 20
0.0
 11
1.0
 21
1.0
 12
218.9921132055122
 22
-1.377342420474561
 13
0.0
 23
0.0
 14
1.0
 24
1.0
 15
0.0
 25
0.0
 16
0.0
 26
0.0
 36
1.0
 17
0.0
 27
0.0
 37
0.0
 40
5.635138929304531
 41
1.85287610619469
 42
0.0
 43
0.0
 44
0.0
 50
0.0
 51
0.0
 71
     0
 72
   100
 73
     1
 74
     0
 75
     0
 76
     0
 77
     0
 78
     2
281
     0
 65
     1
110
217.0637956006614
120
-1.390165411011395
130
0.0
111
1.0
121
0.0
131
0.0
112
0.0
122
1.0
132
0.0
 79
     0
146
0.0
348
3A5E
 60
     3
 61
     5
292
     1
282
     1
141
0.0
142
0.0
 63
   250
421
  3355443
  0
ENDTAB
  0
TABLE
  2
LTYPE
  5
5
330
0
100
AcDbSymbolTable
 70
     5
  0
LTYPE
  5
12
330
5
100
AcDbSymbolTableRecord
100
AcDbLinetypeTableRecord
  2
BYBLOCK
 70
     0
  3

 72
    65
 73
     0
 40
0.0
  0
LTYPE
  5
13
330
5
100
AcDbSymbolTableRecord
100
AcDbLinetypeTableRecord
  2
BYLAYER
 70
     0
  3

 72
    65
 73
     0
 40
0.0
  0
LTYPE
  5
14
330
5
100
AcDbSymbolTableRecord
100
AcDbLinetypeTableRecord
  2
CONTINUOUS
 70
     0
  3
Solid line
 72
    65
 73
     0
 40
0.0
  0
LTYPE
  5
1D
330
5
100
AcDbSymbolTableRecord
100
AcDbLinetypeTableRecord
  2
H
 70
     0
  3
_ _ _ _ _ _ _ _ _ _ _ _ _ _ _ _ _ _ _ _ _ _ _
 72
    65
 73
     2
 40
0.375
 49
0.25
 74
     0
 49
-0.125
 74
     0
  0
LTYPE
  5
1E
330
5
100
AcDbSymbolTableRecord
100
AcDbLinetypeTableRecord
  2
C
 70
     0
  3
____ _ ____ _ ____ _ ____ _ ____ _ ____ _ ____
 72
    65
 73
     4
 40
2.0
 49
1.25
 74
     0
 49
-0.25
 74
     0
 49
0.25
 74
     0
 49
-0.25
 74
     0
  0
LTYPE
  5
726
330
5
100
AcDbSymbolTableRecord
100
AcDbLinetypeTableRecord
  2
ACAD_ISO08W100
 70
     0
  3
ISO long-dash short-dash ____ __ ____ __ ____ _
 72
    65
 73
     4
 40
36.0
 49
24.0
 74
     0
 49
-3.0
 74
     0
 49
6.0
 74
     0
 49
-3.0
 74
     0
  0
ENDTAB
  0
TABLE
  2
LAYER
  5
2
330
0
100
AcDbSymbolTable
 70
    18
  0
LAYER
  5
F
102
{ACAD_XDICTIONARY
360
3A9F
102
}
330
2
100
AcDbSymbolTableRecord
100
AcDbLayerTableRecord
  2
0
 70
     0
 62
     7
  6
CONTINUOUS
370
    -3
390
106
347
3A50
  0
LAYER
  5
24
102
{ACAD_XDICTIONARY
360
3AA1
102
}
330
2
100
AcDbSymbolTableRecord
100
AcDbLayerTableRecord
  2
H
 70
     0
 62
     1
  6
H
370
    -3
390
106
347
3A50
  0
LAYER
  5
25
102
{ACAD_XDICTIONARY
360
3AA3
102
}
330
2
100
AcDbSymbolTableRecord
100
AcDbLayerTableRecord
  2
C
 70
     0
 62
     1
  6
C
370
    -3
390
106
347
3A50
  0
LAYER
  5
26
102
{ACAD_XDICTIONARY
360
3AA5
102
}
330
2
100
AcDbSymbolTableRecord
100
AcDbLayerTableRecord
  2
BORDER
 70
     0
 62
     3
  6
CONTINUOUS
370
    -3
390
106
347
3A50
  0
LAYER
  5
27
102
{ACAD_XDICTIONARY
360
3AA7
102
}
330
2
100
AcDbSymbolTableRecord
100
AcDbLayerTableRecord
  2
X
 70
     0
 62
     1
  6
CONTINUOUS
370
    -3
390
106
347
3A50
  0
LAYER
  5
28
102
{ACAD_XDICTIONARY
360
3AA9
102
}
330
2
100
AcDbSymbolTableRecord
100
AcDbLayerTableRecord
  2
T
 70
     0
 62
    50
  6
CONTINUOUS
370
    -3
390
106
347
3A50
  0
LAYER
  5
2A
102
{ACAD_XDICTIONARY
360
3AAB
102
}
330
2
100
AcDbSymbolTableRecord
100
AcDbLayerTableRecord
  2
D
 70
     0
 62
     7
  6
CONTINUOUS
370
    -3
390
106
347
3A50
  0
LAYER
  5
371
102
{ACAD_XDICTIONARY
360
3AAD
102
}
330
2
100
AcDbSymbolTableRecord
100
AcDbLayerTableRecord
  2
FRAME 070
 70
     0
 62
     5
  6
CONTINUOUS
370
    -3
390
106
347
3A50
  0
LAYER
  5
372
102
{ACAD_XDICTIONARY
360
3AAF
102
}
330
2
100
AcDbSymbolTableRecord
100
AcDbLayerTableRecord
  2
SECTION
 70
     0
 62
     6
  6
ACAD_ISO08W100
370
    -3
390
106
347
3A50
  0
LAYER
  5
373
102
{ACAD_XDICTIONARY
360
3AB1
102
}
330
2
100
AcDbSymbolTableRecord
100
AcDbLayerTableRecord
  2
FRAME 025
 70
     0
 62
     7
  6
CONTINUOUS
370
    -3
390
106
347
3A50
  0
LAYER
  5
374
102
{ACAD_XDICTIONARY
360
3AB3
102
}
330
2
100
AcDbSymbolTableRecord
100
AcDbLayerTableRecord
  2
Title Block
 70
     0
 62
    30
  6
CONTINUOUS
370
    -3
390
106
347
3A50
  0
LAYER
  5
496
102
{ACAD_XDICTIONARY
360
3AB5
102
}
330
2
100
AcDbSymbolTableRecord
100
AcDbLayerTableRecord
  2
TITLE BLOCK TEXT
 70
     0
 62
   253
  6
CONTINUOUS
370
    -3
390
106
347
3A50
  0
LAYER
  5
4CC
330
2
100
AcDbSymbolTableRecord
100
AcDbLayerTableRecord
  2
Defpoints
 70
     0
 62
     7
  6
CONTINUOUS
290
     0
370
    -3
390
106
347
3A50
  0
LAYER
  5
4F0
102
{ACAD_XDICTIONARY
360
3AB7
102
}
330
2
100
AcDbSymbolTableRecord
100
AcDbLayerTableRecord
  2
ti tubing 075
 70
     0
 62
    41
  6
CONTINUOUS
370
    -3
390
106
347
3A50
  0
LAYER
  5
504
102
{ACAD_XDICTIONARY
360
3AB9
102
}
330
2
100
AcDbSymbolTableRecord
100
AcDbLayerTableRecord
  2
ti tubing 2.0
 70
     0
 62
   101
  6
CONTINUOUS
370
    -3
390
106
347
3A50
  0
LAYER
  5
AF7
102
{ACAD_XDICTIONARY
360
AF8
102
}
330
2
100
AcDbSymbolTableRecord
100
AcDbLayerTableRecord
  2
Layer 1
 70
     0
 62
     7
  6
CONTINUOUS
370
    -3
390
106
347
3A50
  0
LAYER
  5
1197
102
{ACAD_XDICTIONARY
360
3ABC
102
}
330
2
100
AcDbSymbolTableRecord
100
AcDbLayerTableRecord
  2
PICK
 70
     0
 62
   211
  6
CONTINUOUS
370
    -3
390
106
347
3A50
  0
LAYER
  5
38CD
102
{ACAD_XDICTIONARY
360
3ABE
102
}
330
2
100
AcDbSymbolTableRecord
100
AcDbLayerTableRecord
  2
REVISION
 70
     0
 62
   220
  6
CONTINUOUS
370
    -3
390
106
347
3A50
  0
ENDTAB
  0
TABLE
  2
STYLE
  5
3
330
0
100
AcDbSymbolTable
 70
     6
  0
STYLE
  5
10
330
3
100
AcDbSymbolTableRecord
100
AcDbTextStyleTableRecord
  2
STANDARD
 70
     0
 40
0.0
 41
1.0
 50
0.0
 71
     0
 42
0.1
  3
txt
  4

  0
STYLE
  5
376
330
3
100
AcDbSymbolTableRecord
100
AcDbTextStyleTableRecord
  2
ISO Proportional
 70
     0
 40
0.0
 41
1.0
 50
0.0
 71
     0
 42
2.5
  3
isocp.shx
  4

  0
STYLE
  5
3D0
330
3
100
AcDbSymbolTableRecord
100
AcDbTextStyleTableRecord
  2
Roman
 70
     0
 40
0.0
 41
1.0
 50
0.0
 71
     0
 42
0.065
  3
romans
  4

  0
STYLE
  5
725
330
3
100
AcDbSymbolTableRecord
100
AcDbTextStyleTableRecord
  2

 70
     1
 40
0.0
 41
1.0
 50
0.0
 71
     0
 42
0.1
  3
ltypeshp.shx
  4

  0
STYLE
  5
A85
330
3
100
AcDbSymbolTableRecord
100
AcDbTextStyleTableRecord
  2
Annotative
 70
     0
 40
0.0
 41
1.0
 50
0.0
 71
     0
 42
0.2
  3
ARIAL.TTF
  4

1001
AcadAnnotative
1000
AnnotativeData
1002
{
1070
     1
1070
     1
1002
}
1001
ACAD
1000
Arial
1071
       34
  0
STYLE
  5
A86
330
3
100
AcDbSymbolTableRecord
100
AcDbTextStyleTableRecord
  2
small
 70
     0
 40
0.1
 41
1.0
 50
0.0
 71
     0
 42
0.2
  3
ARIAL.TTF
  4

1001
ACAD
1000
Arial
1071
       34
  0
ENDTAB
  0
TABLE
  2
VIEW
  5
6
330
0
100
AcDbSymbolTable
 70
     1
  0
VIEW
  5
20
330
6
100
AcDbSymbolTableRecord
100
AcDbViewTableRecord
  2
BORDER
 70
     0
 40
4.875
 10
218.9921132055122
 20
-1.75675378203411
 41
7.75
 11
0.0
 21
0.0
 31
1.0
 12
0.0
 22
0.0
 32
0.0
 42
0.0
 43
0.0
 44
0.0
 50
0.0
 71
     0
281
     0
 72
     0
 73
     0
348
3A5E
  0
ENDTAB
  0
TABLE
  2
UCS
  5
7
330
0
100
AcDbSymbolTable
 70
     0
  0
ENDTAB
  0
TABLE
  2
APPID
  5
9
330
0
100
AcDbSymbolTable
 70
    11
  0
APPID
  5
11
330
9
100
AcDbSymbolTableRecord
100
AcDbRegAppTableRecord
  2
ACAD
 70
     0
  0
APPID
  5
175
330
9
100
AcDbSymbolTableRecord
100
AcDbRegAppTableRecord
  2
SI-MECH
 70
     0
  0
APPID
  5
29D
330
9
100
AcDbSymbolTableRecord
100
AcDbRegAppTableRecord
  2
DCO15
 70
     0
  0
APPID
  5
A8A
330
9
100
AcDbSymbolTableRecord
100
AcDbRegAppTableRecord
  2
AcadAnnoPO
 70
     0
  0
APPID
  5
A8B
330
9
100
AcDbSymbolTableRecord
100
AcDbRegAppTableRecord
  2
AcadAnnotative
 70
     0
  0
APPID
  5
A8C
330
9
100
AcDbSymbolTableRecord
100
AcDbRegAppTableRecord
  2
ACAD_DSTYLE_DIMJAG
 70
     0
  0
APPID
  5
A8D
330
9
100
AcDbSymbolTableRecord
100
AcDbRegAppTableRecord
  2
ACAD_DSTYLE_DIMTALN
 70
     0
  0
APPID
  5
A8E
330
9
100
AcDbSymbolTableRecord
100
AcDbRegAppTableRecord
  2
ACAD_MLEADERVER
 70
     0
  0
APPID
  5
A8F
330
9
100
AcDbSymbolTableRecord
100
AcDbRegAppTableRecord
  2
ACAD_DSTYLE_DIMBREAK
 70
     0
  0
APPID
  5
A90
330
9
100
AcDbSymbolTableRecord
100
AcDbRegAppTableRecord
  2
ACAD_EXEMPT_FROM_CAD_STANDARDS
 70
     0
  0
APPID
  5
A91
330
9
100
AcDbSymbolTableRecord
100
AcDbRegAppTableRecord
  2
ACAD_DSTYLE_DIMRADIAL_EXTENSION
 70
     0
  0
ENDTAB
  0
TABLE
  2
DIMSTYLE
  5
A
330
0
100
AcDbSymbolTable
 70
     6
100
AcDbDimStyleTable
 71
     2
340
49A
340
8C
  0
DIMSTYLE
105
8C
330
A
100
AcDbSymbolTableRecord
100
AcDbDimStyleTableRecord
  2
THREE
 70
     0
 41
0.12
 42
0.1
 43
0.22
 44
0.12
 73
     0
 78
     3
140
0.1
141
0.0
271
     3
272
     3
284
     3
340
10
  0
DIMSTYLE
105
49A
102
{ACAD_REACTORS
330
11A2
330
3708
330
3711
330
371A
330
3723
330
372C
330
3735
330
373E
330
3747
330
3750
330
37C5
330
37CE
330
37D9
330
37EF
330
3838
330
3841
330
384A
330
386E
330
3936
330
3941
330
394A
330
3957
330
3960
330
396D
330
3976
330
3981
330
3993
330
399E
330
39A7
330
39B2
330
39BD
330
39C6
330
39CF
330
39D8
330
39E2
330
39ED
102
}
330
A
100
AcDbSymbolTableRecord
100
AcDbDimStyleTableRecord
  2
TPS3
 70
     0
 40
0.4
 41
0.12
 42
0.1
 43
0.22
 44
0.12
 73
     0
 74
     0
 78
     3
140
0.1
141
0.0
271
     3
272
     3
284
     3
340
10
  0
DIMSTYLE
105
A87
330
A
100
AcDbSymbolTableRecord
100
AcDbDimStyleTableRecord
  2
Standard
 70
     0
340
10
  0
DIMSTYLE
105
A88
330
A
100
AcDbSymbolTableRecord
100
AcDbDimStyleTableRecord
  2
Annotative
 70
     0
 40
0.0
340
10
1001
AcadAnnotative
1000
AnnotativeData
1002
{
1070
     1
1070
     1
1002
}
1001
ACAD_DSTYLE_DIMJAG
1070
   388
1040
1.5
1001
ACAD_DSTYLE_DIMTALN
1070
   392
1070
     0
  0
DIMSTYLE
105
A89
330
A
100
AcDbSymbolTableRecord
100
AcDbDimStyleTableRecord
  2
small
 70
     0
 41
0.075
140
0.1
175
     1
279
     1
340
A86
1001
ACAD_DSTYLE_DIMBREAK
1070
   391
1040
0.125
1001
ACAD_DSTYLE_DIMJAG
1070
   388
1040
1.5
1001
ACAD_DSTYLE_DIMTALN
1070
   392
1070
     0
  0
ENDTAB
  0
TABLE
  2
BLOCK_RECORD
  5
1
330
0
100
AcDbSymbolTable
 70
    37
  0
BLOCK_RECORD
  5
18
330
1
100
AcDbSymbolTableRecord
100
AcDbBlockTableRecord
  2
*MODEL_SPACE
340
109
 70
     0
280
     1
281
     0
  0
BLOCK_RECORD
  5
15
330
1
100
AcDbSymbolTableRecord
100
AcDbBlockTableRecord
  2
*PAPER_SPACE
340
10A
 70
     0
280
     1
281
     0
  0
BLOCK_RECORD
  5
11A3
330
1
100
AcDbSymbolTableRecord
100
AcDbBlockTableRecord
  2
*D0
340
0
 70
     0
280
     1
281
     0
  0
BLOCK_RECORD
  5
3709
330
1
100
AcDbSymbolTableRecord
100
AcDbBlockTableRecord
  2
*D1
340
0
 70
     0
280
     1
281
     0
  0
BLOCK_RECORD
  5
3712
330
1
100
AcDbSymbolTableRecord
100
AcDbBlockTableRecord
  2
*D2
340
0
 70
     0
280
     1
281
     0
  0
BLOCK_RECORD
  5
371B
330
1
100
AcDbSymbolTableRecord
100
AcDbBlockTableRecord
  2
*D3
340
0
 70
     0
280
     1
281
     0
  0
BLOCK_RECORD
  5
3724
330
1
100
AcDbSymbolTableRecord
100
AcDbBlockTableRecord
  2
*D4
340
0
 70
     0
280
     1
281
     0
  0
BLOCK_RECORD
  5
372D
330
1
100
AcDbSymbolTableRecord
100
AcDbBlockTableRecord
  2
*D5
340
0
 70
     0
280
     1
281
     0
  0
BLOCK_RECORD
  5
3736
330
1
100
AcDbSymbolTableRecord
100
AcDbBlockTableRecord
  2
*D6
340
0
 70
     0
280
     1
281
     0
  0
BLOCK_RECORD
  5
373F
330
1
100
AcDbSymbolTableRecord
100
AcDbBlockTableRecord
  2
*D7
340
0
 70
     0
280
     1
281
     0
  0
BLOCK_RECORD
  5
3748
330
1
100
AcDbSymbolTableRecord
100
AcDbBlockTableRecord
  2
*D8
340
0
 70
     0
280
     1
281
     0
  0
BLOCK_RECORD
  5
3751
330
1
100
AcDbSymbolTableRecord
100
AcDbBlockTableRecord
  2
*D9
340
0
 70
     0
280
     1
281
     0
  0
BLOCK_RECORD
  5
37C6
330
1
100
AcDbSymbolTableRecord
100
AcDbBlockTableRecord
  2
*D10
340
0
 70
     0
280
     1
281
     0
  0
BLOCK_RECORD
  5
37CF
330
1
100
AcDbSymbolTableRecord
100
AcDbBlockTableRecord
  2
*D11
340
0
 70
     0
280
     1
281
     0
  0
BLOCK_RECORD
  5
37DA
330
1
100
AcDbSymbolTableRecord
100
AcDbBlockTableRecord
  2
*D12
340
0
 70
     0
280
     1
281
     0
  0
BLOCK_RECORD
  5
37F0
330
1
100
AcDbSymbolTableRecord
100
AcDbBlockTableRecord
  2
*D13
340
0
 70
     0
280
     1
281
     0
  0
BLOCK_RECORD
  5
3839
330
1
100
AcDbSymbolTableRecord
100
AcDbBlockTableRecord
  2
*D14
340
0
 70
     0
280
     1
281
     0
  0
BLOCK_RECORD
  5
3842
330
1
100
AcDbSymbolTableRecord
100
AcDbBlockTableRecord
  2
*D15
340
0
 70
     0
280
     1
281
     0
  0
BLOCK_RECORD
  5
384B
330
1
100
AcDbSymbolTableRecord
100
AcDbBlockTableRecord
  2
*D16
340
0
 70
     0
280
     1
281
     0
  0
BLOCK_RECORD
  5
386F
330
1
100
AcDbSymbolTableRecord
100
AcDbBlockTableRecord
  2
*D17
340
0
 70
     0
280
     1
281
     0
  0
BLOCK_RECORD
  5
3937
330
1
100
AcDbSymbolTableRecord
100
AcDbBlockTableRecord
  2
*D18
340
0
 70
     0
280
     1
281
     0
  0
BLOCK_RECORD
  5
3942
330
1
100
AcDbSymbolTableRecord
100
AcDbBlockTableRecord
  2
*D19
340
0
 70
     0
280
     1
281
     0
  0
BLOCK_RECORD
  5
394B
330
1
100
AcDbSymbolTableRecord
100
AcDbBlockTableRecord
  2
*D20
340
0
 70
     0
280
     1
281
     0
  0
BLOCK_RECORD
  5
3958
330
1
100
AcDbSymbolTableRecord
100
AcDbBlockTableRecord
  2
*D21
340
0
 70
     0
280
     1
281
     0
  0
BLOCK_RECORD
  5
3961
330
1
100
AcDbSymbolTableRecord
100
AcDbBlockTableRecord
  2
*D22
340
0
 70
     0
280
     1
281
     0
  0
BLOCK_RECORD
  5
396E
330
1
100
AcDbSymbolTableRecord
100
AcDbBlockTableRecord
  2
*D23
340
0
 70
     0
280
     1
281
     0
  0
BLOCK_RECORD
  5
3977
330
1
100
AcDbSymbolTableRecord
100
AcDbBlockTableRecord
  2
*D24
340
0
 70
     0
280
     1
281
     0
  0
BLOCK_RECORD
  5
3982
330
1
100
AcDbSymbolTableRecord
100
AcDbBlockTableRecord
  2
*D25
340
0
 70
     0
280
     1
281
     0
  0
BLOCK_RECORD
  5
3994
330
1
100
AcDbSymbolTableRecord
100
AcDbBlockTableRecord
  2
*D26
340
0
 70
     0
280
     1
281
     0
  0
BLOCK_RECORD
  5
399F
330
1
100
AcDbSymbolTableRecord
100
AcDbBlockTableRecord
  2
*D27
340
0
 70
     0
280
     1
281
     0
  0
BLOCK_RECORD
  5
39A8
330
1
100
AcDbSymbolTableRecord
100
AcDbBlockTableRecord
  2
*D28
340
0
 70
     0
280
     1
281
     0
  0
BLOCK_RECORD
  5
39B3
330
1
100
AcDbSymbolTableRecord
100
AcDbBlockTableRecord
  2
*D29
340
0
 70
     0
280
     1
281
     0
  0
BLOCK_RECORD
  5
39BE
330
1
100
AcDbSymbolTableRecord
100
AcDbBlockTableRecord
  2
*D30
340
0
 70
     0
280
     1
281
     0
  0
BLOCK_RECORD
  5
39C7
330
1
100
AcDbSymbolTableRecord
100
AcDbBlockTableRecord
  2
*D31
340
0
 70
     0
280
     1
281
     0
  0
BLOCK_RECORD
  5
39D0
330
1
100
AcDbSymbolTableRecord
100
AcDbBlockTableRecord
  2
*D32
340
0
 70
     0
280
     1
281
     0
  0
BLOCK_RECORD
  5
39D9
330
1
100
AcDbSymbolTableRecord
100
AcDbBlockTableRecord
  2
*D33
340
0
 70
     0
280
     1
281
     0
  0
BLOCK_RECORD
  5
39E3
330
1
100
AcDbSymbolTableRecord
100
AcDbBlockTableRecord
  2
*D34
340
0
 70
     0
280
     1
281
     0
  0
BLOCK_RECORD
  5
39EE
330
1
100
AcDbSymbolTableRecord
100
AcDbBlockTableRecord
  2
*D35
340
0
 70
     0
280
     1
281
     0
  0
ENDTAB
  0
ENDSEC
  0
SECTION
  2
BLOCKS
  0
BLOCK
  5
2E
330
18
100
AcDbEntity
  8
0
100
AcDbBlockBegin
  2
*MODEL_SPACE
 70
     0
 10
0.0
 20
0.0
 30
0.0
  3
*MODEL_SPACE
  1

  0
ENDBLK
  5
2F
330
18
100
AcDbEntity
  8
0
100
AcDbBlockEnd
  0
BLOCK
  5
2C
330
15
100
AcDbEntity
 67
     1
  8
0
100
AcDbBlockBegin
  2
*PAPER_SPACE
 70
     0
 10
0.0
 20
0.0
 30
0.0
  3
*PAPER_SPACE
  1

  0
ENDBLK
  5
2D
330
15
100
AcDbEntity
 67
     1
  8
0
100
AcDbBlockEnd
  0
BLOCK
  5
11AE
330
11A3
100
AcDbEntity
  8
0
100
AcDbBlockBegin
  2
*D0
 70
     1
 10
0.0
 20
0.0
 30
0.0
  3
*D0
  1

  0
LINE
  5
3A14
330
11A3
100
AcDbEntity
  8
D
 62
     0
370
    -2
100
AcDbLine
 10
215.9664550908254
 20
-1.229665411011402
 30
0.0
 11
215.9664550908254
 21
-1.025153340859391
 31
0.0
  0
LINE
  5
3A15
330
11A3
100
AcDbEntity
  8
D
 62
     0
370
    -2
100
AcDbLine
 10
215.9464550908254
 20
-1.229665411011402
 30
0.0
 11
215.9464550908254
 21
-1.025153340859391
 31
0.0
  0
LINE
  5
3A16
330
11A3
100
AcDbEntity
  8
D
 62
     0
370
    -2
100
AcDbLine
 10
216.0144550908254
 20
-1.073153340859391
 30
0.0
 11
216.0624550908254
 21
-1.073153340859391
 31
0.0
  0
LINE
  5
3A17
330
11A3
100
AcDbEntity
  8
D
 62
     0
370
    -2
100
AcDbLine
 10
215.8984550908254
 20
-1.073153340859391
 30
0.0
 11
215.8504550908254
 21
-1.073153340859391
 31
0.0
  0
SOLID
  5
3A18
330
11A3
100
AcDbEntity
  8
D
 62
     0
100
AcDbTrace
 10
216.0144550908254
 20
-1.065153340859391
 30
0.0
 11
216.0144550908254
 21
-1.081153340859391
 31
0.0
 12
215.9664550908254
 22
-1.073153340859391
 32
0.0
 13
215.9664550908254
 23
-1.073153340859391
 33
0.0
  0
SOLID
  5
3A19
330
11A3
100
AcDbEntity
  8
D
 62
     0
100
AcDbTrace
 10
215.8984550908254
 20
-1.065153340859391
 30
0.0
 11
215.8984550908254
 21
-1.081153340859391
 31
0.0
 12
215.9464550908254
 22
-1.073153340859391
 32
0.0
 13
215.9464550908254
 23
-1.073153340859391
 33
0.0
  0
MTEXT
  5
3A1A
330
11A3
100
AcDbEntity
  8
D
 62
     0
100
AcDbMText
 10
215.6644550908254
 20
-1.073153340859391
 30
0.0
 40
0.04
 41
0.0
 46
0.0
 71
     5
 72
     1
  1
\A1;0.020 REF
 73
     1
 44
1.0
  0
POINT
  5
3A1B
330
11A3
100
AcDbEntity
  8
Defpoints
 62
     0
100
AcDbPoint
 10
215.9664550908254
 20
-1.269665411011402
 30
0.0
  0
POINT
  5
3A1C
330
11A3
100
AcDbEntity
  8
Defpoints
 62
     0
100
AcDbPoint
 10
215.9464550908254
 20
-1.269665411011402
 30
0.0
  0
POINT
  5
3A1D
330
11A3
100
AcDbEntity
  8
Defpoints
 62
     0
100
AcDbPoint
 10
215.9464550908254
 20
-1.073153340859391
 30
0.0
  0
ENDBLK
  5
11AF
330
11A3
100
AcDbEntity
  8
0
100
AcDbBlockEnd
  0
BLOCK
  5
370F
330
3709
100
AcDbEntity
  8
0
100
AcDbBlockBegin
  2
*D1
 70
     1
 10
0.0
 20
0.0
 30
0.0
  3
*D1
  1

  0
LINE
  5
370A
330
3709
100
AcDbEntity
  8
D
 62
     0
370
    -2
100
AcDbLine
 10
217.0637956006614
 20
-1.350165411011395
 30
0.0
 11
217.0637956006614
 21
-1.144612097527801
 31
0.0
  0
MTEXT
  5
370B
330
3709
100
AcDbEntity
  8
D
 62
     0
100
AcDbMText
 10
217.0637956006614
 20
-1.041945430861099
 30
0.0
 40
0.04
 41
0.0
 46
0.0
 71
     5
 72
     1
  1
\A1;0.000
 11
0.0000000000000001
 21
1.0
 31
0.0
 73
     1
 44
1.0
  0
POINT
  5
370C
330
3709
100
AcDbEntity
  8
Defpoints
 62
     0
100
AcDbPoint
 10
217.0637956006614
 20
-1.390165411011395
 30
0.0
  0
POINT
  5
370D
330
3709
100
AcDbEntity
  8
Defpoints
 62
     0
100
AcDbPoint
 10
217.0637956006614
 20
-1.144612097527801
 30
0.0
  0
POINT
  5
370E
330
3709
100
AcDbEntity
  8
Defpoints
 62
     0
100
AcDbPoint
 10
217.0637956006614
 20
-1.390165411011395
 30
0.0
  0
ENDBLK
  5
3710
330
3709
100
AcDbEntity
  8
0
100
AcDbBlockEnd
  0
BLOCK
  5
3718
330
3712
100
AcDbEntity
  8
0
100
AcDbBlockBegin
  2
*D2
 70
     1
 10
0.0
 20
0.0
 30
0.0
  3
*D2
  1

  0
LINE
  5
3713
330
3712
100
AcDbEntity
  8
D
 62
     0
370
    -2
100
AcDbLine
 10
217.0237956006614
 20
-1.390165411011395
 30
0.0
 11
216.8919515845177
 21
-1.390165411011395
 31
0.0
  0
MTEXT
  5
3714
330
3712
100
AcDbEntity
  8
D
 62
     0
100
AcDbMText
 10
216.789284917851
 20
-1.390165411011395
 30
0.0
 40
0.04
 41
0.0
 46
0.0
 71
     5
 72
     1
  1
\A1;0.000
 73
     1
 44
1.0
  0
POINT
  5
3715
330
3712
100
AcDbEntity
  8
Defpoints
 62
     0
100
AcDbPoint
 10
217.0637956006614
 20
-1.390165411011395
 30
0.0
  0
POINT
  5
3716
330
3712
100
AcDbEntity
  8
Defpoints
 62
     0
100
AcDbPoint
 10
216.8919515845177
 20
-1.390165411011395
 30
0.0
  0
POINT
  5
3717
330
3712
100
AcDbEntity
  8
Defpoints
 62
     0
100
AcDbPoint
 10
217.0637956006614
 20
-1.390165411011395
 30
0.0
  0
ENDBLK
  5
3719
330
3712
100
AcDbEntity
  8
0
100
AcDbBlockEnd
  0
BLOCK
  5
3721
330
371B
100
AcDbEntity
  8
0
100
AcDbBlockBegin
  2
*D3
 70
     1
 10
0.0
 20
0.0
 30
0.0
  3
*D3
  1

  0
LINE
  5
371C
330
371B
100
AcDbEntity
  8
D
 62
     0
370
    -2
100
AcDbLine
 10
217.1842956006615
 20
-1.229665411011395
 30
0.0
 11
217.1842956006615
 21
-0.9910138940798987
 31
0.0
  0
MTEXT
  5
371D
330
371B
100
AcDbEntity
  8
D
 62
     0
100
AcDbMText
 10
217.1842956006615
 20
-0.8916805607465304
 30
0.0
 40
0.04
 41
0.0
 46
0.0
 71
     5
 72
     1
  1
\A1;0.121
 11
0.0000000000000001
 21
1.0
 31
0.0
 73
     1
 44
1.0
  0
POINT
  5
371E
330
371B
100
AcDbEntity
  8
Defpoints
 62
     0
100
AcDbPoint
 10
217.1842956006615
 20
-1.269665411011395
 30
0.0
  0
POINT
  5
371F
330
371B
100
AcDbEntity
  8
Defpoints
 62
     0
100
AcDbPoint
 10
217.1842956006615
 20
-0.9910138940798987
 30
0.0
  0
POINT
  5
3720
330
371B
100
AcDbEntity
  8
Defpoints
 62
     0
100
AcDbPoint
 10
217.0637956006614
 20
-1.390165411011395
 30
0.0
  0
ENDBLK
  5
3722
330
371B
100
AcDbEntity
  8
0
100
AcDbBlockEnd
  0
BLOCK
  5
372A
330
3724
100
AcDbEntity
  8
0
100
AcDbBlockBegin
  2
*D4
 70
     1
 10
0.0
 20
0.0
 30
0.0
  3
*D4
  1

  0
LINE
  5
3725
330
3724
100
AcDbEntity
  8
D
 62
     0
370
    -2
100
AcDbLine
 10
217.0237956006614
 20
-1.460165411011393
 30
0.0
 11
216.8820337366434
 21
-1.460165411011393
 31
0.0
  0
MTEXT
  5
3726
330
3724
100
AcDbEntity
  8
D
 62
     0
100
AcDbMText
 10
216.7760337366434
 20
-1.460165411011393
 30
0.0
 40
0.04
 41
0.0
 46
0.0
 71
     5
 72
     1
  1
\A1;0.070
 73
     1
 44
1.0
  0
POINT
  5
3727
330
3724
100
AcDbEntity
  8
Defpoints
 62
     0
100
AcDbPoint
 10
217.0637956006614
 20
-1.460165411011393
 30
0.0
  0
POINT
  5
3728
330
3724
100
AcDbEntity
  8
Defpoints
 62
     0
100
AcDbPoint
 10
216.8820337366434
 20
-1.460165411011393
 30
0.0
  0
POINT
  5
3729
330
3724
100
AcDbEntity
  8
Defpoints
 62
     0
100
AcDbPoint
 10
217.0637956006614
 20
-1.390165411011395
 30
0.0
  0
ENDBLK
  5
372B
330
3724
100
AcDbEntity
  8
0
100
AcDbBlockEnd
  0
BLOCK
  5
3733
330
372D
100
AcDbEntity
  8
0
100
AcDbBlockBegin
  2
*D5
 70
     1
 10
0.0
 20
0.0
 30
0.0
  3
*D5
  1

  0
LINE
  5
372E
330
372D
100
AcDbEntity
  8
D
 62
     0
370
    -2
100
AcDbLine
 10
217.1842956006615
 20
-1.620665411011395
 30
0.0
 11
217.1842956006615
 21
-1.768914502936837
 31
0.0
  0
MTEXT
  5
372F
330
372D
100
AcDbEntity
  8
D
 62
     0
100
AcDbMText
 10
217.1842956006615
 20
-1.868247836270136
 30
0.0
 40
0.04
 41
0.0
 46
0.0
 71
     5
 72
     1
  1
\A1;0.121
 11
0.0000000000000001
 21
1.0
 31
0.0
 73
     1
 44
1.0
  0
POINT
  5
3730
330
372D
100
AcDbEntity
  8
Defpoints
 62
     0
100
AcDbPoint
 10
217.1842956006615
 20
-1.580665411011395
 30
0.0
  0
POINT
  5
3731
330
372D
100
AcDbEntity
  8
Defpoints
 62
     0
100
AcDbPoint
 10
217.1842956006615
 20
-1.768914502936837
 30
0.0
  0
POINT
  5
3732
330
372D
100
AcDbEntity
  8
Defpoints
 62
     0
100
AcDbPoint
 10
217.0637956006614
 20
-1.390165411011395
 30
0.0
  0
ENDBLK
  5
3734
330
372D
100
AcDbEntity
  8
0
100
AcDbBlockEnd
  0
BLOCK
  5
373C
330
3736
100
AcDbEntity
  8
0
100
AcDbBlockBegin
  2
*D6
 70
     1
 10
0.0
 20
0.0
 30
0.0
  3
*D6
  1

  0
LINE
  5
3737
330
3736
100
AcDbEntity
  8
D
 62
     0
370
    -2
100
AcDbLine
 10
217.1442956006615
 20
-1.269665411011395
 30
0.0
 11
216.9564175957006
 21
-1.269665411011395
 31
0.0
  0
MTEXT
  5
3738
330
3736
100
AcDbEntity
  8
D
 62
     0
100
AcDbMText
 10
216.8570842623672
 20
-1.269665411011395
 30
0.0
 40
0.04
 41
0.0
 46
0.0
 71
     5
 72
     1
  1
\A1;0.121
 73
     1
 44
1.0
  0
POINT
  5
3739
330
3736
100
AcDbEntity
  8
Defpoints
 62
     0
100
AcDbPoint
 10
217.1842956006615
 20
-1.269665411011395
 30
0.0
  0
POINT
  5
373A
330
3736
100
AcDbEntity
  8
Defpoints
 62
     0
100
AcDbPoint
 10
216.9564175957006
 20
-1.269665411011395
 30
0.0
  0
POINT
  5
373B
330
3736
100
AcDbEntity
  8
Defpoints
 62
     0
100
AcDbPoint
 10
217.0637956006614
 20
-1.390165411011395
 30
0.0
  0
ENDBLK
  5
373D
330
3736
100
AcDbEntity
  8
0
100
AcDbBlockEnd
  0
BLOCK
  5
3745
330
373F
100
AcDbEntity
  8
0
100
AcDbBlockBegin
  2
*D7
 70
     1
 10
0.0
 20
0.0
 30
0.0
  3
*D7
  1

  0
LINE
  5
3740
330
373F
100
AcDbEntity
  8
D
 62
     0
370
    -2
100
AcDbLine
 10
217.1442956006615
 20
-1.580665411011395
 30
0.0
 11
216.948979193142
 21
-1.580665411011395
 31
0.0
  0
MTEXT
  5
3741
330
373F
100
AcDbEntity
  8
D
 62
     0
100
AcDbMText
 10
216.8496458598087
 20
-1.580665411011395
 30
0.0
 40
0.04
 41
0.0
 46
0.0
 71
     5
 72
     1
  1
\A1;0.191
 73
     1
 44
1.0
  0
POINT
  5
3742
330
373F
100
AcDbEntity
  8
Defpoints
 62
     0
100
AcDbPoint
 10
217.1842956006615
 20
-1.580665411011395
 30
0.0
  0
POINT
  5
3743
330
373F
100
AcDbEntity
  8
Defpoints
 62
     0
100
AcDbPoint
 10
216.948979193142
 20
-1.580665411011395
 30
0.0
  0
POINT
  5
3744
330
373F
100
AcDbEntity
  8
Defpoints
 62
     0
100
AcDbPoint
 10
217.0637956006614
 20
-1.390165411011395
 30
0.0
  0
ENDBLK
  5
3746
330
373F
100
AcDbEntity
  8
0
100
AcDbBlockEnd
  0
BLOCK
  5
374E
330
3748
100
AcDbEntity
  8
0
100
AcDbBlockBegin
  2
*D8
 70
     1
 10
0.0
 20
0.0
 30
0.0
  3
*D8
  1

  0
LINE
  5
3749
330
3748
100
AcDbEntity
  8
D
 62
     0
370
    -2
100
AcDbLine
 10
219.9657956006615
 20
-1.229665411011395
 30
0.0
 11
219.9657956006615
 21
-1.038860672372145
 31
0.0
  0
MTEXT
  5
374A
330
3748
100
AcDbEntity
  8
D
 62
     0
100
AcDbMText
 10
219.9657956006615
 20
-0.9261940057054431
 30
0.0
 40
0.04
 41
0.0
 46
0.0
 71
     5
 72
     1
  1
\A1;2.902
 11
0.0000000000000001
 21
1.0
 31
0.0
 73
     1
 44
1.0
  0
POINT
  5
374B
330
3748
100
AcDbEntity
  8
Defpoints
 62
     0
100
AcDbPoint
 10
219.9657956006615
 20
-1.269665411011395
 30
0.0
  0
POINT
  5
374C
330
3748
100
AcDbEntity
  8
Defpoints
 62
     0
100
AcDbPoint
 10
219.9657956006615
 20
-1.038860672372145
 30
0.0
  0
POINT
  5
374D
330
3748
100
AcDbEntity
  8
Defpoints
 62
     0
100
AcDbPoint
 10
217.0637956006614
 20
-1.390165411011395
 30
0.0
  0
ENDBLK
  5
374F
330
3748
100
AcDbEntity
  8
0
100
AcDbBlockEnd
  0
BLOCK
  5
3757
330
3751
100
AcDbEntity
  8
0
100
AcDbBlockBegin
  2
*D9
 70
     1
 10
0.0
 20
0.0
 30
0.0
  3
*D9
  1

  0
LINE
  5
3752
330
3751
100
AcDbEntity
  8
D
 62
     0
370
    -2
100
AcDbLine
 10
220.4377956006614
 20
-1.406665411011395
 30
0.0
 11
220.4377956006614
 21
-1.052473610396834
 31
0.0
  0
MTEXT
  5
3753
330
3751
100
AcDbEntity
  8
D
 62
     0
100
AcDbMText
 10
220.4377956006614
 20
-0.936473610396799
 30
0.0
 40
0.04
 41
0.0
 46
0.0
 71
     5
 72
     1
  1
\A1;3.374
 11
0.0000000000000001
 21
1.0
 31
0.0
 73
     1
 44
1.0
  0
POINT
  5
3754
330
3751
100
AcDbEntity
  8
Defpoints
 62
     0
100
AcDbPoint
 10
220.4377956006614
 20
-1.446665411011395
 30
0.0
  0
POINT
  5
3755
330
3751
100
AcDbEntity
  8
Defpoints
 62
     0
100
AcDbPoint
 10
220.4377956006614
 20
-1.052473610396834
 30
0.0
  0
POINT
  5
3756
330
3751
100
AcDbEntity
  8
Defpoints
 62
     0
100
AcDbPoint
 10
217.0637956006614
 20
-1.390165411011395
 30
0.0
  0
ENDBLK
  5
3758
330
3751
100
AcDbEntity
  8
0
100
AcDbBlockEnd
  0
BLOCK
  5
37CC
330
37C6
100
AcDbEntity
  8
0
100
AcDbBlockBegin
  2
*D10
 70
     1
 10
0.0
 20
0.0
 30
0.0
  3
*D10
  1

  0
LINE
  5
37C7
330
37C6
100
AcDbEntity
  8
D
 62
     0
370
    -2
100
AcDbLine
 10
220.1147956006614
 20
-1.620665411011393
 30
0.0
 11
220.1147956006614
 21
-1.945981963335508
 31
0.0
  0
MTEXT
  5
37C8
330
37C6
100
AcDbEntity
  8
D
 62
     0
100
AcDbMText
 10
220.1147956006614
 20
-2.051981963335473
 30
0.0
 40
0.04
 41
0.0
 46
0.0
 71
     5
 72
     1
  1
\A1;3.051
 11
0.0000000000000001
 21
1.0
 31
0.0
 73
     1
 44
1.0
  0
POINT
  5
37C9
330
37C6
100
AcDbEntity
  8
Defpoints
 62
     0
100
AcDbPoint
 10
220.1147956006614
 20
-1.580665411011393
 30
0.0
  0
POINT
  5
37CA
330
37C6
100
AcDbEntity
  8
Defpoints
 62
     0
100
AcDbPoint
 10
220.1147956006614
 20
-1.945981963335508
 30
0.0
  0
POINT
  5
37CB
330
37C6
100
AcDbEntity
  8
Defpoints
 62
     0
100
AcDbPoint
 10
217.0637956006614
 20
-1.390165411011395
 30
0.0
  0
ENDBLK
  5
37CD
330
37C6
100
AcDbEntity
  8
0
100
AcDbBlockEnd
  0
BLOCK
  5
37D7
330
37CF
100
AcDbEntity
  8
0
100
AcDbBlockBegin
  2
*D11
 70
     1
 10
0.0
 20
0.0
 30
0.0
  3
*D11
  1

  0
LINE
  5
37D0
330
37CF
100
AcDbEntity
  8
D
 62
     0
370
    -2
100
AcDbLine
 10
219.9257956006615
 20
-1.269665411011395
 30
0.0
 11
219.8697956006615
 21
-1.269665411011395
 31
0.0
  0
LINE
  5
37D1
330
37CF
100
AcDbEntity
  8
D
 62
     0
370
    -2
100
AcDbLine
 10
219.8697956006615
 20
-1.269665411011395
 30
0.0
 11
219.7949232167324
 21
-1.121952492160996
 31
0.0
  0
LINE
  5
37D2
330
37CF
100
AcDbEntity
  8
D
 62
     0
370
    -2
100
AcDbLine
 10
219.7949232167324
 20
-1.121952492160996
 30
0.0
 11
219.6989232167324
 21
-1.121952492160996
 31
0.0
  0
MTEXT
  5
37D3
330
37CF
100
AcDbEntity
  8
D
 62
     0
100
AcDbMText
 10
219.5995898833991
 20
-1.121952492160996
 30
0.0
 40
0.04
 41
0.0
 46
0.0
 71
     5
 72
     1
  1
\A1;0.121
 73
     1
 44
1.0
  0
POINT
  5
37D4
330
37CF
100
AcDbEntity
  8
Defpoints
 62
     0
100
AcDbPoint
 10
219.9657956006615
 20
-1.269665411011395
 30
0.0
  0
POINT
  5
37D5
330
37CF
100
AcDbEntity
  8
Defpoints
 62
     0
100
AcDbPoint
 10
219.6989232167324
 20
-1.121952492160996
 30
0.0
  0
POINT
  5
37D6
330
37CF
100
AcDbEntity
  8
Defpoints
 62
     0
100
AcDbPoint
 10
217.0637956006614
 20
-1.390165411011395
 30
0.0
  0
ENDBLK
  5
37D8
330
37CF
100
AcDbEntity
  8
0
100
AcDbBlockEnd
  0
BLOCK
  5
37E2
330
37DA
100
AcDbEntity
  8
0
100
AcDbBlockBegin
  2
*D12
 70
     1
 10
0.0
 20
0.0
 30
0.0
  3
*D12
  1

  0
LINE
  5
392F
330
37DA
100
AcDbEntity
  8
D
 62
     0
370
    -2
100
AcDbLine
 10
220.3977956006614
 20
-1.446665411011395
 30
0.0
 11
220.2899854523479
 21
-1.446665411011395
 31
0.0
  0
LINE
  5
3930
330
37DA
100
AcDbEntity
  8
D
 62
     0
370
    -2
100
AcDbLine
 10
220.2899854523479
 20
-1.446665411011395
 30
0.0
 11
220.1939854523479
 21
-1.390047997314827
 31
0.0
  0
LINE
  5
3931
330
37DA
100
AcDbEntity
  8
D
 62
     0
370
    -2
100
AcDbLine
 10
220.1939854523479
 20
-1.390047997314827
 30
0.0
 11
220.0979854523479
 21
-1.390047997314827
 31
0.0
  0
MTEXT
  5
3932
330
37DA
100
AcDbEntity
  8
D
 62
     0
100
AcDbMText
 10
219.9886521190146
 20
-1.390047997314827
 30
0.0
 40
0.04
 41
0.0
 46
0.0
 71
     5
 72
     1
  1
\A1;0.057
 73
     1
 44
1.0
  0
POINT
  5
3933
330
37DA
100
AcDbEntity
  8
Defpoints
 62
     0
100
AcDbPoint
 10
220.4377956006614
 20
-1.446665411011395
 30
0.0
  0
POINT
  5
3934
330
37DA
100
AcDbEntity
  8
Defpoints
 62
     0
100
AcDbPoint
 10
220.0979854523479
 20
-1.390047997314827
 30
0.0
  0
POINT
  5
3935
330
37DA
100
AcDbEntity
  8
Defpoints
 62
     0
100
AcDbPoint
 10
217.0637956006614
 20
-1.390165411011395
 30
0.0
  0
ENDBLK
  5
37E3
330
37DA
100
AcDbEntity
  8
0
100
AcDbBlockEnd
  0
BLOCK
  5
37F8
330
37F0
100
AcDbEntity
  8
0
100
AcDbBlockBegin
  2
*D13
 70
     1
 10
0.0
 20
0.0
 30
0.0
  3
*D13
  1

  0
LINE
  5
37F1
330
37F0
100
AcDbEntity
  8
D
 62
     0
370
    -2
100
AcDbLine
 10
220.0747956006614
 20
-1.580665411011393
 30
0.0
 11
219.9751932832173
 21
-1.580665411011393
 31
0.0
  0
LINE
  5
37F2
330
37F0
100
AcDbEntity
  8
D
 62
     0
370
    -2
100
AcDbLine
 10
219.9751932832173
 20
-1.580665411011393
 30
0.0
 11
219.8791932832173
 21
-1.69846195191566
 31
0.0
  0
LINE
  5
37F3
330
37F0
100
AcDbEntity
  8
D
 62
     0
370
    -2
100
AcDbLine
 10
219.8791932832173
 20
-1.69846195191566
 30
0.0
 11
219.7831932832173
 21
-1.69846195191566
 31
0.0
  0
MTEXT
  5
37F4
330
37F0
100
AcDbEntity
  8
D
 62
     0
100
AcDbMText
 10
219.6838599498839
 20
-1.69846195191566
 30
0.0
 40
0.04
 41
0.0
 46
0.0
 71
     5
 72
     1
  1
\A1;0.191
 73
     1
 44
1.0
  0
POINT
  5
37F5
330
37F0
100
AcDbEntity
  8
Defpoints
 62
     0
100
AcDbPoint
 10
220.1147956006614
 20
-1.580665411011393
 30
0.0
  0
POINT
  5
37F6
330
37F0
100
AcDbEntity
  8
Defpoints
 62
     0
100
AcDbPoint
 10
219.7831932832173
 20
-1.69846195191566
 30
0.0
  0
POINT
  5
37F7
330
37F0
100
AcDbEntity
  8
Defpoints
 62
     0
100
AcDbPoint
 10
217.0637956006614
 20
-1.390165411011395
 30
0.0
  0
ENDBLK
  5
37F9
330
37F0
100
AcDbEntity
  8
0
100
AcDbBlockEnd
  0
BLOCK
  5
383F
330
3839
100
AcDbEntity
  8
0
100
AcDbBlockBegin
  2
*D14
 70
     1
 10
0.0
 20
0.0
 30
0.0
  3
*D14
  1

  0
LINE
  5
383A
330
3839
100
AcDbEntity
  8
D
 62
     0
370
    -2
100
AcDbLine
 10
216.9554574720153
 20
-1.154919690708624
 30
0.0
 11
217.0668043721408
 21
-1.269384364399371
 31
0.0
  0
MTEXT
  5
383B
330
3839
100
AcDbEntity
  8
D
 62
     0
100
AcDbMText
 10
216.8722490450907
 20
-1.069381382722255
 30
0.0
 40
0.04
 41
0.0
 46
0.0
 71
     5
 72
     1
  1
\A1;R0.121
 11
0.6972773205978074
 21
-0.7168014635726845
 31
0.0
 73
     1
 44
1.0
  0
SOLID
  5
383C
330
3839
100
AcDbEntity
  8
D
 62
     0
100
AcDbTrace
 10
217.0725387838494
 20
-1.263806145834578
 30
0.0
 11
217.0610699604322
 21
-1.27496258296415
 31
0.0
 12
217.1002736835295
 22
-1.303790834650868
 32
0.0
 13
217.1002736835295
 23
-1.303790834650868
 33
0.0
  0
POINT
  5
383D
330
3839
100
AcDbEntity
  8
Defpoints
 62
     0
100
AcDbPoint
 10
217.1002736835295
 20
-1.303790834650868
 30
0.0
  0
POINT
  5
383E
330
3839
100
AcDbEntity
  8
Defpoints
 62
     0
100
AcDbPoint
 10
217.1842956006615
 20
-1.390165411011338
 30
0.0
  0
ENDBLK
  5
3840
330
3839
100
AcDbEntity
  8
0
100
AcDbBlockEnd
  0
BLOCK
  5
3848
330
3842
100
AcDbEntity
  8
0
100
AcDbBlockBegin
  2
*D15
 70
     1
 10
0.0
 20
0.0
 30
0.0
  3
*D15
  1

  0
LINE
  5
3843
330
3842
100
AcDbEntity
  8
D
 62
     0
370
    -2
100
AcDbLine
 10
217.0179829691504
 20
-1.598774063698954
 30
0.0
 11
217.0548559775223
 21
-1.568043276959912
 31
0.0
  0
MTEXT
  5
3844
330
3842
100
AcDbEntity
  8
D
 62
     0
100
AcDbMText
 10
216.9263125733368
 20
-1.675174214064099
 30
0.0
 40
0.04
 41
0.0
 46
0.0
 71
     5
 72
     1
  1
\A1;R0.121
 11
0.7681876744157849
 21
0.6402247237304009
 31
0.0
 73
     1
 44
1.0
  0
SOLID
  5
3845
330
3842
100
AcDbEntity
  8
D
 62
     0
100
AcDbTrace
 10
217.0497341797325
 20
-1.561897775564574
 30
0.0
 11
217.0599777753122
 21
-1.574188778355249
 31
0.0
 12
217.0917289858943
 22
-1.537312490220855
 32
0.0
 13
217.0917289858943
 23
-1.537312490220855
 33
0.0
  0
POINT
  5
3846
330
3842
100
AcDbEntity
  8
Defpoints
 62
     0
100
AcDbPoint
 10
217.0917289858943
 20
-1.537312490220855
 30
0.0
  0
POINT
  5
3847
330
3842
100
AcDbEntity
  8
Defpoints
 62
     0
100
AcDbPoint
 10
217.1842956006612
 20
-1.460165411011473
 30
0.0
  0
ENDBLK
  5
3849
330
3842
100
AcDbEntity
  8
0
100
AcDbBlockEnd
  0
BLOCK
  5
3851
330
384B
100
AcDbEntity
  8
0
100
AcDbBlockBegin
  2
*D16
 70
     1
 10
0.0
 20
0.0
 30
0.0
  3
*D16
  1

  0
LINE
  5
384C
330
384B
100
AcDbEntity
  8
D
 62
     0
370
    -2
100
AcDbLine
 10
220.2668727620676
 20
-0.8589875624174325
 30
0.0
 11
220.1587618720392
 21
-1.251785734873891
 31
0.0
  0
MTEXT
  5
384D
330
384B
100
AcDbEntity
  8
D
 62
     0
100
AcDbMText
 10
220.3003087563071
 20
-0.7375049122601923
 30
0.0
 40
0.04
 41
0.0
 46
0.0
 71
     5
 72
     1
  1
\A1;R0.814
 11
0.2653650336461477
 21
0.9641480171208044
 31
0.0
 73
     1
 44
1.0
  0
SOLID
  5
384E
330
384B
100
AcDbEntity
  8
D
 62
     0
100
AcDbTrace
 10
220.1510486879022
 20
-1.249662814604718
 30
0.0
 11
220.1664750561762
 21
-1.253908655143064
 31
0.0
 12
220.1460243504242
 22
-1.29806483969569
 32
0.0
 13
220.1460243504242
 23
-1.29806483969569
 33
0.0
  0
POINT
  5
384F
330
384B
100
AcDbEntity
  8
Defpoints
 62
     0
100
AcDbPoint
 10
220.1460243504242
 20
-1.29806483969569
 30
0.0
  0
POINT
  5
3850
330
384B
100
AcDbEntity
  8
Defpoints
 62
     0
100
AcDbPoint
 10
219.9299898472671
 20
-2.082980753396299
 30
0.0
  0
ENDBLK
  5
3852
330
384B
100
AcDbEntity
  8
0
100
AcDbBlockEnd
  0
BLOCK
  5
387A
330
386F
100
AcDbEntity
  8
0
100
AcDbBlockBegin
  2
*D17
 70
     1
 10
0.0
 20
0.0
 30
0.0
  3
*D17
  1

  0
LINE
  5
387C
330
386F
100
AcDbEntity
  8
D
 62
     0
370
    -2
100
AcDbLine
 10
218.8750720790071
 20
-1.580665411011395
 30
0.0
 11
219.0085075988794
 21
-1.580665411011395
 31
0.0
  0
LINE
  5
387D
330
386F
100
AcDbEntity
  8
D
 62
     0
370
    -2
100
AcDbLine
 10
218.8750720790071
 20
-1.269665411011395
 30
0.0
 11
219.0085075988794
 21
-1.269665411011395
 31
0.0
  0
LINE
  5
387E
330
386F
100
AcDbEntity
  8
D
 62
     0
370
    -2
100
AcDbLine
 10
218.9605075988794
 20
-1.532665411011395
 30
0.0
 11
218.9605075988794
 21
-1.317665411011395
 31
0.0
  0
LINE
  5
387F
330
386F
100
AcDbEntity
  8
D
 62
     0
370
    -2
100
AcDbLine
 10
218.9605075988794
 20
-1.269665411011395
 30
0.0
 11
218.9605075988794
 21
-1.221665411011395
 31
0.0
  0
SOLID
  5
3880
330
386F
100
AcDbEntity
  8
D
 62
     0
100
AcDbTrace
 10
218.9525075988794
 20
-1.532665411011395
 30
0.0
 11
218.9685075988794
 21
-1.532665411011395
 31
0.0
 12
218.9605075988794
 22
-1.580665411011395
 32
0.0
 13
218.9605075988794
 23
-1.580665411011395
 33
0.0
  0
SOLID
  5
3881
330
386F
100
AcDbEntity
  8
D
 62
     0
100
AcDbTrace
 10
218.9525075988794
 20
-1.317665411011395
 30
0.0
 11
218.9685075988794
 21
-1.317665411011395
 31
0.0
 12
218.9605075988794
 22
-1.269665411011395
 32
0.0
 13
218.9605075988794
 23
-1.269665411011395
 33
0.0
  0
MTEXT
  5
3882
330
386F
100
AcDbEntity
  8
D
 62
     0
100
AcDbMText
 10
218.9605075988794
 20
-1.042332077678026
 30
0.0
 40
0.04
 41
0.0
 46
0.0
 71
     5
 72
     1
  1
\A1;0.311 REF
 11
0.0000000000000001
 21
1.0
 31
0.0
 73
     1
 44
1.0
  0
POINT
  5
3883
330
386F
100
AcDbEntity
  8
Defpoints
 62
     0
100
AcDbPoint
 10
218.8350720790071
 20
-1.580665411011395
 30
0.0
  0
POINT
  5
3884
330
386F
100
AcDbEntity
  8
Defpoints
 62
     0
100
AcDbPoint
 10
218.8350720790071
 20
-1.269665411011395
 30
0.0
  0
POINT
  5
3885
330
386F
100
AcDbEntity
  8
Defpoints
 62
     0
100
AcDbPoint
 10
218.9605075988794
 20
-1.269665411011395
 30
0.0
  0
ENDBLK
  5
387B
330
386F
100
AcDbEntity
  8
0
100
AcDbBlockEnd
  0
BLOCK
  5
393F
330
3937
100
AcDbEntity
  8
0
100
AcDbBlockBegin
  2
*D18
 70
     1
 10
0.0
 20
0.0
 30
0.0
  3
*D18
  1

  0
LINE
  5
3938
330
3937
100
AcDbEntity
  8
D
 62
     0
370
    -2
100
AcDbLine
 10
220.2050037961544
 20
-1.53802522478378
 30
0.0
 11
220.1490037961544
 21
-1.53802522478378
 31
0.0
  0
LINE
  5
3939
330
3937
100
AcDbEntity
  8
D
 62
     0
370
    -2
100
AcDbLine
 10
220.1490037961544
 20
-1.53802522478378
 30
0.0
 11
220.1213526276096
 21
-1.47684521859016
 31
0.0
  0
LINE
  5
393A
330
3937
100
AcDbEntity
  8
D
 62
     0
370
    -2
100
AcDbLine
 10
220.1213526276096
 20
-1.47684521859016
 30
0.0
 11
220.0253526276096
 21
-1.47684521859016
 31
0.0
  0
MTEXT
  5
393B
330
3937
100
AcDbEntity
  8
D
 62
     0
100
AcDbMText
 10
219.9193526276096
 20
-1.47684521859016
 30
0.0
 40
0.04
 41
0.0
 46
0.0
 71
     5
 72
     1
  1
\A1;0.148
 73
     1
 44
1.0
  0
POINT
  5
393C
330
3937
100
AcDbEntity
  8
Defpoints
 62
     0
100
AcDbPoint
 10
220.2450037961544
 20
-1.53802522478378
 30
0.0
  0
POINT
  5
393D
330
3937
100
AcDbEntity
  8
Defpoints
 62
     0
100
AcDbPoint
 10
220.0253526276096
 20
-1.47684521859016
 30
0.0
  0
POINT
  5
393E
330
3937
100
AcDbEntity
  8
Defpoints
 62
     0
100
AcDbPoint
 10
217.0637956006614
 20
-1.390165411011395
 30
0.0
  0
ENDBLK
  5
3940
330
3937
100
AcDbEntity
  8
0
100
AcDbBlockEnd
  0
BLOCK
  5
3948
330
3942
100
AcDbEntity
  8
0
100
AcDbBlockBegin
  2
*D19
 70
     1
 10
0.0
 20
0.0
 30
0.0
  3
*D19
  1

  0
LINE
  5
3943
330
3942
100
AcDbEntity
  8
D
 62
     0
370
    -2
100
AcDbLine
 10
220.1609590199456
 20
-1.67416368157508
 30
0.0
 11
220.1545753495651
 21
-1.626590067538799
 31
0.0
  0
MTEXT
  5
3944
330
3942
100
AcDbEntity
  8
D
 62
     0
100
AcDbMText
 10
220.1777161546945
 20
-1.799044418420344
 30
0.0
 40
0.04
 41
0.0
 46
0.0
 71
     5
 72
     1
  1
\A1;R0.199
 11
0.1329931329271895
 21
-0.9911169590891939
 31
0.0
 73
     1
 44
1.0
  0
SOLID
  5
3945
330
3942
100
AcDbEntity
  8
D
 62
     0
100
AcDbTrace
 10
220.1625042852378
 20
-1.625526122475381
 30
0.0
 11
220.1466464138924
 21
-1.627654012602217
 31
0.0
 12
220.1481916791846
 22
-1.579016453502518
 32
0.0
 13
220.1481916791846
 23
-1.579016453502518
 33
0.0
  0
POINT
  5
3946
330
3942
100
AcDbEntity
  8
Defpoints
 62
     0
100
AcDbPoint
 10
220.1481916791846
 20
-1.579016453502518
 30
0.0
  0
POINT
  5
3947
330
3942
100
AcDbEntity
  8
Defpoints
 62
     0
100
AcDbPoint
 10
220.1217076716808
 20
-1.38164724801128
 30
0.0
  0
ENDBLK
  5
3949
330
3942
100
AcDbEntity
  8
0
100
AcDbBlockEnd
  0
BLOCK
  5
3953
330
394B
100
AcDbEntity
  8
0
100
AcDbBlockBegin
  2
*D20
 70
     1
 10
0.0
 20
0.0
 30
0.0
  3
*D20
  1

  0
LINE
  5
394C
330
394B
100
AcDbEntity
  8
D
 62
     0
370
    -2
100
AcDbLine
 10
220.2450037961544
 20
-1.57802522478378
 30
0.0
 11
220.2450037961544
 21
-1.63402522478378
 31
0.0
  0
LINE
  5
394D
330
394B
100
AcDbEntity
  8
D
 62
     0
370
    -2
100
AcDbLine
 10
220.2450037961544
 20
-1.63402522478378
 30
0.0
 11
220.2906576817928
 21
-1.678770815940627
 31
0.0
  0
LINE
  5
394E
330
394B
100
AcDbEntity
  8
D
 62
     0
370
    -2
100
AcDbLine
 10
220.2906576817928
 20
-1.678770815940627
 30
0.0
 11
220.2906576817928
 21
-1.774770815940627
 31
0.0
  0
MTEXT
  5
394F
330
394B
100
AcDbEntity
  8
D
 62
     0
100
AcDbMText
 10
220.2906576817928
 20
-1.877437482607258
 30
0.0
 40
0.04
 41
0.0
 46
0.0
 71
     5
 72
     1
  1
\A1;3.181
 11
0.0000000000000001
 21
1.0
 31
0.0
 73
     1
 44
1.0
  0
POINT
  5
3950
330
394B
100
AcDbEntity
  8
Defpoints
 62
     0
100
AcDbPoint
 10
220.2450037961544
 20
-1.53802522478378
 30
0.0
  0
POINT
  5
3951
330
394B
100
AcDbEntity
  8
Defpoints
 62
     0
100
AcDbPoint
 10
220.2906576817928
 20
-1.774770815940627
 30
0.0
  0
POINT
  5
3952
330
394B
100
AcDbEntity
  8
Defpoints
 62
     0
100
AcDbPoint
 10
217.0637956006614
 20
-1.390165411011395
 30
0.0
  0
ENDBLK
  5
3954
330
394B
100
AcDbEntity
  8
0
100
AcDbBlockEnd
  0
BLOCK
  5
395E
330
3958
100
AcDbEntity
  8
0
100
AcDbBlockBegin
  2
*D21
 70
     1
 10
0.0
 20
0.0
 30
0.0
  3
*D21
  1

  0
LINE
  5
3959
330
3958
100
AcDbEntity
  8
D
 62
     0
370
    -2
100
AcDbLine
 10
220.4865955792578
 20
-1.592665411011401
 30
0.0
 11
220.4865955792578
 21
-1.748966236642555
 31
0.0
  0
MTEXT
  5
395A
330
3958
100
AcDbEntity
  8
D
 62
     0
100
AcDbMText
 10
220.4865955792578
 20
-1.86496623664252
 30
0.0
 40
0.04
 41
0.0
 46
0.0
 71
     5
 72
     1
  1
\A1;3.423
 11
0.0000000000000001
 21
1.0
 31
0.0
 73
     1
 44
1.0
  0
POINT
  5
395B
330
3958
100
AcDbEntity
  8
Defpoints
 62
     0
100
AcDbPoint
 10
220.4865955792578
 20
-1.552665411011401
 30
0.0
  0
POINT
  5
395C
330
3958
100
AcDbEntity
  8
Defpoints
 62
     0
100
AcDbPoint
 10
220.4865955792578
 20
-1.748966236642555
 30
0.0
  0
POINT
  5
395D
330
3958
100
AcDbEntity
  8
Defpoints
 62
     0
100
AcDbPoint
 10
217.0637956006614
 20
-1.390165411011395
 30
0.0
  0
ENDBLK
  5
395F
330
3958
100
AcDbEntity
  8
0
100
AcDbBlockEnd
  0
BLOCK
  5
3969
330
3961
100
AcDbEntity
  8
0
100
AcDbBlockBegin
  2
*D22
 70
     1
 10
0.0
 20
0.0
 30
0.0
  3
*D22
  1

  0
LINE
  5
3962
330
3961
100
AcDbEntity
  8
D
 62
     0
370
    -2
100
AcDbLine
 10
220.5265955792578
 20
-1.552665411011401
 30
0.0
 11
220.5825955792578
 21
-1.552665411011401
 31
0.0
  0
LINE
  5
3963
330
3961
100
AcDbEntity
  8
D
 62
     0
370
    -2
100
AcDbLine
 10
220.5825955792578
 20
-1.552665411011401
 30
0.0
 11
220.5914413366074
 21
-1.718469915653923
 31
0.0
  0
LINE
  5
3964
330
3961
100
AcDbEntity
  8
D
 62
     0
370
    -2
100
AcDbLine
 10
220.5914413366074
 20
-1.718469915653923
 30
0.0
 11
220.6874413366074
 21
-1.718469915653923
 31
0.0
  0
MTEXT
  5
3965
330
3961
100
AcDbEntity
  8
D
 62
     0
100
AcDbMText
 10
220.7934413366074
 20
-1.718469915653923
 30
0.0
 40
0.04
 41
0.0
 46
0.0
 71
     5
 72
     1
  1
\A1;0.163
 73
     1
 44
1.0
  0
POINT
  5
3966
330
3961
100
AcDbEntity
  8
Defpoints
 62
     0
100
AcDbPoint
 10
220.4865955792578
 20
-1.552665411011401
 30
0.0
  0
POINT
  5
3967
330
3961
100
AcDbEntity
  8
Defpoints
 62
     0
100
AcDbPoint
 10
220.6874413366074
 20
-1.718469915653923
 30
0.0
  0
POINT
  5
3968
330
3961
100
AcDbEntity
  8
Defpoints
 62
     0
100
AcDbPoint
 10
217.0637956006614
 20
-1.390165411011395
 30
0.0
  0
ENDBLK
  5
396A
330
3961
100
AcDbEntity
  8
0
100
AcDbBlockEnd
  0
BLOCK
  5
3974
330
396E
100
AcDbEntity
  8
0
100
AcDbBlockBegin
  2
*D23
 70
     1
 10
0.0
 20
0.0
 30
0.0
  3
*D23
  1

  0
LINE
  5
398C
330
396E
100
AcDbEntity
  8
D
 62
     0
370
    -2
100
AcDbLine
 10
221.5277955792578
 20
-1.457665411011402
 30
0.0
 11
221.5277955792578
 21
-1.401665411011402
 31
0.0
  0
LINE
  5
398D
330
396E
100
AcDbEntity
  8
D
 62
     0
370
    -2
100
AcDbLine
 10
221.5277955792578
 20
-1.401665411011402
 30
0.0
 11
221.4294939978212
 21
-1.336544781135711
 31
0.0
  0
LINE
  5
398E
330
396E
100
AcDbEntity
  8
D
 62
     0
370
    -2
100
AcDbLine
 10
221.4294939978212
 20
-1.336544781135711
 30
0.0
 11
221.4294939978212
 21
-1.240544781135711
 31
0.0
  0
MTEXT
  5
398F
330
396E
100
AcDbEntity
  8
D
 62
     0
100
AcDbMText
 10
221.4294939978212
 20
-1.124544781135675
 30
0.0
 40
0.04
 41
0.0
 46
0.0
 71
     5
 72
     1
  1
\A1;4.464
 11
0.0000000000000001
 21
1.0
 31
0.0
 73
     1
 44
1.0
  0
POINT
  5
3990
330
396E
100
AcDbEntity
  8
Defpoints
 62
     0
100
AcDbPoint
 10
221.5277955792578
 20
-1.497665411011402
 30
0.0
  0
POINT
  5
3991
330
396E
100
AcDbEntity
  8
Defpoints
 62
     0
100
AcDbPoint
 10
221.4294939978212
 20
-1.240544781135711
 30
0.0
  0
POINT
  5
3992
330
396E
100
AcDbEntity
  8
Defpoints
 62
     0
100
AcDbPoint
 10
217.0637956006614
 20
-1.390165411011395
 30
0.0
  0
ENDBLK
  5
3975
330
396E
100
AcDbEntity
  8
0
100
AcDbBlockEnd
  0
BLOCK
  5
397F
330
3977
100
AcDbEntity
  8
0
100
AcDbBlockBegin
  2
*D24
 70
     1
 10
0.0
 20
0.0
 30
0.0
  3
*D24
  1

  0
LINE
  5
3978
330
3977
100
AcDbEntity
  8
D
 62
     0
370
    -2
100
AcDbLine
 10
221.4877955792578
 20
-1.497665411011402
 30
0.0
 11
221.4317955792578
 21
-1.497665411011402
 31
0.0
  0
LINE
  5
3979
330
3977
100
AcDbEntity
  8
D
 62
     0
370
    -2
100
AcDbLine
 10
221.4317955792578
 20
-1.497665411011402
 30
0.0
 11
221.4034067313441
 21
-1.361477736508881
 31
0.0
  0
LINE
  5
397A
330
3977
100
AcDbEntity
  8
D
 62
     0
370
    -2
100
AcDbLine
 10
221.4034067313441
 20
-1.361477736508881
 30
0.0
 11
221.3074067313441
 21
-1.361477736508881
 31
0.0
  0
MTEXT
  5
397B
330
3977
100
AcDbEntity
  8
D
 62
     0
100
AcDbMText
 10
221.2047400646774
 20
-1.361477736508881
 30
0.0
 40
0.04
 41
0.0
 46
0.0
 71
     5
 72
     1
  1
\A1;0.108
 73
     1
 44
1.0
  0
POINT
  5
397C
330
3977
100
AcDbEntity
  8
Defpoints
 62
     0
100
AcDbPoint
 10
221.5277955792578
 20
-1.497665411011402
 30
0.0
  0
POINT
  5
397D
330
3977
100
AcDbEntity
  8
Defpoints
 62
     0
100
AcDbPoint
 10
221.3074067313441
 20
-1.361477736508881
 30
0.0
  0
POINT
  5
397E
330
3977
100
AcDbEntity
  8
Defpoints
 62
     0
100
AcDbPoint
 10
217.0637956006614
 20
-1.390165411011395
 30
0.0
  0
ENDBLK
  5
3980
330
3977
100
AcDbEntity
  8
0
100
AcDbBlockEnd
  0
BLOCK
  5
398A
330
3982
100
AcDbEntity
  8
0
100
AcDbBlockBegin
  2
*D25
 70
     1
 10
0.0
 20
0.0
 30
0.0
  3
*D25
  1

  0
LINE
  5
3983
330
3982
100
AcDbEntity
  8
D
 62
     0
370
    -2
100
AcDbLine
 10
221.7127955792578
 20
-1.343665411011401
 30
0.0
 11
221.7127955792578
 21
-1.287665411011401
 31
0.0
  0
LINE
  5
3984
330
3982
100
AcDbEntity
  8
D
 62
     0
370
    -2
100
AcDbLine
 10
221.7127955792578
 20
-1.287665411011401
 30
0.0
 11
221.7065382003153
 21
-1.24165761874319
 31
0.0
  0
LINE
  5
3985
330
3982
100
AcDbEntity
  8
D
 62
     0
370
    -2
100
AcDbLine
 10
221.7065382003153
 20
-1.24165761874319
 30
0.0
 11
221.7065382003153
 21
-1.145657618743189
 31
0.0
  0
MTEXT
  5
3986
330
3982
100
AcDbEntity
  8
D
 62
     0
100
AcDbMText
 10
221.7065382003153
 20
-1.029657618743154
 30
0.0
 40
0.04
 41
0.0
 46
0.0
 71
     5
 72
     1
  1
\A1;4.649
 11
0.0000000000000001
 21
1.0
 31
0.0
 73
     1
 44
1.0
  0
POINT
  5
3987
330
3982
100
AcDbEntity
  8
Defpoints
 62
     0
100
AcDbPoint
 10
221.7127955792578
 20
-1.383665411011401
 30
0.0
  0
POINT
  5
3988
330
3982
100
AcDbEntity
  8
Defpoints
 62
     0
100
AcDbPoint
 10
221.7065382003153
 20
-1.145657618743189
 30
0.0
  0
POINT
  5
3989
330
3982
100
AcDbEntity
  8
Defpoints
 62
     0
100
AcDbPoint
 10
217.0637956006614
 20
-1.390165411011395
 30
0.0
  0
ENDBLK
  5
398B
330
3982
100
AcDbEntity
  8
0
100
AcDbBlockEnd
  0
BLOCK
  5
399C
330
3994
100
AcDbEntity
  8
0
100
AcDbBlockBegin
  2
*D26
 70
     1
 10
0.0
 20
0.0
 30
0.0
  3
*D26
  1

  0
LINE
  5
3995
330
3994
100
AcDbEntity
  8
D
 62
     0
370
    -2
100
AcDbLine
 10
221.7527955792578
 20
-1.383665411011401
 30
0.0
 11
221.8087955792578
 21
-1.383665411011401
 31
0.0
  0
LINE
  5
3996
330
3994
100
AcDbEntity
  8
D
 62
     0
370
    -2
100
AcDbLine
 10
221.8087955792578
 20
-1.383665411011401
 30
0.0
 11
221.8828867357323
 21
-1.157386972969586
 31
0.0
  0
LINE
  5
3997
330
3994
100
AcDbEntity
  8
D
 62
     0
370
    -2
100
AcDbLine
 10
221.8828867357323
 20
-1.157386972969586
 30
0.0
 11
221.9788867357323
 21
-1.157386972969586
 31
0.0
  0
MTEXT
  5
3998
330
3994
100
AcDbEntity
  8
D
 62
     0
100
AcDbMText
 10
222.0848867357323
 20
-1.157386972969586
 30
0.0
 40
0.04
 41
0.0
 46
0.0
 71
     5
 72
     1
  1
\A1;0.007
 73
     1
 44
1.0
  0
POINT
  5
3999
330
3994
100
AcDbEntity
  8
Defpoints
 62
     0
100
AcDbPoint
 10
221.7127955792578
 20
-1.383665411011401
 30
0.0
  0
POINT
  5
399A
330
3994
100
AcDbEntity
  8
Defpoints
 62
     0
100
AcDbPoint
 10
221.9788867357323
 20
-1.157386972969586
 30
0.0
  0
POINT
  5
399B
330
3994
100
AcDbEntity
  8
Defpoints
 62
     0
100
AcDbPoint
 10
217.0637956006614
 20
-1.390165411011395
 30
0.0
  0
ENDBLK
  5
399D
330
3994
100
AcDbEntity
  8
0
100
AcDbBlockEnd
  0
BLOCK
  5
39A5
330
399F
100
AcDbEntity
  8
0
100
AcDbBlockBegin
  2
*D27
 70
     1
 10
0.0
 20
0.0
 30
0.0
  3
*D27
  1

  0
LINE
  5
39A0
330
399F
100
AcDbEntity
  8
D
 62
     0
370
    -2
100
AcDbLine
 10
221.7767955792578
 20
-1.447665411011401
 30
0.0
 11
221.7767955792578
 21
-1.661749204704623
 31
0.0
  0
MTEXT
  5
39A1
330
399F
100
AcDbEntity
  8
D
 62
     0
100
AcDbMText
 10
221.7767955792578
 20
-1.77108253803792
 30
0.0
 40
0.04
 41
0.0
 46
0.0
 71
     5
 72
     1
  1
\A1;4.713
 11
0.0000000000000001
 21
1.0
 31
0.0
 73
     1
 44
1.0
  0
POINT
  5
39A2
330
399F
100
AcDbEntity
  8
Defpoints
 62
     0
100
AcDbPoint
 10
221.7767955792578
 20
-1.407665411011401
 30
0.0
  0
POINT
  5
39A3
330
399F
100
AcDbEntity
  8
Defpoints
 62
     0
100
AcDbPoint
 10
221.7767955792578
 20
-1.661749204704623
 30
0.0
  0
POINT
  5
39A4
330
399F
100
AcDbEntity
  8
Defpoints
 62
     0
100
AcDbPoint
 10
217.0637956006614
 20
-1.390165411011395
 30
0.0
  0
ENDBLK
  5
39A6
330
399F
100
AcDbEntity
  8
0
100
AcDbBlockEnd
  0
BLOCK
  5
39B0
330
39A8
100
AcDbEntity
  8
0
100
AcDbBlockBegin
  2
*D28
 70
     1
 10
0.0
 20
0.0
 30
0.0
  3
*D28
  1

  0
LINE
  5
39A9
330
39A8
100
AcDbEntity
  8
D
 62
     0
370
    -2
100
AcDbLine
 10
221.8167955792578
 20
-1.407665411011401
 30
0.0
 11
221.8727955792578
 21
-1.407665411011401
 31
0.0
  0
LINE
  5
39AA
330
39A8
100
AcDbEntity
  8
D
 62
     0
370
    -2
100
AcDbLine
 10
221.8727955792578
 20
-1.407665411011401
 30
0.0
 11
221.9016694040407
 21
-1.600756562727365
 31
0.0
  0
LINE
  5
39AB
330
39A8
100
AcDbEntity
  8
D
 62
     0
370
    -2
100
AcDbLine
 10
221.9016694040407
 20
-1.600756562727365
 30
0.0
 11
221.9976694040407
 21
-1.600756562727365
 31
0.0
  0
MTEXT
  5
39AC
330
39A8
100
AcDbEntity
  8
D
 62
     0
100
AcDbMText
 10
222.1003360707074
 20
-1.600756562727365
 30
0.0
 40
0.04
 41
0.0
 46
0.0
 71
     5
 72
     1
  1
\A1;0.018
 73
     1
 44
1.0
  0
POINT
  5
39AD
330
39A8
100
AcDbEntity
  8
Defpoints
 62
     0
100
AcDbPoint
 10
221.7767955792578
 20
-1.407665411011401
 30
0.0
  0
POINT
  5
39AE
330
39A8
100
AcDbEntity
  8
Defpoints
 62
     0
100
AcDbPoint
 10
221.9976694040407
 20
-1.600756562727365
 30
0.0
  0
POINT
  5
39AF
330
39A8
100
AcDbEntity
  8
Defpoints
 62
     0
100
AcDbPoint
 10
217.0637956006614
 20
-1.390165411011395
 30
0.0
  0
ENDBLK
  5
39B1
330
39A8
100
AcDbEntity
  8
0
100
AcDbBlockEnd
  0
BLOCK
  5
39BB
330
39B3
100
AcDbEntity
  8
0
100
AcDbBlockBegin
  2
*D29
 70
     1
 10
0.0
 20
0.0
 30
0.0
  3
*D29
  1

  0
LINE
  5
39B4
330
39B3
100
AcDbEntity
  8
D
 62
     0
370
    -2
100
AcDbLine
 10
221.4877955792578
 20
-1.552665411011392
 30
0.0
 11
221.4317955792578
 21
-1.552665411011392
 31
0.0
  0
LINE
  5
39B5
330
39B3
100
AcDbEntity
  8
D
 62
     0
370
    -2
100
AcDbLine
 10
221.4317955792578
 20
-1.552665411011392
 30
0.0
 11
221.4151458796549
 21
-1.659403333859344
 31
0.0
  0
LINE
  5
39B6
330
39B3
100
AcDbEntity
  8
D
 62
     0
370
    -2
100
AcDbLine
 10
221.4151458796549
 20
-1.659403333859344
 30
0.0
 11
221.3191458796549
 21
-1.659403333859344
 31
0.0
  0
MTEXT
  5
39B7
330
39B3
100
AcDbEntity
  8
D
 62
     0
100
AcDbMText
 10
221.2131458796549
 20
-1.659403333859344
 30
0.0
 40
0.04
 41
0.0
 46
0.0
 71
     5
 72
     1
  1
\A1;0.163
 73
     1
 44
1.0
  0
POINT
  5
39B8
330
39B3
100
AcDbEntity
  8
Defpoints
 62
     0
100
AcDbPoint
 10
221.5277955792578
 20
-1.552665411011392
 30
0.0
  0
POINT
  5
39B9
330
39B3
100
AcDbEntity
  8
Defpoints
 62
     0
100
AcDbPoint
 10
221.3191458796549
 20
-1.659403333859344
 30
0.0
  0
POINT
  5
39BA
330
39B3
100
AcDbEntity
  8
Defpoints
 62
     0
100
AcDbPoint
 10
217.0637956006614
 20
-1.390165411011395
 30
0.0
  0
ENDBLK
  5
39BC
330
39B3
100
AcDbEntity
  8
0
100
AcDbBlockEnd
  0
BLOCK
  5
39C4
330
39BE
100
AcDbEntity
  8
0
100
AcDbBlockBegin
  2
*D30
 70
     1
 10
0.0
 20
0.0
 30
0.0
  3
*D30
  1

  0
LINE
  5
39BF
330
39BE
100
AcDbEntity
  8
D
 62
     0
370
    -2
100
AcDbLine
 10
221.5277955792578
 20
-1.592665411011392
 30
0.0
 11
221.5277955792578
 21
-1.711012492455488
 31
0.0
  0
MTEXT
  5
39C0
330
39BE
100
AcDbEntity
  8
D
 62
     0
100
AcDbMText
 10
221.5277955792578
 20
-1.827012492455452
 30
0.0
 40
0.04
 41
0.0
 46
0.0
 71
     5
 72
     1
  1
\A1;4.464
 11
0.0000000000000001
 21
1.0
 31
0.0
 73
     1
 44
1.0
  0
POINT
  5
39C1
330
39BE
100
AcDbEntity
  8
Defpoints
 62
     0
100
AcDbPoint
 10
221.5277955792578
 20
-1.552665411011392
 30
0.0
  0
POINT
  5
39C2
330
39BE
100
AcDbEntity
  8
Defpoints
 62
     0
100
AcDbPoint
 10
221.5277955792578
 20
-1.711012492455488
 30
0.0
  0
POINT
  5
39C3
330
39BE
100
AcDbEntity
  8
Defpoints
 62
     0
100
AcDbPoint
 10
217.0637956006614
 20
-1.390165411011395
 30
0.0
  0
ENDBLK
  5
39C5
330
39BE
100
AcDbEntity
  8
0
100
AcDbBlockEnd
  0
BLOCK
  5
39CD
330
39C7
100
AcDbEntity
  8
0
100
AcDbBlockBegin
  2
*D31
 70
     1
 10
0.0
 20
0.0
 30
0.0
  3
*D31
  1

  0
LINE
  5
39C8
330
39C7
100
AcDbEntity
  8
D
 62
     0
370
    -2
100
AcDbLine
 10
221.570671771524
 20
-1.395223446471391
 30
0.0
 11
221.5878472530548
 21
-1.440045347749517
 31
0.0
  0
MTEXT
  5
39C9
330
39C7
100
AcDbEntity
  8
D
 62
     0
100
AcDbMText
 10
221.5255861325059
 20
-1.277565955616282
 30
0.0
 40
0.04
 41
0.0
 46
0.0
 71
     5
 72
     1
  1
\A1;R0.195
 11
0.3578225318900949
 21
-0.9337896099613455
 31
0.0
 73
     1
 44
1.0
  0
SOLID
  5
39CA
330
39C7
100
AcDbEntity
  8
D
 62
     0
100
AcDbTrace
 10
221.5953175699345
 20
-1.437182767494391
 30
0.0
 11
221.5803769361751
 21
-1.442907928004643
 31
0.0
 12
221.6050227345855
 22
-1.484867249027658
 32
0.0
 13
221.6050227345855
 23
-1.484867249027658
 33
0.0
  0
POINT
  5
39CB
330
39C7
100
AcDbEntity
  8
Defpoints
 62
     0
100
AcDbPoint
 10
221.6050227345855
 20
-1.484867249027658
 30
0.0
  0
POINT
  5
39CC
330
39C7
100
AcDbEntity
  8
Defpoints
 62
     0
100
AcDbPoint
 10
221.5351158681942
 20
-1.302435178145174
 30
0.0
  0
ENDBLK
  5
39CE
330
39C7
100
AcDbEntity
  8
0
100
AcDbBlockEnd
  0
BLOCK
  5
39D6
330
39D0
100
AcDbEntity
  8
0
100
AcDbBlockBegin
  2
*D32
 70
     1
 10
0.0
 20
0.0
 30
0.0
  3
*D32
  1

  0
LINE
  5
39D1
330
39D0
100
AcDbEntity
  8
D
 62
     0
370
    -2
100
AcDbLine
 10
221.6337586023553
 20
-1.635713529322906
 30
0.0
 11
221.6210586671284
 21
-1.589424095914893
 31
0.0
  0
MTEXT
  5
39D2
330
39D0
100
AcDbEntity
  8
D
 62
     0
100
AcDbMText
 10
221.6670959323256
 20
-1.757223292018885
 30
0.0
 40
0.04
 41
0.0
 46
0.0
 71
     5
 72
     1
  1
\A1;R0.271
 11
0.2645819838918637
 21
-0.964363196000265
 31
0.0
 73
     1
 44
1.0
  0
SOLID
  5
39D3
330
39D0
100
AcDbEntity
  8
D
 62
     0
100
AcDbTrace
 10
221.6287735726965
 20
-1.587307440043751
 30
0.0
 11
221.6133437615604
 21
-1.591540751786027
 31
0.0
 12
221.6083587319016
 22
-1.543134662506879
 32
0.0
 13
221.6083587319016
 23
-1.543134662506879
 33
0.0
  0
POINT
  5
39D4
330
39D0
100
AcDbEntity
  8
Defpoints
 62
     0
100
AcDbPoint
 10
221.6083587319016
 20
-1.543134662506879
 30
0.0
  0
POINT
  5
39D5
330
39D0
100
AcDbEntity
  8
Defpoints
 62
     0
100
AcDbPoint
 10
221.5365500664161
 20
-1.281402426889592
 30
0.0
  0
ENDBLK
  5
39D7
330
39D0
100
AcDbEntity
  8
0
100
AcDbBlockEnd
  0
BLOCK
  5
39DF
330
39D9
100
AcDbEntity
  8
0
100
AcDbBlockBegin
  2
*D33
 70
     1
 10
0.0
 20
0.0
 30
0.0
  3
*D33
  1

  0
LINE
  5
39DA
330
39D9
100
AcDbEntity
  8
D
 62
     0
370
    -2
100
AcDbLine
 10
221.7890376575557
 20
-1.18472076718357
 30
0.0
 11
221.7527893277372
 21
-1.325187997169678
 31
0.0
  0
MTEXT
  5
39DB
330
39D9
100
AcDbEntity
  8
D
 62
     0
100
AcDbMText
 10
221.820521247314
 20
-1.062717555849054
 30
0.0
 40
0.04
 41
0.0
 46
0.0
 71
     5
 72
     1
  1
\A1;R0.050
 11
0.2498697599867397
 21
0.9682794550356675
 31
0.0
 73
     1
 44
1.0
  0
SOLID
  5
39DC
330
39D9
100
AcDbEntity
  8
D
 62
     0
100
AcDbTrace
 10
221.7450430920969
 20
-1.323189039089783
 30
0.0
 11
221.7605355633775
 21
-1.32718695524958
 31
0.0
 12
221.7407955792578
 22
-1.371665411011392
 32
0.0
 13
221.7407955792578
 23
-1.371665411011392
 33
0.0
  0
POINT
  5
39DD
330
39D9
100
AcDbEntity
  8
Defpoints
 62
     0
100
AcDbPoint
 10
221.7407955792578
 20
-1.371665411011392
 30
0.0
  0
POINT
  5
39DE
330
39D9
100
AcDbEntity
  8
Defpoints
 62
     0
100
AcDbPoint
 10
221.7282744350952
 20
-1.420186555173884
 30
0.0
  0
ENDBLK
  5
39E0
330
39D9
100
AcDbEntity
  8
0
100
AcDbBlockEnd
  0
BLOCK
  5
39EB
330
39E3
100
AcDbEntity
  8
0
100
AcDbBlockBegin
  2
*D34
 70
     1
 10
0.0
 20
0.0
 30
0.0
  3
*D34
  1

  0
LINE
  5
39E4
330
39E3
100
AcDbEntity
  8
D
 62
     0
370
    -2
100
AcDbLine
 10
220.4817956006616
 20
-1.4126654110114
 30
0.0
 11
220.4817956006616
 21
-1.271614920610307
 31
0.0
  0
LINE
  5
39E5
330
39E3
100
AcDbEntity
  8
D
 62
     0
370
    -2
100
AcDbLine
 10
220.4817956006616
 20
-1.271614920610307
 30
0.0
 11
220.5641165708462
 21
-1.175614920610307
 31
0.0
  0
LINE
  5
39E6
330
39E3
100
AcDbEntity
  8
D
 62
     0
370
    -2
100
AcDbLine
 10
220.5641165708462
 20
-1.175614920610307
 30
0.0
 11
220.5641165708462
 21
-1.079614920610307
 31
0.0
  0
MTEXT
  5
39E7
330
39E3
100
AcDbEntity
  8
D
 62
     0
100
AcDbMText
 10
220.5641165708462
 20
-0.9702815872769384
 30
0.0
 40
0.04
 41
0.0
 46
0.0
 71
     5
 72
     1
  1
\A1;3.418
 11
0.0000000000000001
 21
1.0
 31
0.0
 73
     1
 44
1.0
  0
POINT
  5
39E8
330
39E3
100
AcDbEntity
  8
Defpoints
 62
     0
100
AcDbPoint
 10
220.4817956006616
 20
-1.452665411011401
 30
0.0
  0
POINT
  5
39E9
330
39E3
100
AcDbEntity
  8
Defpoints
 62
     0
100
AcDbPoint
 10
220.5641165708462
 20
-1.079614920610307
 30
0.0
  0
POINT
  5
39EA
330
39E3
100
AcDbEntity
  8
Defpoints
 62
     0
100
AcDbPoint
 10
217.0637956006614
 20
-1.390165411011395
 30
0.0
  0
ENDBLK
  5
39EC
330
39E3
100
AcDbEntity
  8
0
100
AcDbBlockEnd
  0
BLOCK
  5
39F6
330
39EE
100
AcDbEntity
  8
0
100
AcDbBlockBegin
  2
*D35
 70
     1
 10
0.0
 20
0.0
 30
0.0
  3
*D35
  1

  0
LINE
  5
39EF
330
39EE
100
AcDbEntity
  8
D
 62
     0
370
    -2
100
AcDbLine
 10
220.5217956006616
 20
-1.452665411011401
 30
0.0
 11
220.5777956006616
 21
-1.452665411011401
 31
0.0
  0
LINE
  5
39F0
330
39EE
100
AcDbEntity
  8
D
 62
     0
370
    -2
100
AcDbLine
 10
220.5777956006616
 20
-1.452665411011401
 30
0.0
 11
220.6141160184672
 21
-1.306286066870274
 31
0.0
  0
LINE
  5
39F1
330
39EE
100
AcDbEntity
  8
D
 62
     0
370
    -2
100
AcDbLine
 10
220.6141160184672
 20
-1.306286066870274
 30
0.0
 11
220.7101160184672
 21
-1.306286066870274
 31
0.0
  0
MTEXT
  5
39F2
330
39EE
100
AcDbEntity
  8
D
 62
     0
100
AcDbMText
 10
220.8194493518005
 20
-1.306286066870274
 30
0.0
 40
0.04
 41
0.0
 46
0.0
 71
     5
 72
     1
  1
\A1;0.063
 73
     1
 44
1.0
  0
POINT
  5
39F3
330
39EE
100
AcDbEntity
  8
Defpoints
 62
     0
100
AcDbPoint
 10
220.4817956006616
 20
-1.452665411011401
 30
0.0
  0
POINT
  5
39F4
330
39EE
100
AcDbEntity
  8
Defpoints
 62
     0
100
AcDbPoint
 10
220.7101160184672
 20
-1.306286066870274
 30
0.0
  0
POINT
  5
39F5
330
39EE
100
AcDbEntity
  8
Defpoints
 62
     0
100
AcDbPoint
 10
217.0637956006614
 20
-1.390165411011395
 30
0.0
  0
ENDBLK
  5
39F7
330
39EE
100
AcDbEntity
  8
0
100
AcDbBlockEnd
  0
ENDSEC
  0
SECTION
  2
ENTITIES
  0
TEXT
  5
45
330
18
100
AcDbEntity
  8
T
100
AcDbText
 10
15.48616755326692
 20
1.693507973140668
 30
0.0
 40
0.12
  1
 
100
AcDbText
  0
TEXT
  5
69
330
18
100
AcDbEntity
  8
D
100
AcDbText
 10
5.604806811939204
 20
5.027631219471905
 30
0.0
 40
0.1
  1

100
AcDbText
  0
LINE
  5
F5C
330
18
100
AcDbEntity
  8
Title Block
100
AcDbLine
 10
222.8671132055122
 20
0.6807462179658899
 30
0.0
 11
222.8671132055122
 21
-4.19425378203411
 31
0.0
  0
LINE
  5
F5D
330
18
100
AcDbEntity
  8
Title Block
100
AcDbLine
 10
215.1171132055122
 20
-4.19425378203411
 30
0.0
 11
215.1171132055122
 21
0.6807462179658899
 31
0.0
  0
LINE
  5
F5E
330
18
100
AcDbEntity
  8
Title Block
100
AcDbLine
 10
222.8671132055122
 20
-4.19425378203411
 30
0.0
 11
215.1171132055122
 21
-4.19425378203411
 31
0.0
  0
MTEXT
  5
F60
330
18
100
AcDbEntity
  8
TITLE BLOCK TEXT
100
AcDbMText
 10
220.3446099066594
 20
-4.035675370464758
 30
0.0
 40
0.036
 41
0.0
 46
0.0
 71
     4
 72
     1
  1
TOLERANCES:\PX.XXX +/- 0.005"\PFRACTIONS +/- 1/64"\PANGLES +/- 1/2
  7
Roman
 73
     1
 44
1.0
  0
LINE
  5
F61
330
18
100
AcDbEntity
  8
Title Block
100
AcDbLine
 10
220.2832050155143
 20
-3.859688787552666
 30
0.0
 11
221.9689509740086
 21
-3.859688787552283
 31
0.0
  0
LINE
  5
F62
330
18
100
AcDbEntity
  8
Title Block
100
AcDbLine
 10
220.2808159956285
 20
-3.594253782034109
 30
0.0
 11
222.867113205512
 21
-3.594253782034109
 31
0.0
  0
LINE
  5
F63
330
18
100
AcDbEntity
  8
Title Block
100
AcDbLine
 10
220.2808159956286
 20
-4.19425378203411
 30
0.0
 11
220.2808159956286
 21
-3.379762381082252
 31
0.0
  0
TEXT
  5
F65
330
18
100
AcDbEntity
  8
TITLE BLOCK TEXT
100
AcDbText
 10
221.8279701110593
 20
-4.145839862090286
 30
0.0
 40
0.067392
  1
ISON-1016-01-19
  7
Roman
100
AcDbText
  0
LINE
  5
F67
330
18
100
AcDbEntity
  8
Title Block
100
AcDbLine
 10
221.1129344065043
 20
-3.966253782034112
 30
0.0
 11
222.867113205512
 21
-3.966253782034112
 31
0.0
  0
LINE
  5
F68
330
18
100
AcDbEntity
  8
Title Block
100
AcDbLine
 10
221.9689509740085
 20
-3.966253782034112
 30
0.0
 11
221.9689509740086
 21
-3.594253782034178
 31
0.0
  0
LINE
  5
F69
330
18
100
AcDbEntity
  8
Title Block
100
AcDbLine
 10
221.1129344065044
 20
-4.19425378203411
 30
0.0
 11
221.1129344065042
 21
-3.379762381082252
 31
0.0
  0
LINE
  5
F6A
330
18
100
AcDbEntity
  8
Title Block
100
AcDbLine
 10
221.7583542112901
 20
-4.19425378203411
 30
0.0
 11
221.7583542112901
 21
-3.966253782034112
 31
0.0
  0
LINE
  5
F6B
330
18
100
AcDbEntity
  8
Title Block
100
AcDbLine
 10
221.5589703949634
 20
-4.19425378203411
 30
0.0
 11
221.5589703949634
 21
-3.966253782034112
 31
0.0
  0
TEXT
  5
F6C
330
18
100
AcDbEntity
  8
TITLE BLOCK TEXT
100
AcDbText
 10
221.3761493243485
 20
-4.145839862090286
 30
0.0
 40
0.048
  1
2:1
  7
Roman
100
AcDbText
  0
MTEXT
  5
F6D
330
18
100
AcDbEntity
  8
TITLE BLOCK TEXT
100
AcDbMText
 10
221.6084994779424
 20
-4.014697940828336
 30
0.0
 40
0.036
 41
0.0
 46
0.0
 71
     4
 72
     1
  1
REV.
  7
Roman
 73
     1
 44
1.0
  0
LINE
  5
F6E
330
18
100
AcDbEntity
  8
Title Block
100
AcDbLine
 10
221.3188540139814
 20
-4.19425378203411
 30
0.0
 11
221.3188540139814
 21
-3.966253782034112
 31
0.0
  0
TEXT
  5
F6F
330
18
100
AcDbEntity
  8
TITLE BLOCK TEXT
100
AcDbText
 10
221.1908273965526
 20
-4.145839862090286
 30
0.0
 40
0.048
  1
B
  7
Roman
100
AcDbText
  0
MTEXT
  5
F70
330
18
100
AcDbEntity
  8
TITLE BLOCK TEXT
100
AcDbMText
 10
221.1579325797837
 20
-4.014697940828336
 30
0.0
 40
0.036
 41
0.0
 46
0.0
 71
     4
 72
     1
  1
SIZE
  7
Roman
 73
     1
 44
1.0
  0
MTEXT
  5
F71
330
18
100
AcDbEntity
  8
TITLE BLOCK TEXT
100
AcDbMText
 10
221.1463230824977
 20
-3.725798926643472
 30
0.0
 40
0.048
 41
0.0
 46
0.0
 71
     4
 72
     1
  1
OPEN\PLOCK PICK SET\PPICK BLADE
  7
Roman
 73
     1
 44
1.0
  0
MTEXT
  5
F72
330
18
100
AcDbEntity
  8
TITLE BLOCK TEXT
100
AcDbMText
 10
221.3491514798801
 20
-4.014697940828336
 30
0.0
 40
0.036
 41
0.0
 46
0.0
 71
     4
 72
     1
  1
SCALE
  7
Roman
 73
     1
 44
1.0
  0
TEXT
  5
F73
330
18
100
AcDbEntity
  8
TITLE BLOCK TEXT
100
AcDbText
 10
221.8354072920479
 20
-4.034713782034117
 30
0.0
 40
0.039
  1
DWG NO.
  7
Roman
100
AcDbText
  0
LINE
  5
F74
330
18
100
AcDbEntity
  8
Title Block
100
AcDbLine
 10
215.1171132055122
 20
0.6807462179658899
 30
0.0
 11
222.8671132055122
 21
0.6807462179658899
 31
0.0
  0
TEXT
  5
F75
330
18
100
AcDbEntity
  8
TITLE BLOCK TEXT
100
AcDbText
 10
220.6963132055122
 20
0.5849262179658635
 30
0.0
 40
0.039
  1
DESCRIPTION
  7
Roman
100
AcDbText
  0
LINE
  5
F76
330
18
100
AcDbEntity
  8
Title Block
100
AcDbLine
 10
219.8671132055122
 20
0.5307462179658895
 30
0.0
 11
222.8671132055122
 21
0.5307462179658895
 31
0.0
  0
LINE
  5
F77
330
18
100
AcDbEntity
  8
Title Block
100
AcDbLine
 10
219.8671132055122
 20
0.6807462179658899
 30
0.0
 11
222.8671132055122
 21
0.6807462179658899
 31
0.0
  0
TEXT
  5
F78
330
18
100
AcDbEntity
  8
TITLE BLOCK TEXT
100
AcDbText
 10
219.9151732055121
 20
0.5849262179658635
 30
0.0
 40
0.039
  1
REV
  7
Roman
100
AcDbText
  0
TEXT
  5
F7B
330
18
100
AcDbEntity
  8
TITLE BLOCK TEXT
100
AcDbText
 10
222.4119532055121
 20
0.5849262179658635
 30
0.0
 40
0.039
  1
APPROVED
  7
Roman
100
AcDbText
  0
TEXT
  5
F7E
330
18
100
AcDbEntity
  8
TITLE BLOCK TEXT
100
AcDbText
 10
221.9357332055122
 20
0.5849262179658635
 30
0.0
 40
0.039
  1
DATE
  7
Roman
100
AcDbText
  0
LINE
  5
119C
330
18
100
AcDbEntity
  8
PICK
100
AcDbLine
 10
215.9464550908254
 20
-1.580665411011395
 30
0.0
 11
215.9464550908254
 21
-1.269665411011402
 31
0.0
  0
LINE
  5
119D
330
18
100
AcDbEntity
  8
PICK
100
AcDbLine
 10
215.9664550908254
 20
-1.580665411011395
 30
0.0
 11
215.9664550908254
 21
-1.269665411011402
 31
0.0
  0
LINE
  5
119E
330
18
100
AcDbEntity
  8
PICK
100
AcDbLine
 10
214.836885864041
 20
-5.999676172326758
 30
0.0
 11
214.856885864041
 21
-5.999676172326758
 31
0.0
  0
LINE
  5
119F
330
18
100
AcDbEntity
  8
PICK
100
AcDbLine
 10
215.9664550908254
 20
-1.269665411011402
 30
0.0
 11
215.9464550908254
 21
-1.269665411011402
 31
0.0
  0
LINE
  5
11A0
330
18
100
AcDbEntity
  8
PICK
100
AcDbLine
 10
215.9464550908254
 20
-1.269665411011402
 30
0.0
 11
215.9664550908254
 21
-1.269665411011402
 31
0.0
  0
LINE
  5
11A1
330
18
100
AcDbEntity
  8
PICK
100
AcDbLine
 10
215.9464550908254
 20
-1.580665411011395
 30
0.0
 11
215.9664550908254
 21
-1.580665411011395
 31
0.0
  0
DIMENSION
  5
11A2
330
18
100
AcDbEntity
  8
D
100
AcDbDimension
280
     0
  2
*D0
 10
215.9464550908254
 20
-1.073153340859391
 30
0.0
 11
215.6644550908254
 21
-1.073153340859391
 31
0.0
 70
    32
  1
<> REF
 71
     5
 42
0.0199999999999818
 73
     0
 74
     0
 75
     0
  3
TPS3
100
AcDbAlignedDimension
 13
215.9664550908254
 23
-1.269665411011402
 33
0.0
 14
215.9464550908254
 24
-1.269665411011402
 34
0.0
100
AcDbRotatedDimension
  0
LINE
  5
123E
330
18
100
AcDbEntity
  8
Title Block
100
AcDbLine
 10
218.3670431001213
 20
-3.194056640204962
 30
0.0
 11
215.1171132055122
 21
-3.194056640204962
 31
0.0
  0
MTEXT
  5
1240
330
18
100
AcDbEntity
  8
D
100
AcDbMText
 10
216.6536727265738
 20
-3.963035119641034
 30
0.0
 40
0.04
 41
0.0
 46
0.0
 71
     5
 72
     1
  1
*****THIS VIEW IS 1:1 ONLY WHEN PRINTED \PON 11X17 PAPER.*****
 73
     1
 44
1.0
  0
LINE
  5
1241
330
18
100
AcDbEntity
  8
Title Block
100
AcDbLine
 10
218.3670431001213
 20
-4.19425378203411
 30
0.0
 11
218.3670431001213
 21
-3.194056640204962
 31
0.0
  0
LINE
  5
12AA
330
18
100
AcDbEntity
  8
Title Block
100
AcDbLine
 10
220.2808159956285
 20
-3.379762381082252
 30
0.0
 11
221.1129344065042
 21
-3.379762381082251
 31
0.0
  0
MTEXT
  5
137A
330
18
100
AcDbEntity
  8
D
100
AcDbMText
 10
216.6536727265738
 20
-3.39668549162647
 30
0.0
 40
0.04
 41
0.0
 46
0.0
 71
     5
 72
     1
  1
*****THIS VIEW IS 1:1 ONLY WHEN PRINTED \PON 11X17 PAPER.*****
 73
     1
 44
1.0
  0
MTEXT
  5
17D9
330
18
100
AcDbEntity
  8
TITLE BLOCK TEXT
100
AcDbMText
 10
221.1561052303493
 20
-3.91012371801049
 30
0.0
 40
0.048
 41
0.0
 46
0.0
 71
     4
 72
     1
  1
DATE: 5-18-2011
  7
Roman
 73
     1
 44
1.0
  0
LINE
  5
36D6
330
18
100
AcDbEntity
  8
PICK
100
AcDbLine
 10
217.1842956006615
 20
-1.580665411011395
 30
0.0
 11
220.1147956006615
 21
-1.580665411011395
 31
0.0
  0
LINE
  5
36D7
330
18
100
AcDbEntity
  8
PICK
100
AcDbLine
 10
217.1842956006615
 20
-1.269665411011395
 30
0.0
 11
219.9657956006615
 21
-1.269665411011395
 31
0.0
  0
LINE
  5
36D8
330
18
100
AcDbEntity
  8
PICK
100
AcDbLine
 10
217.0637956006614
 20
-1.460165411011393
 30
0.0
 11
217.0637956006614
 21
-1.390165411011395
 31
0.0
  0
ARC
  5
36D9
330
18
100
AcDbEntity
  8
PICK
100
AcDbCircle
 10
219.9299898472671
 20
-2.082980753396274
 30
0.0
 40
0.8141031250000029
100
AcDbArc
 50
51.40869651708104
 51
87.47921304375259
  0
ARC
  5
36DC
330
18
100
AcDbEntity
  8
PICK
100
AcDbCircle
 10
217.1842956006615
 20
-1.390165411011395
 30
0.0
 40
0.1204999999999998
100
AcDbArc
 50
90.0
 51
180.0
  0
ARC
  5
36DD
330
18
100
AcDbEntity
  8
PICK
100
AcDbCircle
 10
217.1842956006615
 20
-1.460165411011395
 30
0.0
 40
0.1204999999999998
100
AcDbArc
 50
179.999999999999
 51
270.0
  0
POINT
  5
36F7
330
18
100
AcDbEntity
  8
D
100
AcDbPoint
 10
217.0637956006614
 20
-1.390165411011395
 30
0.0
  0
POINT
  5
36F8
330
18
100
AcDbEntity
  8
D
100
AcDbPoint
 10
217.1842956006615
 20
-1.269665411011395
 30
0.0
  0
POINT
  5
36F9
330
18
100
AcDbEntity
  8
D
100
AcDbPoint
 10
219.9657956006615
 20
-1.269665411011395
 30
0.0
  0
POINT
  5
36FA
330
18
100
AcDbEntity
  8
D
100
AcDbPoint
 10
220.4377956006614
 20
-1.446665411011395
 30
0.0
  0
POINT
  5
3705
330
18
100
AcDbEntity
  8
D
100
AcDbPoint
 10
220.1147956006614
 20
-1.580665411011393
 30
0.0
  0
POINT
  5
3706
330
18
100
AcDbEntity
  8
D
100
AcDbPoint
 10
217.1842956006615
 20
-1.580665411011395
 30
0.0
  0
POINT
  5
3707
330
18
100
AcDbEntity
  8
D
100
AcDbPoint
 10
217.0637956006614
 20
-1.460165411011393
 30
0.0
  0
DIMENSION
  5
3708
330
18
100
AcDbEntity
  8
D
100
AcDbDimension
280
     0
  2
*D1
 10
217.0637956006614
 20
-1.390165411011395
 30
0.0
 11
217.0637956006614
 21
-1.041945430861099
 31
0.0
 70
   102
 71
     5
 42
0.0
 73
     0
 74
     0
 75
     0
  3
TPS3
100
AcDbOrdinateDimension
 13
217.0637956006614
 23
-1.390165411011395
 33
0.0
 14
217.0637956006614
 24
-1.144612097527801
 34
0.0
  0
DIMENSION
  5
3711
330
18
100
AcDbEntity
  8
D
100
AcDbDimension
280
     0
  2
*D2
 10
217.0637956006614
 20
-1.390165411011395
 30
0.0
 11
216.789284917851
 21
-1.390165411011395
 31
0.0
 70
    38
 71
     5
 42
0.0
 73
     0
 74
     0
 75
     0
  3
TPS3
100
AcDbOrdinateDimension
 13
217.0637956006614
 23
-1.390165411011395
 33
0.0
 14
216.8919515845177
 24
-1.390165411011395
 34
0.0
  0
DIMENSION
  5
371A
330
18
100
AcDbEntity
  8
D
100
AcDbDimension
280
     0
  2
*D3
 10
217.0637956006614
 20
-1.390165411011395
 30
0.0
 11
217.1842956006615
 21
-0.8916805607465304
 31
0.0
 70
   102
 71
     5
 42
0.1204999999999927
 73
     0
 74
     0
 75
     0
  3
TPS3
100
AcDbOrdinateDimension
 13
217.1842956006615
 23
-1.269665411011395
 33
0.0
 14
217.1842956006615
 24
-0.9910138940798987
 34
0.0
  0
DIMENSION
  5
3723
330
18
100
AcDbEntity
  8
D
100
AcDbDimension
280
     0
  2
*D4
 10
217.0637956006614
 20
-1.390165411011395
 30
0.0
 11
216.7760337366434
 21
-1.460165411011393
 31
0.0
 70
    38
 71
     5
 42
0.0699999999999981
 73
     0
 74
     0
 75
     0
  3
TPS3
100
AcDbOrdinateDimension
 13
217.0637956006614
 23
-1.460165411011393
 33
0.0
 14
216.8820337366434
 24
-1.460165411011393
 34
0.0
  0
DIMENSION
  5
372C
330
18
100
AcDbEntity
  8
D
100
AcDbDimension
280
     0
  2
*D5
 10
217.0637956006614
 20
-1.390165411011395
 30
0.0
 11
217.1842956006615
 21
-1.868247836270136
 31
0.0
 70
   102
 71
     5
 42
0.1204999999999927
 73
     0
 74
     0
 75
     0
  3
TPS3
100
AcDbOrdinateDimension
 13
217.1842956006615
 23
-1.580665411011395
 33
0.0
 14
217.1842956006615
 24
-1.768914502936837
 34
0.0
  0
DIMENSION
  5
3735
330
18
100
AcDbEntity
  8
D
100
AcDbDimension
280
     0
  2
*D6
 10
217.0637956006614
 20
-1.390165411011395
 30
0.0
 11
216.8570842623672
 21
-1.269665411011395
 31
0.0
 70
    38
 71
     5
 42
0.1204999999999998
 73
     0
 74
     0
 75
     0
  3
TPS3
100
AcDbOrdinateDimension
 13
217.1842956006615
 23
-1.269665411011395
 33
0.0
 14
216.9564175957006
 24
-1.269665411011395
 34
0.0
  0
DIMENSION
  5
373E
330
18
100
AcDbEntity
  8
D
100
AcDbDimension
280
     0
  2
*D7
 10
217.0637956006614
 20
-1.390165411011395
 30
0.0
 11
216.8496458598087
 21
-1.580665411011395
 31
0.0
 70
    38
 71
     5
 42
0.1905000000000001
 73
     0
 74
     0
 75
     0
  3
TPS3
100
AcDbOrdinateDimension
 13
217.1842956006615
 23
-1.580665411011395
 33
0.0
 14
216.948979193142
 24
-1.580665411011395
 34
0.0
  0
DIMENSION
  5
3747
330
18
100
AcDbEntity
  8
D
100
AcDbDimension
280
     0
  2
*D8
 10
217.0637956006614
 20
-1.390165411011395
 30
0.0
 11
219.9657956006615
 21
-0.9261940057054431
 31
0.0
 70
   102
 71
     5
 42
2.902000000000043
 73
     0
 74
     0
 75
     0
  3
TPS3
100
AcDbOrdinateDimension
 13
219.9657956006615
 23
-1.269665411011395
 33
0.0
 14
219.9657956006615
 24
-1.038860672372145
 34
0.0
  0
DIMENSION
  5
3750
330
18
100
AcDbEntity
  8
D
100
AcDbDimension
280
     0
  2
*D9
 10
217.0637956006614
 20
-1.390165411011395
 30
0.0
 11
220.4377956006614
 21
-0.936473610396799
 31
0.0
 70
   102
 71
     5
 42
3.373999999999995
 73
     0
 74
     0
 75
     0
  3
TPS3
100
AcDbOrdinateDimension
 13
220.4377956006614
 23
-1.446665411011395
 33
0.0
 14
220.4377956006614
 24
-1.052473610396834
 34
0.0
  0
DIMENSION
  5
37C5
330
18
100
AcDbEntity
  8
D
100
AcDbDimension
280
     0
  2
*D10
 10
217.0637956006614
 20
-1.390165411011395
 30
0.0
 11
220.1147956006614
 21
-2.051981963335473
 31
0.0
 70
   102
 71
     5
 42
3.050999999999987
 73
     0
 74
     0
 75
     0
  3
TPS3
100
AcDbOrdinateDimension
 13
220.1147956006614
 23
-1.580665411011393
 33
0.0
 14
220.1147956006614
 24
-1.945981963335508
 34
0.0
  0
DIMENSION
  5
37CE
330
18
100
AcDbEntity
  8
D
100
AcDbDimension
280
     0
  2
*D11
 10
217.0637956006614
 20
-1.390165411011395
 30
0.0
 11
219.5995898833991
 21
-1.121952492160996
 31
0.0
 70
    38
 71
     5
 42
0.1204999999999998
 73
     0
 74
     0
 75
     0
  3
TPS3
100
AcDbOrdinateDimension
 13
219.9657956006615
 23
-1.269665411011395
 33
0.0
 14
219.6989232167324
 24
-1.121952492160996
 34
0.0
  0
DIMENSION
  5
37D9
330
18
100
AcDbEntity
  8
D
100
AcDbDimension
280
     0
  2
*D12
 10
217.0637956006614
 20
-1.390165411011395
 30
0.0
 11
219.9886521190146
 21
-1.390047997314827
 31
0.0
 70
   166
 71
     5
 42
0.0565000000000007
 73
     0
 74
     0
 75
     0
  3
TPS3
100
AcDbOrdinateDimension
 13
220.4377956006614
 23
-1.446665411011395
 33
0.0
 14
220.0979854523479
 24
-1.390047997314827
 34
0.0
  0
DIMENSION
  5
37EF
330
18
100
AcDbEntity
  8
D
100
AcDbDimension
280
     0
  2
*D13
 10
217.0637956006614
 20
-1.390165411011395
 30
0.0
 11
219.6838599498839
 21
-1.69846195191566
 31
0.0
 70
    38
 71
     5
 42
0.1904999999999983
 73
     0
 74
     0
 75
     0
  3
TPS3
100
AcDbOrdinateDimension
 13
220.1147956006614
 23
-1.580665411011393
 33
0.0
 14
219.7831932832173
 24
-1.69846195191566
 34
0.0
  0
DIMENSION
  5
3838
330
18
100
AcDbEntity
  8
D
100
AcDbDimension
280
     0
  2
*D14
 10
217.1842956006615
 20
-1.390165411011338
 30
0.0
 11
216.8722490450907
 21
-1.069381382722255
 31
0.0
 70
   164
 71
     5
 42
0.1204999999999927
 73
     0
 74
     0
 75
     0
  3
TPS3
100
AcDbRadialDimension
 15
217.1002736835295
 25
-1.303790834650868
 35
0.0
 40
0.0
1001
ACAD
1000
DSTYLE
1002
{
1070
   288
1070
     1
1002
}
  0
DIMENSION
  5
3841
330
18
100
AcDbEntity
  8
D
100
AcDbDimension
280
     0
  2
*D15
 10
217.1842956006612
 20
-1.460165411011473
 30
0.0
 11
216.9263125733368
 21
-1.675174214064099
 31
0.0
 70
    36
 71
     5
 42
0.1204999999997938
 73
     0
 74
     0
 75
     0
  3
TPS3
100
AcDbRadialDimension
 15
217.0917289858943
 25
-1.537312490220855
 35
0.0
 40
0.0
1001
ACAD
1000
DSTYLE
1002
{
1070
   288
1070
     1
1002
}
  0
DIMENSION
  5
384A
330
18
100
AcDbEntity
  8
D
100
AcDbDimension
280
     0
  2
*D16
 10
219.9299898472671
 20
-2.082980753396299
 30
0.0
 11
220.3003087563071
 21
-0.7375049122601923
 31
0.0
 70
   164
 71
     5
 42
0.8141031250000096
 73
     0
 74
     0
 75
     0
  3
TPS3
100
AcDbRadialDimension
 15
220.1460243504242
 25
-1.29806483969569
 35
0.0
 40
0.0
1001
ACAD
1000
DSTYLE
1002
{
1070
   288
1070
     1
1002
}
  0
DIMENSION
  5
386E
330
18
100
AcDbEntity
  8
D
100
AcDbDimension
280
     0
  2
*D17
 10
218.9605075988794
 20
-1.269665411011395
 30
0.0
 11
218.9605075988794
 21
-1.042332077678026
 31
0.0
 70
    32
  1
<> REF
 71
     5
 42
0.3109999999999999
 73
     0
 74
     0
 75
     0
  3
TPS3
100
AcDbAlignedDimension
 13
218.8350720790071
 23
-1.580665411011395
 33
0.0
 14
218.8350720790071
 24
-1.269665411011395
 34
0.0
 50
90.0
100
AcDbRotatedDimension
  0
TEXT
  5
38CA
330
18
100
AcDbEntity
  8
SECTION
100
AcDbText
 10
221.6351818044731
 20
-4.145839862090286
 30
0.0
 40
0.048
  1
A
  7
Roman
100
AcDbText
  0
ARC
  5
3917
330
18
100
AcDbEntity
  8
PICK
100
AcDbCircle
 10
220.1217076716806
 20
-1.38164724801128
 30
0.0
 40
0.1991381578947491
100
AcDbArc
 50
268.0108681009747
 51
308.2539920503272
  0
LINE
  5
3918
330
18
100
AcDbEntity
  8
PICK
100
AcDbLine
 10
220.4865955792578
 20
-1.552665411011401
 30
0.0
 11
220.2450037961544
 21
-1.53802522478378
 31
0.0
  0
LINE
  5
3919
330
18
100
AcDbEntity
  8
PICK
100
AcDbLine
 10
220.4817956006616
 20
-1.452665411011401
 30
0.0
 11
221.5277955792578
 21
-1.497665411011401
 31
0.0
  0
ARC
  5
391A
330
18
100
AcDbEntity
  8
PICK
100
AcDbCircle
 10
221.7374314003194
 20
-1.402482326821881
 30
0.0
 40
0.0309999999999929
100
AcDbArc
 50
83.76988333676754
 51
142.6272976905148
  0
ARC
  5
391B
330
18
100
AcDbEntity
  8
PICK
100
AcDbCircle
 10
221.7282744350953
 20
-1.420186555173878
 30
0.0
 40
0.0501106823139926
100
AcDbArc
 50
14.46980538942186
 51
75.53019461057309
  0
LINE
  5
391C
330
18
100
AcDbEntity
  8
PICK
100
AcDbLine
 10
220.4817956006616
 20
-1.452665411011401
 30
0.0
 11
220.4377956006616
 21
-1.4466654110114
 31
0.0
  0
LINE
  5
391D
330
18
100
AcDbEntity
  8
PICK
100
AcDbLine
 10
221.5277955792578
 20
-1.552665411011392
 30
0.0
 11
220.4865955792578
 21
-1.552665411011401
 31
0.0
  0
ARC
  5
391E
330
18
100
AcDbEntity
  8
PICK
100
AcDbCircle
 10
221.5365500664158
 20
-1.281402426889638
 30
0.0
 40
0.2714042144109755
100
AcDbArc
 50
268.1515313239115
 51
332.2754637593974
  0
ARC
  5
391F
330
18
100
AcDbEntity
  8
PICK
100
AcDbCircle
 10
221.5351158681943
 20
-1.302435178145155
 30
0.0
 40
0.1953674242424322
100
AcDbArc
 50
267.8526621526294
 51
335.4314358250297
  0
POINT
  5
3929
330
18
100
AcDbEntity
  8
D
100
AcDbPoint
 10
221.5277955792578
 20
-1.497665411011402
 30
0.0
  0
POINT
  5
392A
330
18
100
AcDbEntity
  8
D
100
AcDbPoint
 10
221.7127955792578
 20
-1.383665411011401
 30
0.0
  0
POINT
  5
392B
330
18
100
AcDbEntity
  8
D
100
AcDbPoint
 10
221.7767955792578
 20
-1.407665411011401
 30
0.0
  0
POINT
  5
392C
330
18
100
AcDbEntity
  8
D
100
AcDbPoint
 10
221.5277955792578
 20
-1.552665411011392
 30
0.0
  0
POINT
  5
392D
330
18
100
AcDbEntity
  8
D
100
AcDbPoint
 10
220.4865955792578
 20
-1.552665411011401
 30
0.0
  0
POINT
  5
392E
330
18
100
AcDbEntity
  8
D
100
AcDbPoint
 10
220.2450037961544
 20
-1.53802522478378
 30
0.0
  0
DIMENSION
  5
3936
330
18
100
AcDbEntity
  8
D
100
AcDbDimension
280
     0
  2
*D18
 10
217.0637956006614
 20
-1.390165411011395
 30
0.0
 11
219.9193526276096
 21
-1.47684521859016
 31
0.0
 70
    38
 71
     5
 42
0.147859813772385
 73
     0
 74
     0
 75
     0
  3
TPS3
100
AcDbOrdinateDimension
 13
220.2450037961544
 23
-1.53802522478378
 33
0.0
 14
220.0253526276096
 24
-1.47684521859016
 34
0.0
  0
DIMENSION
  5
3941
330
18
100
AcDbEntity
  8
D
100
AcDbDimension
280
     0
  2
*D19
 10
220.1217076716808
 20
-1.38164724801128
 30
0.0
 11
220.1777161546945
 21
-1.799044418420344
 31
0.0
 70
    36
 71
     5
 42
0.1991381578947227
 73
     0
 74
     0
 75
     0
  3
TPS3
100
AcDbRadialDimension
 15
220.1481916791846
 25
-1.579016453502518
 35
0.0
 40
0.0
1001
ACAD
1000
DSTYLE
1002
{
1070
   288
1070
     1
1002
}
  0
DIMENSION
  5
394A
330
18
100
AcDbEntity
  8
D
100
AcDbDimension
280
     0
  2
*D20
 10
217.0637956006614
 20
-1.390165411011395
 30
0.0
 11
220.2906576817928
 21
-1.877437482607258
 31
0.0
 70
   102
 71
     5
 42
3.181208195492956
 73
     0
 74
     0
 75
     0
  3
TPS3
100
AcDbOrdinateDimension
 13
220.2450037961544
 23
-1.53802522478378
 33
0.0
 14
220.2906576817928
 24
-1.774770815940627
 34
0.0
  0
DIMENSION
  5
3957
330
18
100
AcDbEntity
  8
D
100
AcDbDimension
280
     0
  2
*D21
 10
217.0637956006614
 20
-1.390165411011395
 30
0.0
 11
220.4865955792578
 21
-1.86496623664252
 31
0.0
 70
   102
 71
     5
 42
3.422799978596373
 73
     0
 74
     0
 75
     0
  3
TPS3
100
AcDbOrdinateDimension
 13
220.4865955792578
 23
-1.552665411011401
 33
0.0
 14
220.4865955792578
 24
-1.748966236642555
 34
0.0
  0
DIMENSION
  5
3960
330
18
100
AcDbEntity
  8
D
100
AcDbDimension
280
     0
  2
*D22
 10
217.0637956006614
 20
-1.390165411011395
 30
0.0
 11
220.7934413366074
 21
-1.718469915653923
 31
0.0
 70
    38
 71
     5
 42
0.1625000000000063
 73
     0
 74
     0
 75
     0
  3
TPS3
100
AcDbOrdinateDimension
 13
220.4865955792578
 23
-1.552665411011401
 33
0.0
 14
220.6874413366074
 24
-1.718469915653923
 34
0.0
  0
DIMENSION
  5
396D
330
18
100
AcDbEntity
  8
D
100
AcDbDimension
280
     0
  2
*D23
 10
217.0637956006614
 20
-1.390165411011395
 30
0.0
 11
221.4294939978212
 21
-1.124544781135675
 31
0.0
 70
   230
 71
     5
 42
4.463999978596348
 73
     0
 74
     0
 75
     0
  3
TPS3
100
AcDbOrdinateDimension
 13
221.5277955792578
 23
-1.497665411011402
 33
0.0
 14
221.4294939978212
 24
-1.240544781135711
 34
0.0
  0
DIMENSION
  5
3976
330
18
100
AcDbEntity
  8
D
100
AcDbDimension
280
     0
  2
*D24
 10
217.0637956006614
 20
-1.390165411011395
 30
0.0
 11
221.2047400646774
 21
-1.361477736508881
 31
0.0
 70
    38
 71
     5
 42
0.1075000000000077
 73
     0
 74
     0
 75
     0
  3
TPS3
100
AcDbOrdinateDimension
 13
221.5277955792578
 23
-1.497665411011402
 33
0.0
 14
221.3074067313441
 24
-1.361477736508881
 34
0.0
  0
DIMENSION
  5
3981
330
18
100
AcDbEntity
  8
D
100
AcDbDimension
280
     0
  2
*D25
 10
217.0637956006614
 20
-1.390165411011395
 30
0.0
 11
221.7065382003153
 21
-1.029657618743154
 31
0.0
 70
   102
 71
     5
 42
4.64899997859635
 73
     0
 74
     0
 75
     0
  3
TPS3
100
AcDbOrdinateDimension
 13
221.7127955792578
 23
-1.383665411011401
 33
0.0
 14
221.7065382003153
 24
-1.145657618743189
 34
0.0
  0
DIMENSION
  5
3993
330
18
100
AcDbEntity
  8
D
100
AcDbDimension
280
     0
  2
*D26
 10
217.0637956006614
 20
-1.390165411011395
 30
0.0
 11
222.0848867357323
 21
-1.157386972969586
 31
0.0
 70
    38
 71
     5
 42
0.006499999999994
 73
     0
 74
     0
 75
     0
  3
TPS3
100
AcDbOrdinateDimension
 13
221.7127955792578
 23
-1.383665411011401
 33
0.0
 14
221.9788867357323
 24
-1.157386972969586
 34
0.0
  0
DIMENSION
  5
399E
330
18
100
AcDbEntity
  8
D
100
AcDbDimension
280
     0
  2
*D27
 10
217.0637956006614
 20
-1.390165411011395
 30
0.0
 11
221.7767955792578
 21
-1.77108253803792
 31
0.0
 70
   102
 71
     5
 42
4.712999978596371
 73
     0
 74
     0
 75
     0
  3
TPS3
100
AcDbOrdinateDimension
 13
221.7767955792578
 23
-1.407665411011401
 33
0.0
 14
221.7767955792578
 24
-1.661749204704623
 34
0.0
  0
DIMENSION
  5
39A7
330
18
100
AcDbEntity
  8
D
100
AcDbDimension
280
     0
  2
*D28
 10
217.0637956006614
 20
-1.390165411011395
 30
0.0
 11
222.1003360707074
 21
-1.600756562727365
 31
0.0
 70
    38
 71
     5
 42
0.0175000000000061
 73
     0
 74
     0
 75
     0
  3
TPS3
100
AcDbOrdinateDimension
 13
221.7767955792578
 23
-1.407665411011401
 33
0.0
 14
221.9976694040407
 24
-1.600756562727365
 34
0.0
  0
DIMENSION
  5
39B2
330
18
100
AcDbEntity
  8
D
100
AcDbDimension
280
     0
  2
*D29
 10
217.0637956006614
 20
-1.390165411011395
 30
0.0
 11
221.2131458796549
 21
-1.659403333859344
 31
0.0
 70
    38
 71
     5
 42
0.1624999999999968
 73
     0
 74
     0
 75
     0
  3
TPS3
100
AcDbOrdinateDimension
 13
221.5277955792578
 23
-1.552665411011392
 33
0.0
 14
221.3191458796549
 24
-1.659403333859344
 34
0.0
  0
DIMENSION
  5
39BD
330
18
100
AcDbEntity
  8
D
100
AcDbDimension
280
     0
  2
*D30
 10
217.0637956006614
 20
-1.390165411011395
 30
0.0
 11
221.5277955792578
 21
-1.827012492455452
 31
0.0
 70
   102
 71
     5
 42
4.463999978596348
 73
     0
 74
     0
 75
     0
  3
TPS3
100
AcDbOrdinateDimension
 13
221.5277955792578
 23
-1.552665411011392
 33
0.0
 14
221.5277955792578
 24
-1.711012492455488
 34
0.0
  0
DIMENSION
  5
39C6
330
18
100
AcDbEntity
  8
D
100
AcDbDimension
280
     0
  2
*D31
 10
221.5351158681942
 20
-1.302435178145174
 30
0.0
 11
221.5255861325059
 21
-1.277565955616282
 31
0.0
 70
   164
 71
     5
 42
0.1953674242424341
 73
     0
 74
     0
 75
     0
  3
TPS3
100
AcDbRadialDimension
 15
221.6050227345855
 25
-1.484867249027658
 35
0.0
 40
0.0
1001
ACAD
1000
DSTYLE
1002
{
1070
   288
1070
     1
1002
}
  0
DIMENSION
  5
39CF
330
18
100
AcDbEntity
  8
D
100
AcDbDimension
280
     0
  2
*D32
 10
221.5365500664161
 20
-1.281402426889592
 30
0.0
 11
221.6670959323256
 21
-1.757223292018885
 31
0.0
 70
    36
 71
     5
 42
0.271404214410957
 73
     0
 74
     0
 75
     0
  3
TPS3
100
AcDbRadialDimension
 15
221.6083587319016
 25
-1.543134662506879
 35
0.0
 40
0.0
1001
ACAD
1000
DSTYLE
1002
{
1070
   288
1070
     1
1002
}
  0
DIMENSION
  5
39D8
330
18
100
AcDbEntity
  8
D
100
AcDbDimension
280
     0
  2
*D33
 10
221.7282744350952
 20
-1.420186555173884
 30
0.0
 11
221.820521247314
 21
-1.062717555849054
 31
0.0
 70
   164
 71
     5
 42
0.0501106823140205
 73
     0
 74
     0
 75
     0
  3
TPS3
100
AcDbRadialDimension
 15
221.7407955792578
 25
-1.371665411011392
 35
0.0
 40
0.0
1001
ACAD
1000
DSTYLE
1002
{
1070
   279
1070
     1
1070
   288
1070
     1
1002
}
  0
POINT
  5
39E1
330
18
100
AcDbEntity
  8
D
100
AcDbPoint
 10
220.4817956006616
 20
-1.452665411011401
 30
0.0
  0
DIMENSION
  5
39E2
330
18
100
AcDbEntity
  8
D
100
AcDbDimension
280
     0
  2
*D34
 10
217.0637956006614
 20
-1.390165411011395
 30
0.0
 11
220.5641165708462
 21
-0.9702815872769384
 31
0.0
 70
   102
 71
     5
 42
3.41800000000012
 73
     0
 74
     0
 75
     0
  3
TPS3
100
AcDbOrdinateDimension
 13
220.4817956006616
 23
-1.452665411011401
 33
0.0
 14
220.5641165708462
 24
-1.079614920610307
 34
0.0
  0
DIMENSION
  5
39ED
330
18
100
AcDbEntity
  8
D
100
AcDbDimension
280
     0
  2
*D35
 10
217.0637956006614
 20
-1.390165411011395
 30
0.0
 11
220.8194493518005
 21
-1.306286066870274
 31
0.0
 70
    38
 71
     5
 42
0.0625000000000058
 73
     0
 74
     0
 75
     0
  3
TPS3
100
AcDbOrdinateDimension
 13
220.4817956006616
 23
-1.452665411011401
 33
0.0
 14
220.7101160184672
 24
-1.306286066870274
 34
0.0
  0
ARC
  5
39FB
330
18
100
AcDbEntity
  8
Title Block
100
AcDbCircle
 10
217.8498360549939
 20
-3.618154320299273
 30
0.0
 40
0.0976837121212161
100
AcDbArc
 50
267.8526621526294
 51
335.4314358250297
  0
ARC
  5
39FC
330
18
100
AcDbEntity
  8
Title Block
100
AcDbCircle
 10
217.8505531541047
 20
-3.607637944671514
 30
0.0
 40
0.1357021072054878
100
AcDbArc
 50
268.1515313239115
 51
332.2754637593974
  0
LINE
  5
39FD
330
18
100
AcDbEntity
  8
Title Block
100
AcDbLine
 10
217.3231759212275
 20
-3.693269436732395
 30
0.0
 11
217.8461759105256
 21
-3.715769436732395
 31
0.0
  0
ARC
  5
39FE
330
18
100
AcDbEntity
  8
Title Block
100
AcDbCircle
 10
215.6744259212274
 20
-3.697019436732393
 30
0.0
 40
0.0602499999999999
100
AcDbArc
 50
179.999999999999
 51
270.0
  0
LINE
  5
39FF
330
18
100
AcDbEntity
  8
Title Block
100
AcDbLine
 10
217.3255759105256
 20
-3.743269436732396
 30
0.0
 11
217.2047800189739
 21
-3.735949343618585
 31
0.0
  0
LINE
  5
3A00
330
18
100
AcDbEntity
  8
Title Block
100
AcDbLine
 10
215.6744259212274
 20
-3.757269436732393
 30
0.0
 11
217.1396759212275
 21
-3.757269436732393
 31
0.0
  0
ARC
  5
3A01
330
18
100
AcDbEntity
  8
Title Block
100
AcDbCircle
 10
217.143131956737
 20
-3.657760355232335
 30
0.0
 40
0.0995690789473746
100
AcDbArc
 50
268.0108681009747
 51
308.2539920503272
  0
LINE
  5
3A02
330
18
100
AcDbEntity
  8
Title Block
100
AcDbLine
 10
217.8461759105256
 20
-3.743269436732392
 30
0.0
 11
217.3255759105256
 21
-3.743269436732396
 31
0.0
  0
ARC
  5
3A03
330
18
100
AcDbEntity
  8
Title Block
100
AcDbCircle
 10
217.0472730445303
 20
-4.008427107924832
 30
0.0
 40
0.4070515625000015
100
AcDbArc
 50
51.40869651708104
 51
87.47921304375259
  0
LINE
  5
3A04
330
18
100
AcDbEntity
  8
Title Block
100
AcDbLine
 10
215.6744259212274
 20
-3.601769436732393
 30
0.0
 11
217.0651759212275
 21
-3.601769436732393
 31
0.0
  0
ARC
  5
3A05
330
18
100
AcDbEntity
  8
Title Block
100
AcDbCircle
 10
215.6744259212274
 20
-3.662019436732393
 30
0.0
 40
0.0602499999999999
100
AcDbArc
 50
90.0
 51
180.0
  0
LINE
  5
3A06
330
18
100
AcDbEntity
  8
Title Block
100
AcDbLine
 10
215.6141759212275
 20
-3.697019436732392
 30
0.0
 11
215.6141759212275
 21
-3.662019436732393
 31
0.0
  0
LINE
  5
3A07
330
18
100
AcDbEntity
  8
Title Block
100
AcDbLine
 10
217.3231759212275
 20
-3.693269436732395
 30
0.0
 11
217.3011759212275
 21
-3.690269436732395
 31
0.0
  0
ARC
  5
3A08
330
18
100
AcDbEntity
  8
Title Block
100
AcDbCircle
 10
217.9464153384444
 20
-3.677030008813634
 30
0.0
 40
0.0250553411569963
100
AcDbArc
 50
14.46980538942186
 51
75.53019461057309
  0
ARC
  5
3A09
330
18
100
AcDbEntity
  8
Title Block
100
AcDbCircle
 10
217.9509938210564
 20
-3.668177894637635
 30
0.0
 40
0.0154999999999964
100
AcDbArc
 50
83.76988333676754
 51
142.6272976905148
  0
MTEXT
  5
3A32
330
18
100
AcDbEntity
  8
TITLE BLOCK TEXT
100
AcDbMText
 10
220.3431312761054
 20
-3.489393816339566
 30
0.0
 40
0.048
 41
0.0
 46
0.0
 71
     4
 72
     1
  1
MOCK UP QTY: 30\PPROD QTY: 2500
  7
Roman
 73
     1
 44
1.0
  0
MTEXT
  5
3A33
330
18
100
AcDbEntity
  8
TITLE BLOCK TEXT
100
AcDbMText
 10
220.3496846080446
 20
-3.746666059204761
 30
0.0
 40
0.036
 41
0.0
 46
0.0
 71
     4
 72
     1
  1
MATL: 1095 STEEL\PMATL CERTS REQUIRED\PFINISH: DEBUR, TUMBLE
  7
Roman
 73
     1
 44
1.0
  0
MTEXT
  5
3A34
330
18
100
AcDbEntity
  8
TITLE BLOCK TEXT
100
AcDbMText
 10
221.3459265286971
 20
-3.342274995093253
 30
0.0
 40
0.036
 41
0.0
 46
0.0
 71
     4
 72
     1
  1
NOTES:\P-CAD FILES AVAILABLE WITH ORDER.\P-ACAD 2000 DWG OR ACAD DXF PROVIDED.\P-CAD FILE IN MAIN VIEW IS DRAWN 1:1.\P-BORDER IS SCALED TO PRINT.\P-LAYED TO CUT IS CALLED "PICK"
  7
Roman
 73
     1
 44
1.0
  0
ENDSEC
  0
SECTION
  2
OBJECTS
  0
DICTIONARY
  5
C
330
0
100
AcDbDictionary
281
     1
  3
ACAD_COLOR
350
3A6C
  3
ACAD_GROUP
350
D
  3
ACAD_LAYOUT
350
107
  3
ACAD_MATERIAL
350
3A3F
  3
ACAD_MLEADERSTYLE
350
3A91
  3
ACAD_MLINESTYLE
350
E
  3
ACAD_PLOTSETTINGS
350
108
  3
ACAD_PLOTSTYLENAME
350
105
  3
ACAD_SCALELIST
350
3A6F
  3
ACAD_TABLESTYLE
350
3A6D
  3
ACAD_VISUALSTYLE
350
3A58
  3
AcadDim
350
2A8
  3
ACDB_RECOMPOSE_DATA
350
3ACA
  3
AcDbVariableDictionary
350
3AC0
  3
ASE_INDEX_DICTIONARY
350
29C
  0
DICTIONARY
  5
3A9F
330
F
100
AcDbDictionary
280
     1
281
     1
  3
ADSK_XREC_LAYER_RECONCILED
360
3AA0
  0
DICTIONARY
  5
3AA1
330
24
100
AcDbDictionary
280
     1
281
     1
  3
ADSK_XREC_LAYER_RECONCILED
360
3AA2
  0
DICTIONARY
  5
3AA3
330
25
100
AcDbDictionary
280
     1
281
     1
  3
ADSK_XREC_LAYER_RECONCILED
360
3AA4
  0
DICTIONARY
  5
3AA5
330
26
100
AcDbDictionary
280
     1
281
     1
  3
ADSK_XREC_LAYER_RECONCILED
360
3AA6
  0
DICTIONARY
  5
3AA7
330
27
100
AcDbDictionary
280
     1
281
     1
  3
ADSK_XREC_LAYER_RECONCILED
360
3AA8
  0
DICTIONARY
  5
3AA9
330
28
100
AcDbDictionary
280
     1
281
     1
  3
ADSK_XREC_LAYER_RECONCILED
360
3AAA
  0
DICTIONARY
  5
3AAB
330
2A
100
AcDbDictionary
280
     1
281
     1
  3
ADSK_XREC_LAYER_RECONCILED
360
3AAC
  0
DICTIONARY
  5
3AAD
330
371
100
AcDbDictionary
280
     1
281
     1
  3
ADSK_XREC_LAYER_RECONCILED
360
3AAE
  0
DICTIONARY
  5
3AAF
330
372
100
AcDbDictionary
280
     1
281
     1
  3
ADSK_XREC_LAYER_RECONCILED
360
3AB0
  0
DICTIONARY
  5
3AB1
330
373
100
AcDbDictionary
280
     1
281
     1
  3
ADSK_XREC_LAYER_RECONCILED
360
3AB2
  0
DICTIONARY
  5
3AB3
330
374
100
AcDbDictionary
280
     1
281
     1
  3
ADSK_XREC_LAYER_RECONCILED
360
3AB4
  0
DICTIONARY
  5
3AB5
330
496
100
AcDbDictionary
280
     1
281
     1
  3
ADSK_XREC_LAYER_RECONCILED
360
3AB6
  0
DICTIONARY
  5
3AB7
330
4F0
100
AcDbDictionary
280
     1
281
     1
  3
ADSK_XREC_LAYER_RECONCILED
360
3AB8
  0
DICTIONARY
  5
3AB9
330
504
100
AcDbDictionary
280
     1
281
     1
  3
ADSK_XREC_LAYER_RECONCILED
360
3ABA
  0
DICTIONARY
  5
AF8
330
AF7
100
AcDbDictionary
280
     1
281
     1
  3
ADSK_XREC_LAYER_RECONCILED
360
3ABB
  0
DICTIONARY
  5
3ABC
330
1197
100
AcDbDictionary
280
     1
281
     1
  3
ADSK_XREC_LAYER_RECONCILED
360
3ABD
  0
DICTIONARY
  5
3ABE
330
38CD
100
AcDbDictionary
280
     1
281
     1
  3
ADSK_XREC_LAYER_RECONCILED
360
3ABF
  0
DICTIONARY
  5
3A6C
102
{ACAD_REACTORS
330
C
102
}
330
C
100
AcDbDictionary
281
     1
  0
DICTIONARY
  5
D
102
{ACAD_REACTORS
330
C
102
}
330
C
100
AcDbDictionary
281
     1
  0
DICTIONARY
  5
107
102
{ACAD_REACTORS
330
C
102
}
330
C
100
AcDbDictionary
281
     1
  3
Layout1
350
10A
  3
Model
350
109
  0
DICTIONARY
  5
3A3F
102
{ACAD_REACTORS
330
C
102
}
330
C
100
AcDbDictionary
281
     1
  3
ByBlock
350
3A48
  3
ByLayer
350
3A40
  3
Global
350
3A50
  0
DICTIONARY
  5
3A91
102
{ACAD_REACTORS
330
C
102
}
330
C
100
AcDbDictionary
281
     1
  3
Standard
350
3A92
  0
DICTIONARY
  5
E
102
{ACAD_REACTORS
330
C
102
}
330
C
100
AcDbDictionary
281
     1
  3
STANDARD
350
1B
  0
DICTIONARY
  5
108
102
{ACAD_REACTORS
330
C
102
}
330
C
100
AcDbDictionary
281
     1
  3
hp-a-fit
350
11C
  3
hp-B-1-1
350
11B
  0
ACDBDICTIONARYWDFLT
  5
105
102
{ACAD_REACTORS
330
C
102
}
330
C
100
AcDbDictionary
281
     1
  3
Normal
350
106
100
AcDbDictionaryWithDefault
340
106
  0
DICTIONARY
  5
3A6F
102
{ACAD_REACTORS
330
C
102
}
330
C
100
AcDbDictionary
281
     1
  3
A0
350
3A70
  3
A1
350
3A71
  3
A2
350
3A72
  3
A3
350
3A73
  3
A4
350
3A74
  3
A5
350
3A75
  3
A6
350
3A76
  3
A7
350
3A77
  3
A8
350
3A78
  3
A9
350
3A79
  3
B0
350
3A7A
  3
B1
350
3A7B
  3
B2
350
3A7C
  3
B3
350
3A7D
  3
B4
350
3A7E
  3
B5
350
3A7F
  3
B6
350
3A80
  3
B7
350
3A81
  3
B8
350
3A82
  3
B9
350
3A83
  3
C0
350
3A84
  3
C1
350
3A85
  3
C2
350
3A86
  3
C3
350
3A87
  3
C4
350
3A88
  3
C5
350
3A89
  3
C6
350
3A8A
  3
C7
350
3A8B
  3
C8
350
3A8C
  3
C9
350
3A8D
  3
D0
350
3A8E
  3
D1
350
3A8F
  3
D2
350
3A90
  0
DICTIONARY
  5
3A6D
102
{ACAD_REACTORS
330
C
102
}
330
C
100
AcDbDictionary
281
     1
  3
Standard
350
3A6E
  0
DICTIONARY
  5
3A58
102
{ACAD_REACTORS
330
C
102
}
330
C
100
AcDbDictionary
281
     1
  3
2dWireframe
350
3A5E
  3
3D Hidden
350
3A60
  3
3dWireframe
350
3A5F
  3
Basic
350
3A5D
  3
Brighten
350
3A64
  3
ColorChange
350
3A68
  3
Conceptual
350
3A61
  3
Dim
350
3A63
  3
EdgeColorOff
350
3A6B
  3
Facepattern
350
3A67
  3
Flat
350
3A59
  3
FlatWithEdges
350
3A5A
  3
Gouraud
350
3A5B
  3
GouraudWithEdges
350
3A5C
  3
JitterOff
350
3A69
  3
Linepattern
350
3A66
  3
OverhangOff
350
3A6A
  3
Realistic
350
3A62
  3
Thicken
350
3A65
  0
XRECORD
  5
2A8
102
{ACAD_REACTORS
330
C
102
}
330
C
100
AcDbXrecord
280
     1
 90
   990106
  3

 60
     0
 61
     0
 62
     2
 63
     2
 64
     0
 65
     0
 66
     0
 67
     3
 68
     0
 69
     0
 70
     0
 71
     0
 72
     0
 40
0.0
170
     2
340
1240
  0
XRECORD
  5
3ACA
102
{ACAD_REACTORS
330
C
102
}
330
C
100
AcDbXrecord
280
     1
 90
        1
330
3A6E
  0
DICTIONARY
  5
3AC0
102
{ACAD_REACTORS
330
C
102
}
330
C
100
AcDbDictionary
281
     1
  3
CANNOSCALE
350
3AC4
  3
CMLEADERSTYLE
350
3AC2
  3
CTABLESTYLE
350
3AC1
  3
LAYEREVAL
350
3AC6
  3
LAYERNOTIFY
350
3AC7
  3
LIGHTINGUNITS
350
3AC5
  3
MSLTSCALE
350
3AC3
  0
DICTIONARY
  5
29C
102
{ACAD_REACTORS
330
C
102
}
330
C
100
AcDbDictionary
281
     1
  3
ASEBlockHierarchyIndexRecord
350
29E
1001
DCO15
1040
1663581020.26
  0
XRECORD
  5
3AA0
102
{ACAD_REACTORS
330
3A9F
102
}
330
3A9F
100
AcDbXrecord
280
     1
290
     1
  0
XRECORD
  5
3AA2
102
{ACAD_REACTORS
330
3AA1
102
}
330
3AA1
100
AcDbXrecord
280
     1
290
     1
  0
XRECORD
  5
3AA4
102
{ACAD_REACTORS
330
3AA3
102
}
330
3AA3
100
AcDbXrecord
280
     1
290
     1
  0
XRECORD
  5
3AA6
102
{ACAD_REACTORS
330
3AA5
102
}
330
3AA5
100
AcDbXrecord
280
     1
290
     1
  0
XRECORD
  5
3AA8
102
{ACAD_REACTORS
330
3AA7
102
}
330
3AA7
100
AcDbXrecord
280
     1
290
     1
  0
XRECORD
  5
3AAA
102
{ACAD_REACTORS
330
3AA9
102
}
330
3AA9
100
AcDbXrecord
280
     1
290
     1
  0
XRECORD
  5
3AAC
102
{ACAD_REACTORS
330
3AAB
102
}
330
3AAB
100
AcDbXrecord
280
     1
290
     1
  0
XRECORD
  5
3AAE
102
{ACAD_REACTORS
330
3AAD
102
}
330
3AAD
100
AcDbXrecord
280
     1
290
     1
  0
XRECORD
  5
3AB0
102
{ACAD_REACTORS
330
3AAF
102
}
330
3AAF
100
AcDbXrecord
280
     1
290
     1
  0
XRECORD
  5
3AB2
102
{ACAD_REACTORS
330
3AB1
102
}
330
3AB1
100
AcDbXrecord
280
     1
290
     1
  0
XRECORD
  5
3AB4
102
{ACAD_REACTORS
330
3AB3
102
}
330
3AB3
100
AcDbXrecord
280
     1
290
     1
  0
XRECORD
  5
3AB6
102
{ACAD_REACTORS
330
3AB5
102
}
330
3AB5
100
AcDbXrecord
280
     1
290
     1
  0
XRECORD
  5
3AB8
102
{ACAD_REACTORS
330
3AB7
102
}
330
3AB7
100
AcDbXrecord
280
     1
290
     1
  0
XRECORD
  5
3ABA
102
{ACAD_REACTORS
330
3AB9
102
}
330
3AB9
100
AcDbXrecord
280
     1
290
     1
  0
XRECORD
  5
3ABB
102
{ACAD_REACTORS
330
AF8
102
}
330
AF8
100
AcDbXrecord
280
     1
290
     1
  0
XRECORD
  5
3ABD
102
{ACAD_REACTORS
330
3ABC
102
}
330
3ABC
100
AcDbXrecord
280
     1
290
     1
  0
XRECORD
  5
3ABF
102
{ACAD_REACTORS
330
3ABE
102
}
330
3ABE
100
AcDbXrecord
280
     1
290
     1
  0
LAYOUT
  5
10A
102
{ACAD_REACTORS
330
107
102
}
330
107
100
AcDbPlotSettings
  1

  2
C:\PROGRAM FILES\ACAD2000\plotters\HP-5000PLT.pc3
  4

  6

 40
0.0
 41
0.0
 42
0.0
 43
0.0
 44
0.0
 45
0.0
 46
0.0
 47
0.0
 48
0.0
 49
0.0
140
0.0
141
0.0
142
1.0
143
1.0
 70
   688
 72
     0
 73
     0
 74
     5
  7
tps-s1_BLACK.ctb
 75
    16
147
1.0
 76
     0
 77
     2
 78
   300
148
0.0
149
0.0
100
AcDbLayout
  1
Layout1
 70
     0
 71
     1
 10
0.0
 20
0.0
 11
12.0
 21
9.0
 12
0.0
 22
0.0
 32
0.0
 14
1.000000000000000E+20
 24
1.000000000000000E+20
 34
1.000000000000000E+20
 15
-1.000000000000000E+20
 25
-1.000000000000000E+20
 35
-1.000000000000000E+20
146
0.0
 13
0.0
 23
0.0
 33
0.0
 16
1.0
 26
0.0
 36
0.0
 17
0.0
 27
1.0
 37
0.0
 76
     0
330
15
  0
LAYOUT
  5
109
102
{ACAD_REACTORS
330
107
102
}
330
107
100
AcDbPlotSettings
  1

  2
EPSON Stylus Photo 1400 Series
  4
User262
  6
BORDER
 40
3.757083177566528
 41
3.757076978683471
 42
3.757080078125
 43
3.757080078125
 44
279.3999938964844
 45
431.7999877929687
 46
12.192
 47
15.24
 48
0.0
 49
0.0
140
0.0
141
0.0
142
1.0
143
0.5
 70
 11940
 72
     0
 73
     1
 74
     3
  7
tps-s1_BLACK.ctb
 75
     0
147
2.0
 76
     0
 77
     2
 78
   300
148
-5463.97467542001
149
106.5340460636664
100
AcDbLayout
  1
Model
 70
     1
 71
     0
 10
0.0
 20
0.0
 11
12.0
 21
9.0
 12
0.0
 22
0.0
 32
0.0
 14
0.0
 24
0.0
 34
0.0
 15
0.0
 25
0.0
 35
0.0
146
0.0
 13
0.0
 23
0.0
 33
0.0
 16
1.0
 26
0.0
 36
0.0
 17
0.0
 27
1.0
 37
0.0
 76
     0
330
18
331
3A3D
  0
MATERIAL
  5
3A48
102
{ACAD_XDICTIONARY
360
3A49
102
}
102
{ACAD_REACTORS
330
3A3F
102
}
330
3A3F
100
AcDbMaterial
  1
ByBlock
 72
     0
 43
0.0208333333333333
 43
0.0
 43
0.0
 43
0.0
 43
0.0
 43
0.0208333333333333
 43
0.0
 43
0.0
 43
0.0
 43
0.0
 43
1.0
 43
0.0
 43
0.0
 43
0.0
 43
0.0
 43
1.0
 77
     0
 47
0.0208333333333333
 47
0.0
 47
0.0
 47
0.0
 47
0.0
 47
0.0208333333333333
 47
0.0
 47
0.0
 47
0.0
 47
0.0
 47
1.0
 47
0.0
 47
0.0
 47
0.0
 47
0.0
 47
1.0
171
     0
 49
0.0208333333333333
 49
0.0
 49
0.0
 49
0.0
 49
0.0
 49
0.0208333333333333
 49
0.0
 49
0.0
 49
0.0
 49
0.0
 49
1.0
 49
0.0
 49
0.0
 49
0.0
 49
0.0
 49
1.0
175
     0
142
0.0208333333333333
142
0.0
142
0.0
142
0.0
142
0.0
142
0.0208333333333333
142
0.0
142
0.0
142
0.0
142
0.0
142
1.0
142
0.0
142
0.0
142
0.0
142
0.0
142
1.0
179
     0
144
0.0208333333333333
144
0.0
144
0.0
144
0.0
144
0.0
144
0.0208333333333333
144
0.0
144
0.0
144
0.0
144
0.0
144
1.0
144
0.0
144
0.0
144
0.0
144
0.0
144
1.0
147
0.0208333333333333
147
0.0
147
0.0
147
0.0
147
0.0
147
0.0208333333333333
147
0.0
147
0.0
147
0.0
147
0.0
147
1.0
147
0.0
147
0.0
147
0.0
147
0.0
147
1.0
  0
MATERIAL
  5
3A40
102
{ACAD_XDICTIONARY
360
3A41
102
}
102
{ACAD_REACTORS
330
3A3F
102
}
330
3A3F
100
AcDbMaterial
  1
ByLayer
 72
     0
 43
0.0208333333333333
 43
0.0
 43
0.0
 43
0.0
 43
0.0
 43
0.0208333333333333
 43
0.0
 43
0.0
 43
0.0
 43
0.0
 43
1.0
 43
0.0
 43
0.0
 43
0.0
 43
0.0
 43
1.0
 77
     0
 47
0.0208333333333333
 47
0.0
 47
0.0
 47
0.0
 47
0.0
 47
0.0208333333333333
 47
0.0
 47
0.0
 47
0.0
 47
0.0
 47
1.0
 47
0.0
 47
0.0
 47
0.0
 47
0.0
 47
1.0
171
     0
 49
0.0208333333333333
 49
0.0
 49
0.0
 49
0.0
 49
0.0
 49
0.0208333333333333
 49
0.0
 49
0.0
 49
0.0
 49
0.0
 49
1.0
 49
0.0
 49
0.0
 49
0.0
 49
0.0
 49
1.0
175
     0
142
0.0208333333333333
142
0.0
142
0.0
142
0.0
142
0.0
142
0.0208333333333333
142
0.0
142
0.0
142
0.0
142
0.0
142
1.0
142
0.0
142
0.0
142
0.0
142
0.0
142
1.0
179
     0
144
0.0208333333333333
144
0.0
144
0.0
144
0.0
144
0.0
144
0.0208333333333333
144
0.0
144
0.0
144
0.0
144
0.0
144
1.0
144
0.0
144
0.0
144
0.0
144
0.0
144
1.0
147
0.0208333333333333
147
0.0
147
0.0
147
0.0
147
0.0
147
0.0208333333333333
147
0.0
147
0.0
147
0.0
147
0.0
147
1.0
147
0.0
147
0.0
147
0.0
147
0.0
147
1.0
  0
MATERIAL
  5
3A50
102
{ACAD_XDICTIONARY
360
3A51
102
}
102
{ACAD_REACTORS
330
3A3F
102
}
330
3A3F
100
AcDbMaterial
  1
Global
 72
     0
 43
0.0208333333333333
 43
0.0
 43
0.0
 43
0.0
 43
0.0
 43
0.0208333333333333
 43
0.0
 43
0.0
 43
0.0
 43
0.0
 43
1.0
 43
0.0
 43
0.0
 43
0.0
 43
0.0
 43
1.0
 77
     0
 47
0.0208333333333333
 47
0.0
 47
0.0
 47
0.0
 47
0.0
 47
0.0208333333333333
 47
0.0
 47
0.0
 47
0.0
 47
0.0
 47
1.0
 47
0.0
 47
0.0
 47
0.0
 47
0.0
 47
1.0
171
     0
 49
0.0208333333333333
 49
0.0
 49
0.0
 49
0.0
 49
0.0
 49
0.0208333333333333
 49
0.0
 49
0.0
 49
0.0
 49
0.0
 49
1.0
 49
0.0
 49
0.0
 49
0.0
 49
0.0
 49
1.0
175
     0
142
0.0208333333333333
142
0.0
142
0.0
142
0.0
142
0.0
142
0.0208333333333333
142
0.0
142
0.0
142
0.0
142
0.0
142
1.0
142
0.0
142
0.0
142
0.0
142
0.0
142
1.0
179
     0
144
0.0208333333333333
144
0.0
144
0.0
144
0.0
144
0.0
144
0.0208333333333333
144
0.0
144
0.0
144
0.0
144
0.0
144
1.0
144
0.0
144
0.0
144
0.0
144
0.0
144
1.0
147
0.0208333333333333
147
0.0
147
0.0
147
0.0
147
0.0
147
0.0208333333333333
147
0.0
147
0.0
147
0.0
147
0.0
147
1.0
147
0.0
147
0.0
147
0.0
147
0.0
147
1.0
  0
MLEADERSTYLE
  5
3A92
102
{ACAD_REACTORS
330
3A91
102
}
330
3A91
100
AcDbMLeaderStyle
179
     2
170
     2
171
     1
172
     0
 90
        2
 40
0.0
 41
0.0
173
     1
 91
-1056964608
340
12
 92
       -2
290
     1
 42
0.09
291
     1
 43
0.36
  3
Standard
 44
0.18
300

342
10
174
     1
178
     6
175
     1
176
     0
 93
-1056964608
 45
0.18
292
     0
297
     0
 46
0.18
 94
-1056964608
 47
1.0
 49
1.0
140
1.0
293
     1
141
0.0
294
     1
177
     0
142
1.0
295
     1
296
     0
143
0.125
271
     0
272
     9
273
     9
  0
MLINESTYLE
  5
1B
102
{ACAD_REACTORS
330
E
102
}
330
E
100
AcDbMlineStyle
  2
STANDARD
 70
     0
  3

 62
     0
 51
90.0
 52
90.0
 71
     2
 49
0.5
 62
   256
  6
BYLAYER
 49
-0.5
 62
   256
  6
BYLAYER
  0
PLOTSETTINGS
  5
11C
102
{ACAD_REACTORS
330
108
102
}
330
108
100
AcDbPlotSettings
  1
hp-a-fit
  2
HP-5000PLT.pc3
  4
ANSI_A_(8.50_x_11.00_Inches)
  6
BORDER
 40
5.027082920074462
 41
5.027082920074462
 42
9.345077514648437
 43
5.11175537109375
 44
215.8999938964844
 45
279.3999938964844
 46
0.0
 47
0.0
 48
0.0
 49
0.0
140
0.0
141
0.0
142
1.0
143
1.509315367403764
 70
  1712
 72
     0
 73
     1
 74
     3
  7
tps-s1.ctb
 75
     0
147
0.6625520561154433
 76
     0
 77
     2
 78
   300
148
-12.7
149
-19.05
  0
PLOTSETTINGS
  5
11B
102
{ACAD_REACTORS
330
108
102
}
330
108
100
AcDbPlotSettings
  1
hp-B-1-1
  2
HP-5000PLT.pc3
  4
ANSI_B_(11.00_x_17.00_Inches)
  6
BORDER
 40
5.027082920074462
 41
5.027082920074462
 42
9.26043701171875
 43
5.027069091796875
 44
279.3999938964844
 45
431.7999877929687
 46
0.0
 47
0.0
 48
0.0
 49
0.0
140
0.0
141
0.0
142
1.0
143
1.0
 70
  1712
 72
     0
 73
     1
 74
     3
  7
tps-s1.ctb
 75
    16
147
1.0
 76
     0
 77
     2
 78
   300
148
-12.7
149
-19.05
  0
ACDBPLACEHOLDER
  5
106
102
{ACAD_REACTORS
330
105
102
}
330
105
  0
SCALE
  5
3A70
102
{ACAD_REACTORS
330
3A6F
102
}
330
3A6F
100
AcDbScale
 70
     0
300
1:1
140
1.0
141
1.0
290
     1
  0
SCALE
  5
3A71
102
{ACAD_REACTORS
330
3A6F
102
}
330
3A6F
100
AcDbScale
 70
     0
300
1:2
140
1.0
141
2.0
290
     0
  0
SCALE
  5
3A72
102
{ACAD_REACTORS
330
3A6F
102
}
330
3A6F
100
AcDbScale
 70
     0
300
1:4
140
1.0
141
4.0
290
     0
  0
SCALE
  5
3A73
102
{ACAD_REACTORS
330
3A6F
102
}
330
3A6F
100
AcDbScale
 70
     0
300
1:5
140
1.0
141
5.0
290
     0
  0
SCALE
  5
3A74
102
{ACAD_REACTORS
330
3A6F
102
}
330
3A6F
100
AcDbScale
 70
     0
300
1:8
140
1.0
141
8.0
290
     0
  0
SCALE
  5
3A75
102
{ACAD_REACTORS
330
3A6F
102
}
330
3A6F
100
AcDbScale
 70
     0
300
1:10
140
1.0
141
10.0
290
     0
  0
SCALE
  5
3A76
102
{ACAD_REACTORS
330
3A6F
102
}
330
3A6F
100
AcDbScale
 70
     0
300
1:16
140
1.0
141
16.0
290
     0
  0
SCALE
  5
3A77
102
{ACAD_REACTORS
330
3A6F
102
}
330
3A6F
100
AcDbScale
 70
     0
300
1:20
140
1.0
141
20.0
290
     0
  0
SCALE
  5
3A78
102
{ACAD_REACTORS
330
3A6F
102
}
330
3A6F
100
AcDbScale
 70
     0
300
1:30
140
1.0
141
30.0
290
     0
  0
SCALE
  5
3A79
102
{ACAD_REACTORS
330
3A6F
102
}
330
3A6F
100
AcDbScale
 70
     0
300
1:40
140
1.0
141
40.0
290
     0
  0
SCALE
  5
3A7A
102
{ACAD_REACTORS
330
3A6F
102
}
330
3A6F
100
AcDbScale
 70
     0
300
1:50
140
1.0
141
50.0
290
     0
  0
SCALE
  5
3A7B
102
{ACAD_REACTORS
330
3A6F
102
}
330
3A6F
100
AcDbScale
 70
     0
300
1:100
140
1.0
141
100.0
290
     0
  0
SCALE
  5
3A7C
102
{ACAD_REACTORS
330
3A6F
102
}
330
3A6F
100
AcDbScale
 70
     0
300
2:1
140
2.0
141
1.0
290
     0
  0
SCALE
  5
3A7D
102
{ACAD_REACTORS
330
3A6F
102
}
330
3A6F
100
AcDbScale
 70
     0
300
4:1
140
4.0
141
1.0
290
     0
  0
SCALE
  5
3A7E
102
{ACAD_REACTORS
330
3A6F
102
}
330
3A6F
100
AcDbScale
 70
     0
300
8:1
140
8.0
141
1.0
290
     0
  0
SCALE
  5
3A7F
102
{ACAD_REACTORS
330
3A6F
102
}
330
3A6F
100
AcDbScale
 70
     0
300
10:1
140
10.0
141
1.0
290
     0
  0
SCALE
  5
3A80
102
{ACAD_REACTORS
330
3A6F
102
}
330
3A6F
100
AcDbScale
 70
     0
300
100:1
140
100.0
141
1.0
290
     0
  0
SCALE
  5
3A81
102
{ACAD_REACTORS
330
3A6F
102
}
330
3A6F
100
AcDbScale
 70
     0
300
1/128" = 1'-0"
140
0.0078125
141
12.0
290
     0
  0
SCALE
  5
3A82
102
{ACAD_REACTORS
330
3A6F
102
}
330
3A6F
100
AcDbScale
 70
     0
300
1/64" = 1'-0"
140
0.015625
141
12.0
290
     0
  0
SCALE
  5
3A83
102
{ACAD_REACTORS
330
3A6F
102
}
330
3A6F
100
AcDbScale
 70
     0
300
1/32" = 1'-0"
140
0.03125
141
12.0
290
     0
  0
SCALE
  5
3A84
102
{ACAD_REACTORS
330
3A6F
102
}
330
3A6F
100
AcDbScale
 70
     0
300
1/16" = 1'-0"
140
0.0625
141
12.0
290
     0
  0
SCALE
  5
3A85
102
{ACAD_REACTORS
330
3A6F
102
}
330
3A6F
100
AcDbScale
 70
     0
300
3/32" = 1'-0"
140
0.09375
141
12.0
290
     0
  0
SCALE
  5
3A86
102
{ACAD_REACTORS
330
3A6F
102
}
330
3A6F
100
AcDbScale
 70
     0
300
1/8" = 1'-0"
140
0.125
141
12.0
290
     0
  0
SCALE
  5
3A87
102
{ACAD_REACTORS
330
3A6F
102
}
330
3A6F
100
AcDbScale
 70
     0
300
3/16" = 1'-0"
140
0.1875
141
12.0
290
     0
  0
SCALE
  5
3A88
102
{ACAD_REACTORS
330
3A6F
102
}
330
3A6F
100
AcDbScale
 70
     0
300
1/4" = 1'-0"
140
0.25
141
12.0
290
     0
  0
SCALE
  5
3A89
102
{ACAD_REACTORS
330
3A6F
102
}
330
3A6F
100
AcDbScale
 70
     0
300
3/8" = 1'-0"
140
0.375
141
12.0
290
     0
  0
SCALE
  5
3A8A
102
{ACAD_REACTORS
330
3A6F
102
}
330
3A6F
100
AcDbScale
 70
     0
300
1/2" = 1'-0"
140
0.5
141
12.0
290
     0
  0
SCALE
  5
3A8B
102
{ACAD_REACTORS
330
3A6F
102
}
330
3A6F
100
AcDbScale
 70
     0
300
3/4" = 1'-0"
140
0.75
141
12.0
290
     0
  0
SCALE
  5
3A8C
102
{ACAD_REACTORS
330
3A6F
102
}
330
3A6F
100
AcDbScale
 70
     0
300
1" = 1'-0"
140
1.0
141
12.0
290
     0
  0
SCALE
  5
3A8D
102
{ACAD_REACTORS
330
3A6F
102
}
330
3A6F
100
AcDbScale
 70
     0
300
1-1/2" = 1'-0"
140
1.5
141
12.0
290
     0
  0
SCALE
  5
3A8E
102
{ACAD_REACTORS
330
3A6F
102
}
330
3A6F
100
AcDbScale
 70
     0
300
3" = 1'-0"
140
3.0
141
12.0
290
     0
  0
SCALE
  5
3A8F
102
{ACAD_REACTORS
330
3A6F
102
}
330
3A6F
100
AcDbScale
 70
     0
300
6" = 1'-0"
140
6.0
141
12.0
290
     0
  0
SCALE
  5
3A90
102
{ACAD_REACTORS
330
3A6F
102
}
330
3A6F
100
AcDbScale
 70
     0
300
1'-0" = 1'-0"
140
12.0
141
12.0
290
     0
  0
TABLESTYLE
  5
3A6E
102
{ACAD_XDICTIONARY
360
3AC8
102
}
102
{ACAD_REACTORS
330
3A6D
102
}
330
3A6D
100
AcDbTableStyle
280
     0
  3
Standard
 70
     0
 71
     0
 40
0.06
 41
0.06
280
     0
281
     0
  7
STANDARD
140
0.18
170
     2
 62
     0
 63
     7
283
     0
 90
      512
 91
        0
  1

274
    -2
284
     1
 64
     0
275
    -2
285
     1
 65
     0
276
    -2
286
     1
 66
     0
277
    -2
287
     1
 67
     0
278
    -2
288
     1
 68
     0
279
    -2
289
     1
 69
     0
  7
STANDARD
140
0.25
170
     5
 62
     0
 63
     7
283
     0
 90
      512
 91
        0
  1

274
    -2
284
     1
 64
     0
275
    -2
285
     1
 65
     0
276
    -2
286
     1
 66
     0
277
    -2
287
     1
 67
     0
278
    -2
288
     1
 68
     0
279
    -2
289
     1
 69
     0
  7
STANDARD
140
0.18
170
     5
 62
     0
 63
     7
283
     0
 90
      512
 91
        0
  1

274
    -2
284
     1
 64
     0
275
    -2
285
     1
 65
     0
276
    -2
286
     1
 66
     0
277
    -2
287
     1
 67
     0
278
    -2
288
     1
 68
     0
279
    -2
289
     1
 69
     0
  0
VISUALSTYLE
  5
3A5E
102
{ACAD_REACTORS
330
3A58
102
}
330
3A58
100
AcDbVisualStyle
  2
2dWireframe
 70
     4
177
     2
291
     0
 71
     0
176
     1
 72
     2
176
     1
 73
     0
176
     1
 90
        0
176
     1
 40
0.6
176
     1
 41
30.0
176
     1
 63
     7
421
 16777215
176
     1
 74
     1
176
     1
 91
        4
176
     1
 64
     7
176
     1
 65
   257
176
     1
 75
     1
176
     1
175
     1
176
     1
 42
1.0
176
     1
 92
        0
176
     1
 66
   257
176
     1
 43
1.0
176
     1
 76
     1
176
     1
 77
     6
176
     1
 78
     2
176
     1
 67
     7
176
     1
 79
     5
176
     1
170
     0
176
     1
171
     0
176
     1
290
     0
176
     1
 93
        1
176
     1
 44
0.0
176
     1
173
     0
176
     1
  0
VISUALSTYLE
  5
3A60
102
{ACAD_REACTORS
330
3A58
102
}
330
3A58
100
AcDbVisualStyle
  2
3D Hidden
 70
     6
177
     2
291
     0
 71
     1
176
     1
 72
     2
176
     1
 73
     2
176
     1
 90
        0
176
     1
 40
0.6
176
     1
 41
30.0
176
     1
 63
     7
421
 16777215
176
     1
 74
     2
176
     1
 91
        2
176
     1
 64
     7
176
     1
 65
   257
176
     1
 75
     2
176
     1
175
     1
176
     1
 42
179.0
176
     1
 92
        0
176
     1
 66
   257
176
     1
 43
1.0
176
     1
 76
     1
176
     1
 77
     6
176
     1
 78
     2
176
     1
 67
     7
176
     1
 79
     3
176
     1
170
     0
176
     1
171
     0
176
     1
290
     0
176
     1
 93
        1
176
     1
 44
0.0
176
     1
173
     0
176
     1
  0
VISUALSTYLE
  5
3A5F
102
{ACAD_REACTORS
330
3A58
102
}
330
3A58
100
AcDbVisualStyle
  2
3dWireframe
 70
     5
177
     2
291
     0
 71
     0
176
     1
 72
     2
176
     1
 73
     0
176
     1
 90
        0
176
     1
 40
0.6
176
     1
 41
30.0
176
     1
 63
     7
421
 16777215
176
     1
 74
     1
176
     1
 91
        4
176
     1
 64
     7
176
     1
 65
   257
176
     1
 75
     1
176
     1
175
     1
176
     1
 42
1.0
176
     1
 92
        0
176
     1
 66
   257
176
     1
 43
1.0
176
     1
 76
     1
176
     1
 77
     6
176
     1
 78
     2
176
     1
 67
     7
176
     1
 79
     5
176
     1
170
     0
176
     1
171
     0
176
     1
290
     0
176
     1
 93
        1
176
     1
 44
0.0
176
     1
173
     0
176
     1
  0
VISUALSTYLE
  5
3A5D
102
{ACAD_REACTORS
330
3A58
102
}
330
3A58
100
AcDbVisualStyle
  2
Basic
 70
     7
177
     2
291
     1
 71
     1
176
     1
 72
     0
176
     1
 73
     1
176
     1
 90
        0
176
     1
 40
0.6
176
     1
 41
30.0
176
     1
 63
     7
421
 16777215
176
     1
 74
     0
176
     1
 91
        4
176
     1
 64
     7
176
     1
 65
   257
176
     1
 75
     1
176
     1
175
     1
176
     1
 42
1.0
176
     1
 92
        8
176
     1
 66
     7
176
     1
 43
1.0
176
     1
 76
     1
176
     1
 77
     6
176
     1
 78
     2
176
     1
 67
     7
176
     1
 79
     5
176
     1
170
     0
176
     1
171
     0
176
     1
290
     0
176
     1
 93
        1
176
     1
 44
0.0
176
     1
173
     0
176
     1
  0
VISUALSTYLE
  5
3A64
102
{ACAD_REACTORS
330
3A58
102
}
330
3A58
100
AcDbVisualStyle
  2
Brighten
 70
    12
177
     2
291
     1
 71
     2
176
     1
 72
     2
176
     1
 73
     0
176
     1
 90
        0
176
     1
 40
0.6
176
     1
 41
30.0
176
     1
 63
     7
421
 16777215
176
     1
 74
     1
176
     1
 91
        4
176
     1
 64
     7
176
     1
 65
   257
176
     1
 75
     1
176
     1
175
     1
176
     1
 42
1.0
176
     1
 92
        8
176
     1
 66
     7
176
     1
 43
1.0
176
     1
 76
     1
176
     1
 77
     6
176
     1
 78
     2
176
     1
 67
     7
176
     1
 79
     5
176
     1
170
     0
176
     1
171
     0
176
     1
290
     0
176
     1
 93
        1
176
     1
 44
50.0
176
     1
173
     0
176
     1
  0
VISUALSTYLE
  5
3A68
102
{ACAD_REACTORS
330
3A58
102
}
330
3A58
100
AcDbVisualStyle
  2
ColorChange
 70
    16
177
     2
291
     1
 71
     2
176
     1
 72
     2
176
     1
 73
     3
176
     1
 90
        0
176
     1
 40
0.6
176
     1
 41
30.0
176
     1
 63
     8
421
  8421504
176
     1
 74
     1
176
     1
 91
        4
176
     1
 64
     7
176
     1
 65
   257
176
     1
 75
     1
176
     1
175
     1
176
     1
 42
1.0
176
     1
 92
        8
176
     1
 66
     8
424
  8421504
176
     1
 43
1.0
176
     1
 76
     1
176
     1
 77
     6
176
     1
 78
     2
176
     1
 67
     7
176
     1
 79
     5
176
     1
170
     0
176
     1
171
     0
176
     1
290
     0
176
     1
 93
        1
176
     1
 44
0.0
176
     1
173
     0
176
     1
  0
VISUALSTYLE
  5
3A61
102
{ACAD_REACTORS
330
3A58
102
}
330
3A58
100
AcDbVisualStyle
  2
Conceptual
 70
     9
177
     2
291
     0
 71
     3
176
     1
 72
     2
176
     1
 73
     0
176
     1
 90
        0
176
     1
 40
0.6
176
     1
 41
30.0
176
     1
 63
     7
421
 16777215
176
     1
 74
     2
176
     1
 91
        2
176
     1
 64
     7
176
     1
 65
   257
176
     1
 75
     1
176
     1
175
     1
176
     1
 42
179.0
176
     1
 92
        8
176
     1
 66
     7
176
     1
 43
1.0
176
     1
 76
     1
176
     1
 77
     6
176
     1
 78
     2
176
     1
 67
     7
176
     1
 79
     3
176
     1
170
     0
176
     1
171
     0
176
     1
290
     0
176
     1
 93
        1
176
     1
 44
0.0
176
     1
173
     0
176
     1
  0
VISUALSTYLE
  5
3A63
102
{ACAD_REACTORS
330
3A58
102
}
330
3A58
100
AcDbVisualStyle
  2
Dim
 70
    11
177
     2
291
     1
 71
     2
176
     1
 72
     2
176
     1
 73
     0
176
     1
 90
        0
176
     1
 40
0.6
176
     1
 41
30.0
176
     1
 63
     7
421
 16777215
176
     1
 74
     1
176
     1
 91
        4
176
     1
 64
     7
176
     1
 65
   257
176
     1
 75
     1
176
     1
175
     1
176
     1
 42
1.0
176
     1
 92
        8
176
     1
 66
     7
176
     1
 43
1.0
176
     1
 76
     1
176
     1
 77
     6
176
     1
 78
     2
176
     1
 67
     7
176
     1
 79
     5
176
     1
170
     0
176
     1
171
     0
176
     1
290
     0
176
     1
 93
        1
176
     1
 44
-50.0
176
     1
173
     0
176
     1
  0
VISUALSTYLE
  5
3A6B
102
{ACAD_REACTORS
330
3A58
102
}
330
3A58
100
AcDbVisualStyle
  2
EdgeColorOff
 70
    22
177
     2
291
     1
 71
     2
176
     0
 72
     2
176
     0
 73
     0
176
     0
 90
        0
176
     0
 40
0.6
176
     0
 41
30.0
176
     0
 63
     7
421
 16777215
176
     0
 74
     1
176
     0
 91
        4
176
     0
 64
     7
176
     0
 65
   257
176
     0
 75
     1
176
     0
175
     1
176
     0
 42
1.0
176
     0
 92
        8
176
     2
 66
     7
176
     0
 43
1.0
176
     0
 76
     1
176
     0
 77
     6
176
     0
 78
     2
176
     0
 67
     7
176
     0
 79
     5
176
     0
170
     0
176
     0
171
     0
176
     0
290
     0
176
     0
 93
        1
176
     0
 44
0.0
176
     0
173
     0
176
     0
  0
VISUALSTYLE
  5
3A67
102
{ACAD_REACTORS
330
3A58
102
}
330
3A58
100
AcDbVisualStyle
  2
Facepattern
 70
    15
177
     2
291
     1
 71
     2
176
     1
 72
     2
176
     1
 73
     0
176
     1
 90
        0
176
     1
 40
0.6
176
     1
 41
30.0
176
     1
 63
     7
421
 16777215
176
     1
 74
     1
176
     1
 91
        4
176
     1
 64
     7
176
     1
 65
   257
176
     1
 75
     1
176
     1
175
     1
176
     1
 42
1.0
176
     1
 92
        8
176
     1
 66
     7
176
     1
 43
1.0
176
     1
 76
     1
176
     1
 77
     6
176
     1
 78
     2
176
     1
 67
     7
176
     1
 79
     5
176
     1
170
     0
176
     1
171
     0
176
     1
290
     0
176
     1
 93
        1
176
     1
 44
0.0
176
     1
173
     0
176
     1
  0
VISUALSTYLE
  5
3A59
102
{ACAD_REACTORS
330
3A58
102
}
330
3A58
100
AcDbVisualStyle
  2
Flat
 70
     0
177
     2
291
     1
 71
     2
176
     1
 72
     1
176
     1
 73
     1
176
     1
 90
        2
176
     1
 40
0.6
176
     1
 41
30.0
176
     1
 63
     7
421
 16777215
176
     1
 74
     0
176
     1
 91
        4
176
     1
 64
     7
176
     1
 65
   257
176
     1
 75
     1
176
     1
175
     1
176
     1
 42
1.0
176
     1
 92
        8
176
     1
 66
     7
176
     1
 43
1.0
176
     1
 76
     1
176
     1
 77
     6
176
     1
 78
     2
176
     1
 67
     7
176
     1
 79
     5
176
     1
170
     0
176
     1
171
     0
176
     1
290
     0
176
     1
 93
       13
176
     1
 44
0.0
176
     1
173
     0
176
     1
  0
VISUALSTYLE
  5
3A5A
102
{ACAD_REACTORS
330
3A58
102
}
330
3A58
100
AcDbVisualStyle
  2
FlatWithEdges
 70
     1
177
     2
291
     1
 71
     2
176
     1
 72
     1
176
     1
 73
     1
176
     1
 90
        2
176
     1
 40
0.6
176
     1
 41
30.0
176
     1
 63
     7
421
 16777215
176
     1
 74
     1
176
     1
 91
        4
176
     1
 64
     7
176
     1
 65
   257
176
     1
 75
     1
176
     1
175
     1
176
     1
 42
1.0
176
     1
 92
        0
176
     1
 66
   257
176
     1
 43
1.0
176
     1
 76
     1
176
     1
 77
     6
176
     1
 78
     2
176
     1
 67
     7
176
     1
 79
     5
176
     1
170
     0
176
     1
171
     0
176
     1
290
     0
176
     1
 93
       13
176
     1
 44
0.0
176
     1
173
     0
176
     1
  0
VISUALSTYLE
  5
3A5B
102
{ACAD_REACTORS
330
3A58
102
}
330
3A58
100
AcDbVisualStyle
  2
Gouraud
 70
     2
177
     2
291
     1
 71
     2
176
     1
 72
     2
176
     1
 73
     1
176
     1
 90
        2
176
     1
 40
0.6
176
     1
 41
30.0
176
     1
 63
     7
421
 16777215
176
     1
 74
     0
176
     1
 91
        4
176
     1
 64
     7
176
     1
 65
   257
176
     1
 75
     1
176
     1
175
     1
176
     1
 42
1.0
176
     1
 92
        0
176
     1
 66
     7
176
     1
 43
1.0
176
     1
 76
     1
176
     1
 77
     6
176
     1
 78
     2
176
     1
 67
     7
176
     1
 79
     5
176
     1
170
     0
176
     1
171
     0
176
     1
290
     0
176
     1
 93
       13
176
     1
 44
0.0
176
     1
173
     0
176
     1
  0
VISUALSTYLE
  5
3A5C
102
{ACAD_REACTORS
330
3A58
102
}
330
3A58
100
AcDbVisualStyle
  2
GouraudWithEdges
 70
     3
177
     2
291
     1
 71
     2
176
     1
 72
     2
176
     1
 73
     1
176
     1
 90
        2
176
     1
 40
0.6
176
     1
 41
30.0
176
     1
 63
     7
421
 16777215
176
     1
 74
     1
176
     1
 91
        4
176
     1
 64
     7
176
     1
 65
   257
176
     1
 75
     1
176
     1
175
     1
176
     1
 42
1.0
176
     1
 92
        0
176
     1
 66
   257
176
     1
 43
1.0
176
     1
 76
     1
176
     1
 77
     6
176
     1
 78
     2
176
     1
 67
     7
176
     1
 79
     5
176
     1
170
     0
176
     1
171
     0
176
     1
290
     0
176
     1
 93
       13
176
     1
 44
0.0
176
     1
173
     0
176
     1
  0
VISUALSTYLE
  5
3A69
102
{ACAD_REACTORS
330
3A58
102
}
330
3A58
100
AcDbVisualStyle
  2
JitterOff
 70
    20
177
     2
291
     1
 71
     2
176
     0
 72
     2
176
     0
 73
     0
176
     0
 90
        0
176
     0
 40
0.6
176
     0
 41
30.0
176
     0
 63
     7
421
 16777215
176
     0
 74
     1
176
     0
 91
        4
176
     0
 64
     7
176
     0
 65
   257
176
     0
 75
     1
176
     0
175
     1
176
     0
 42
1.0
176
     0
 92
       10
176
     2
 66
     7
176
     0
 43
1.0
176
     0
 76
     1
176
     0
 77
     6
176
     0
 78
     2
176
     0
 67
     7
176
     0
 79
     5
176
     0
170
     0
176
     0
171
     0
176
     0
290
     0
176
     0
 93
        1
176
     0
 44
0.0
176
     0
173
     0
176
     0
  0
VISUALSTYLE
  5
3A66
102
{ACAD_REACTORS
330
3A58
102
}
330
3A58
100
AcDbVisualStyle
  2
Linepattern
 70
    14
177
     2
291
     1
 71
     2
176
     1
 72
     2
176
     1
 73
     0
176
     1
 90
        0
176
     1
 40
0.6
176
     1
 41
30.0
176
     1
 63
     7
421
 16777215
176
     1
 74
     1
176
     1
 91
        4
176
     1
 64
     7
176
     1
 65
   257
176
     1
 75
     7
176
     1
175
     7
176
     1
 42
1.0
176
     1
 92
        8
176
     1
 66
     7
176
     1
 43
1.0
176
     1
 76
     1
176
     1
 77
     6
176
     1
 78
     2
176
     1
 67
     7
176
     1
 79
     5
176
     1
170
     0
176
     1
171
     0
176
     1
290
     0
176
     1
 93
        1
176
     1
 44
0.0
176
     1
173
     0
176
     1
  0
VISUALSTYLE
  5
3A6A
102
{ACAD_REACTORS
330
3A58
102
}
330
3A58
100
AcDbVisualStyle
  2
OverhangOff
 70
    21
177
     2
291
     1
 71
     2
176
     0
 72
     2
176
     0
 73
     0
176
     0
 90
        0
176
     0
 40
0.6
176
     0
 41
30.0
176
     0
 63
     7
421
 16777215
176
     0
 74
     1
176
     0
 91
        4
176
     0
 64
     7
176
     0
 65
   257
176
     0
 75
     1
176
     0
175
     1
176
     0
 42
1.0
176
     0
 92
        9
176
     2
 66
     7
176
     0
 43
1.0
176
     0
 76
     1
176
     0
 77
     6
176
     0
 78
     2
176
     0
 67
     7
176
     0
 79
     5
176
     0
170
     0
176
     0
171
     0
176
     0
290
     0
176
     0
 93
        1
176
     0
 44
0.0
176
     0
173
     0
176
     0
  0
VISUALSTYLE
  5
3A62
102
{ACAD_REACTORS
330
3A58
102
}
330
3A58
100
AcDbVisualStyle
  2
Realistic
 70
     8
177
     2
291
     0
 71
     2
176
     1
 72
     2
176
     1
 73
     0
176
     1
 90
        0
176
     1
 40
0.6
176
     1
 41
30.0
176
     1
 63
     7
421
 16777215
176
     1
 74
     1
176
     1
 91
        0
176
     1
 64
     7
176
     1
 65
   257
176
     1
 75
     1
176
     1
175
     1
176
     1
 42
1.0
176
     1
 92
        8
176
     1
 66
     8
424
  7895160
176
     1
 43
1.0
176
     1
 76
     1
176
     1
 77
     6
176
     1
 78
     2
176
     1
 67
     7
176
     1
 79
     5
176
     1
170
     0
176
     1
171
     0
176
     1
290
     0
176
     1
 93
       13
176
     1
 44
0.0
176
     1
173
     0
176
     1
  0
VISUALSTYLE
  5
3A65
102
{ACAD_REACTORS
330
3A58
102
}
330
3A58
100
AcDbVisualStyle
  2
Thicken
 70
    13
177
     2
291
     1
 71
     2
176
     1
 72
     2
176
     1
 73
     0
176
     1
 90
        0
176
     1
 40
0.6
176
     1
 41
30.0
176
     1
 63
     7
421
 16777215
176
     1
 74
     1
176
     1
 91
        4
176
     1
 64
     7
176
     1
 65
   257
176
     1
 75
     1
176
     1
175
     1
176
     1
 42
1.0
176
     1
 92
       12
176
     1
 66
     7
176
     1
 43
1.0
176
     1
 76
     1
176
     1
 77
     6
176
     1
 78
     2
176
     1
 67
     7
176
     1
 79
     5
176
     1
170
     0
176
     1
171
     0
176
     1
290
     0
176
     1
 93
        1
176
     1
 44
0.0
176
     1
173
     0
176
     1
  0
DICTIONARYVAR
  5
3AC4
102
{ACAD_REACTORS
330
3AC0
102
}
330
3AC0
100
DictionaryVariables
280
     0
  1
1:1
  0
DICTIONARYVAR
  5
3AC2
102
{ACAD_REACTORS
330
3AC0
102
}
330
3AC0
100
DictionaryVariables
280
     0
  1
STANDARD
  0
DICTIONARYVAR
  5
3AC1
102
{ACAD_REACTORS
330
3AC0
102
}
330
3AC0
100
DictionaryVariables
280
     0
  1
STANDARD
  0
DICTIONARYVAR
  5
3AC6
102
{ACAD_REACTORS
330
3AC0
102
}
330
3AC0
100
DictionaryVariables
280
     0
  1
1
  0
DICTIONARYVAR
  5
3AC7
102
{ACAD_REACTORS
330
3AC0
102
}
330
3AC0
100
DictionaryVariables
280
     0
  1
15
  0
DICTIONARYVAR
  5
3AC5
102
{ACAD_REACTORS
330
3AC0
102
}
330
3AC0
100
DictionaryVariables
280
     0
  1
0
  0
DICTIONARYVAR
  5
3AC3
102
{ACAD_REACTORS
330
3AC0
102
}
330
3AC0
100
DictionaryVariables
280
     0
  1
0
  0
XRECORD
  5
29E
102
{ACAD_REACTORS
330
29C
102
}
330
29C
100
AcDbXrecord
280
     1
330
0
  0
DICTIONARY
  5
3A49
330
3A48
100
AcDbDictionary
280
     1
281
     1
  3
BUMPTILE
360
3A4B
  3
DIFFUSETILE
360
3A4A
  3
OPACITYTILE
360
3A4E
  3
REFLECTIONTILE
360
3A4D
  3
REFRACTIONTILE
360
3A4F
  3
SPECULARTILE
360
3A4C
  0
DICTIONARY
  5
3A41
330
3A40
100
AcDbDictionary
280
     1
281
     1
  3
BUMPTILE
360
3A43
  3
DIFFUSETILE
360
3A42
  3
OPACITYTILE
360
3A46
  3
REFLECTIONTILE
360
3A45
  3
REFRACTIONTILE
360
3A47
  3
SPECULARTILE
360
3A44
  0
DICTIONARY
  5
3A51
330
3A50
100
AcDbDictionary
280
     1
281
     1
  3
BUMPTILE
360
3A53
  3
DIFFUSETILE
360
3A52
  3
OPACITYTILE
360
3A56
  3
REFLECTIONTILE
360
3A55
  3
REFRACTIONTILE
360
3A57
  3
SPECULARTILE
360
3A54
  0
DICTIONARY
  5
3AC8
330
3A6E
100
AcDbDictionary
280
     1
281
     1
  3
ACAD_ROUNDTRIP_2008_TABLESTYLE_CELLSTYLEMAP
360
3AC9
  0
XRECORD
  5
3A4B
102
{ACAD_REACTORS
330
3A49
102
}
330
3A49
100
AcDbXrecord
280
     1
270
     1
271
     1
  0
XRECORD
  5
3A4A
102
{ACAD_REACTORS
330
3A49
102
}
330
3A49
100
AcDbXrecord
280
     1
270
     1
271
     1
  0
XRECORD
  5
3A4E
102
{ACAD_REACTORS
330
3A49
102
}
330
3A49
100
AcDbXrecord
280
     1
270
     1
271
     1
  0
XRECORD
  5
3A4D
102
{ACAD_REACTORS
330
3A49
102
}
330
3A49
100
AcDbXrecord
280
     1
270
     1
271
     1
  0
XRECORD
  5
3A4F
102
{ACAD_REACTORS
330
3A49
102
}
330
3A49
100
AcDbXrecord
280
     1
270
     1
271
     1
  0
XRECORD
  5
3A4C
102
{ACAD_REACTORS
330
3A49
102
}
330
3A49
100
AcDbXrecord
280
     1
270
     1
271
     1
  0
XRECORD
  5
3A43
102
{ACAD_REACTORS
330
3A41
102
}
330
3A41
100
AcDbXrecord
280
     1
270
     1
271
     1
  0
XRECORD
  5
3A42
102
{ACAD_REACTORS
330
3A41
102
}
330
3A41
100
AcDbXrecord
280
     1
270
     1
271
     1
  0
XRECORD
  5
3A46
102
{ACAD_REACTORS
330
3A41
102
}
330
3A41
100
AcDbXrecord
280
     1
270
     1
271
     1
  0
XRECORD
  5
3A45
102
{ACAD_REACTORS
330
3A41
102
}
330
3A41
100
AcDbXrecord
280
     1
270
     1
271
     1
  0
XRECORD
  5
3A47
102
{ACAD_REACTORS
330
3A41
102
}
330
3A41
100
AcDbXrecord
280
     1
270
     1
271
     1
  0
XRECORD
  5
3A44
102
{ACAD_REACTORS
330
3A41
102
}
330
3A41
100
AcDbXrecord
280
     1
270
     1
271
     1
  0
XRECORD
  5
3A53
102
{ACAD_REACTORS
330
3A51
102
}
330
3A51
100
AcDbXrecord
280
     1
270
     1
271
     1
  0
XRECORD
  5
3A52
102
{ACAD_REACTORS
330
3A51
102
}
330
3A51
100
AcDbXrecord
280
     1
270
     1
271
     1
  0
XRECORD
  5
3A56
102
{ACAD_REACTORS
330
3A51
102
}
330
3A51
100
AcDbXrecord
280
     1
270
     1
271
     1
  0
XRECORD
  5
3A55
102
{ACAD_REACTORS
330
3A51
102
}
330
3A51
100
AcDbXrecord
280
     1
270
     1
271
     1
  0
XRECORD
  5
3A57
102
{ACAD_REACTORS
330
3A51
102
}
330
3A51
100
AcDbXrecord
280
     1
270
     1
271
     1
  0
XRECORD
  5
3A54
102
{ACAD_REACTORS
330
3A51
102
}
330
3A51
100
AcDbXrecord
280
     1
270
     1
271
     1
  0
CELLSTYLEMAP
  5
3AC9
102
{ACAD_REACTORS
330
3AC8
102
}
330
3AC8
100
AcDbCellStyleMap
 90
        3
300
CELLSTYLE
  1
TABLEFORMAT_BEGIN
 90
        5
170
     1
 91
        0
 92
    32768
 62
   257
 93
        1
300
CONTENTFORMAT
  1
CONTENTFORMAT_BEGIN
 90
        0
 91
        0
 92
      512
 93
        0
300

 40
0.0
140
1.0
 94
        5
 62
     0
340
10
144
0.25
309
CONTENTFORMAT_END
171
     0
 94
        0
309
TABLEFORMAT_END
  1
CELLSTYLE_BEGIN
 90
        1
 91
        1
300
_TITLE
309
CELLSTYLE_END
300
CELLSTYLE
  1
TABLEFORMAT_BEGIN
 90
        5
170
     1
 91
        0
 92
        0
 62
   257
 93
        1
300
CONTENTFORMAT
  1
CONTENTFORMAT_BEGIN
 90
        0
 91
        0
 92
      512
 93
        0
300

 40
0.0
140
1.0
 94
        5
 62
     0
340
10
144
0.18
309
CONTENTFORMAT_END
171
     0
 94
        0
309
TABLEFORMAT_END
  1
CELLSTYLE_BEGIN
 90
        2
 91
        1
300
_HEADER
309
CELLSTYLE_END
300
CELLSTYLE
  1
TABLEFORMAT_BEGIN
 90
        5
170
     1
 91
        0
 92
        0
 62
   257
 93
        1
300
CONTENTFORMAT
  1
CONTENTFORMAT_BEGIN
 90
        0
 91
        0
 92
      512
 93
        0
300

 40
0.0
140
1.0
 94
        2
 62
     0
340
10
144
0.18
309
CONTENTFORMAT_END
171
     0
 94
        0
309
TABLEFORMAT_END
  1
CELLSTYLE_BEGIN
 90
        3
 91
        2
300
_DATA
309
CELLSTYLE_END
  0
ENDSEC
  0
EOF
